<?xml version="1.0" standalone="no"?>
<!DOCTYPE svg PUBLIC "-//W3C//DTD SVG 1.1//EN" "http://www.w3.org/Graphics/SVG/1.1/DTD/svg11.dtd" >
<svg xmlns="http://www.w3.org/2000/svg">
<metadata></metadata>
<defs>
<font id="texgyreherosregular" horiz-adv-x="1138" >
<font-face units-per-em="2048" ascent="1606" descent="-442" />
<missing-glyph horiz-adv-x="569" />
<glyph unicode="IJ" horiz-adv-x="1480" d="M139 0v1493h191v-1493h-191zM508 358v121h190v-86q0 -130 58 -200t166 -70q114 0 171.5 76t57.5 254v1040h190v-1110q0 -194 -113 -307t-308 -113q-194 0 -303 106t-109 289z" />
<glyph unicode="ij" horiz-adv-x="903" d="M119 1235v213h213v-213h-213zM139 0v1073h170v-1073h-170zM414 -295l41 -2q76 -4 107.5 29.5t31.5 111.5v1229h170v-1296q0 -109 -74.5 -166t-218.5 -57q-27 0 -57 6v145zM573 1235v213h213v-213h-213z" />
<glyph unicode="fk" horiz-adv-x="1613" d="M37 934v139h143v182q0 115 66.5 179.5t185.5 64.5q47 0 96 -10v-141q-39 2 -59 2q-119 0 -119 -109v-168h178v-139h-178v-934h-170v934h-143zM709 0v1493h170v-875l454 455h219l-372 -371l438 -702h-211l-363 582l-165 -164v-418h-170z" />
<glyph unicode="ff" horiz-adv-x="1093" d="M37 934v139h143v182q0 115 66.5 179.5t185.5 64.5q47 0 96 -10v-141q-39 2 -59 2q-119 0 -119 -109v-168h359v182q0 115 66.5 179.5t185.5 64.5q47 0 96 -10v-141q-39 2 -60 2q-118 0 -118 -109v-168h178v-139h-178v-934h-170v934h-359v-934h-170v934h-143z" />
<glyph unicode="fi" horiz-adv-x="1024" d="M37 934v139h143v182q0 115 66.5 179.5t185.5 64.5q47 0 96 -10v-141q-39 2 -59 2q-119 0 -119 -109v-168h178v-139h-178v-934h-170v934h-143zM688 1235v213h213v-213h-213zM709 0v1073h170v-1073h-170z" />
<glyph unicode="fl" horiz-adv-x="1024" d="M37 934v139h143v182q0 115 66.5 179.5t185.5 64.5q47 0 96 -10v-141q-39 2 -59 2q-119 0 -119 -109v-168h178v-139h-178v-934h-170v934h-143zM709 0v1493h170v-1493h-170z" />
<glyph unicode="ffi" horiz-adv-x="1552" d="M37 934v139h143v182q0 115 66.5 179.5t185.5 64.5q47 0 96 -10v-141q-39 2 -59 2q-119 0 -119 -109v-168h359v182q0 115 66.5 179.5t185.5 64.5q47 0 96 -10v-141q-39 2 -60 2q-118 0 -118 -109v-168h178v-139h-178v-934h-170v934h-359v-934h-170v934h-143zM1217 1235 v213h213v-213h-213zM1237 0v1073h170v-1073h-170z" />
<glyph unicode="ffl" horiz-adv-x="1552" d="M37 934v139h143v182q0 115 66.5 179.5t185.5 64.5q47 0 96 -10v-141q-39 2 -59 2q-119 0 -119 -109v-168h359v182q0 115 66.5 179.5t185.5 64.5q47 0 96 -10v-141q-39 2 -60 2q-118 0 -118 -109v-168h178v-139h-178v-934h-170v934h-359v-934h-170v934h-143zM1237 0v1493 h170v-1493h-170z" />
<glyph unicode=" "  horiz-adv-x="569" />
<glyph unicode="&#x09;" horiz-adv-x="569" />
<glyph unicode="&#xa0;" horiz-adv-x="569" />
<glyph unicode="!" horiz-adv-x="569" d="M199 0v213h172v-213h-172zM201 801v692h170v-692l-45 -457h-80z" />
<glyph unicode="&#x22;" horiz-adv-x="727" d="M106 1225v227h191v-227l-55 -275h-80zM434 1225v227h191v-227l-56 -275h-80z" />
<glyph unicode="#" d="M29 391v139h233l64 357h-222v139h248l74 401h156l-74 -401h256l72 401h157l-73 -401h190v-139h-217l-64 -357h215v-139h-239l-80 -432h-156l78 432h-254l-80 -432h-155l78 432h-207zM418 530h256l63 357h-254z" />
<glyph unicode="$" d="M66 391q0 5 1 17t1 18h161q11 -107 19.5 -145t32.5 -70q70 -97 217 -117v557q-112 34 -165 56t-93 51q-146 106 -146 299q0 175 103.5 279.5t300.5 129.5v111h120v-111q186 -13 292 -120.5t106 -282.5h-162q-1 112 -67 183.5t-169 76.5v-510q142 -43 185.5 -59t83.5 -39 q174 -99 174 -316q0 -196 -114.5 -313.5t-328.5 -132.5v-211h-120v211q-207 12 -319.5 126t-112.5 312zM260 1077q0 -94 58.5 -155t179.5 -93v492q-114 -15 -176 -79t-62 -165zM618 94q132 15 203.5 91.5t71.5 189.5q0 101 -59 156.5t-216 101.5v-539z" />
<glyph unicode="%" horiz-adv-x="1820" d="M59 1053q0 144 103 247t246 103q148 0 249 -102.5t101 -251.5q0 -141 -103 -244t-245 -103q-145 0 -248 103t-103 248zM201 1053q0 -85 61.5 -146t147.5 -61q85 0 145.5 60t60.5 145q0 88 -60 148.5t-148 60.5q-85 0 -146 -60.5t-61 -146.5zM438 -41l809 1493h135 l-809 -1493h-135zM1061 311q0 143 102.5 245.5t245.5 102.5q148 0 249 -102t101 -250q0 -141 -103.5 -243.5t-244.5 -102.5q-145 0 -247.5 102.5t-102.5 247.5zM1202 311q0 -86 61.5 -146.5t147.5 -60.5q85 0 146 60t61 143q0 88 -60.5 148.5t-148.5 60.5q-85 0 -146 -60 t-61 -145z" />
<glyph unicode="&#x26;" horiz-adv-x="1366" d="M106 360q0 140 71 233.5t261 203.5q-96 120 -131 190.5t-35 142.5q0 135 102.5 228.5t248.5 93.5t239.5 -90.5t93.5 -231.5q0 -110 -61.5 -187.5t-220.5 -168.5l272 -334q64 116 64 244h164q0 -192 -119 -375l250 -309h-224l-127 160q-128 -125 -213 -166t-215 -41 q-189 0 -304.5 111.5t-115.5 295.5zM279 375q0 -107 79 -184.5t189 -77.5q80 0 151.5 39t157.5 129l-328 409q-139 -89 -194 -158.5t-55 -156.5zM440 1133q0 -54 25.5 -99t118.5 -151q120 75 165.5 129t45.5 123q0 75 -51 124.5t-128 49.5q-80 0 -128 -48.5t-48 -127.5z" />
<glyph unicode="'" horiz-adv-x="391" d="M98 1225v227h193v-227l-55 -275h-82z" />
<glyph unicode="(" horiz-adv-x="681" d="M150 530q0 242 90 502t243 461h113q-135 -218 -208 -468.5t-73 -494.5q0 -245 73 -494.5t208 -469.5h-113q-154 201 -243.5 461t-89.5 503z" />
<glyph unicode=")" horiz-adv-x="681" d="M78 -434q135 218 207.5 467.5t72.5 494.5q0 246 -72.5 495.5t-207.5 469.5h112q154 -201 244 -461.5t90 -503.5q0 -242 -90 -501.5t-244 -460.5h-112z" />
<glyph unicode="*" horiz-adv-x="796" d="M82 1221l39 120l207 -77v229h118v-229l218 77l38 -120l-221 -62l144 -182l-105 -74l-127 191l-129 -191l-102 74l141 182z" />
<glyph unicode="+" horiz-adv-x="1196" d="M139 442v140h389v389h140v-389h389v-140h-389v-389h-140v389h-389z" />
<glyph unicode="," horiz-adv-x="569" d="M178 0v213h215v-246q0 -268 -215 -268v78q72 3 97.5 41.5t25.5 144.5v37h-123z" />
<glyph unicode="-" horiz-adv-x="681" d="M94 492v147h488v-147h-488z" />
<glyph unicode="." horiz-adv-x="569" d="M178 0v213h213v-213h-213z" />
<glyph unicode="/" horiz-adv-x="569" d="M-16 -41l485 1534h113l-486 -1534h-112z" />
<glyph unicode="0" d="M88 711q0 365 120 553t355 188q475 0 475 -754q0 -357 -122 -543t-353 -186q-234 0 -354.5 188t-120.5 554zM272 709q0 -590 287 -590q151 0 223 144t72 452q0 577 -291 577q-147 0 -219 -143t-72 -440z" />
<glyph unicode="1" d="M209 1034v129q75 9 121 17.5t87.5 24t64.5 32.5t44.5 49t35 69t30.5 97h119v-1452h-181v1034h-321z" />
<glyph unicode="2" d="M70 0q8 163 46.5 269t122 189t238.5 171l189 106q196 112 196 287q0 117 -82 194.5t-205 77.5q-136 0 -209 -83t-83 -263h-181q14 504 480 504q205 0 335 -120.5t130 -305.5q0 -134 -78 -245t-230 -193l-204 -111q-134 -78 -192 -144t-71 -155h764v-178h-966z" />
<glyph unicode="3" d="M66 438h180q9 -158 83 -233.5t222 -75.5q141 0 221 77.5t80 213.5q0 123 -76.5 189.5t-224.5 66.5h-98v151q143 0 221 23.5t106.5 69t28.5 127.5q0 116 -68 181.5t-188 65.5q-139 0 -206.5 -75.5t-70.5 -235.5h-180q4 232 119.5 350.5t335.5 118.5q207 0 324.5 -106 t117.5 -293q0 -214 -202 -293q130 -44 187.5 -124.5t57.5 -213.5q0 -206 -133.5 -329.5t-357.5 -123.5q-225 0 -343.5 114t-135.5 355z" />
<glyph unicode="4" d="M57 348v191l660 913h133v-942h215v-162h-215v-348h-180v348h-613zM215 510h455v635z" />
<glyph unicode="5" d="M72 373h180q64 -244 297 -244q149 0 233 86t84 242q0 160 -85 250t-232 90q-85 0 -144 -30t-122 -105h-166l108 759h750v-178h-604l-58 -375q121 88 269 88q210 0 339.5 -130.5t129.5 -344.5q0 -229 -138.5 -370.5t-359.5 -141.5q-199 0 -318.5 96t-162.5 308z" />
<glyph unicode="6" d="M88 662q0 381 133.5 585.5t386.5 204.5q166 0 276 -100.5t136 -278.5h-180q-22 104 -85.5 161.5t-158.5 57.5q-155 0 -238.5 -142.5t-85.5 -408.5q119 162 334 162q196 0 320.5 -125.5t124.5 -326.5q0 -213 -134 -347.5t-342 -134.5q-487 0 -487 693zM283 446 q0 -139 84 -228t211 -89q125 0 206.5 85.5t81.5 221.5q0 145 -75.5 226t-206.5 81q-134 0 -217.5 -81.5t-83.5 -215.5z" />
<glyph unicode="7" d="M94 1243v178h971v-151q-229 -272 -379.5 -595.5t-210.5 -674.5h-192q153 684 596 1243h-785z" />
<glyph unicode="8" d="M76 412q0 119 61.5 205.5t186.5 146.5q-111 69 -154 134.5t-43 166.5q0 170 122 278.5t314 108.5q193 0 314.5 -108t121.5 -279q0 -103 -43 -168.5t-155 -132.5q127 -60 188.5 -146.5t61.5 -207.5q0 -197 -136 -319t-352 -122t-351.5 122t-135.5 321zM260 408 q0 -126 83 -202.5t216 -76.5q139 0 223 75.5t84 203.5q0 126 -83.5 201t-219.5 75t-219.5 -75t-83.5 -201zM311 1063q0 -103 69 -165t183 -62t183 62t69 163q0 106 -68.5 168.5t-183.5 62.5q-114 0 -183 -62.5t-69 -166.5z" />
<glyph unicode="9" d="M78 971q0 213 133.5 347t341.5 134q489 0 489 -692q0 -379 -134.5 -585t-387.5 -206q-166 0 -275.5 100.5t-135.5 278.5h180q22 -105 85 -162t158 -57q155 0 238.5 142.5t85.5 408.5q-70 -85 -149.5 -123.5t-182.5 -38.5q-197 0 -321.5 125.5t-124.5 327.5zM262 985 q0 -145 75.5 -226t207.5 -81q133 0 217 82t84 215q0 140 -84 229.5t-211 89.5q-126 0 -207.5 -86t-81.5 -223z" />
<glyph unicode=":" horiz-adv-x="569" d="M178 0v213h213v-213h-213zM178 860v213h213v-213h-213z" />
<glyph unicode=";" horiz-adv-x="569" d="M178 0v213h215v-246q0 -268 -215 -268v78q72 3 97.5 41.5t25.5 144.5v37h-123zM180 860v213h213v-213h-213z" />
<glyph unicode="&#x3c;" horiz-adv-x="1196" d="M233 459v106l685 600v-184l-533 -469l533 -469v-184z" />
<glyph unicode="=" horiz-adv-x="1196" d="M139 256v139h918v-139h-918zM139 629v139h918v-139h-918z" />
<glyph unicode="&#x3e;" horiz-adv-x="1196" d="M233 43l533 469l-533 469v184l685 -600v-106l-685 -600v184z" />
<glyph unicode="?" d="M143 1038q0 236 114 358t335 122q199 0 317.5 -107t118.5 -287q0 -101 -45 -181.5t-160 -184.5q-103 -96 -132 -141.5t-29 -112.5v-96h-185v112q0 56 13 95.5t45 82.5q27 36 47 56t108 100q82 72 118 135.5t36 134.5q0 105 -72 169.5t-190 64.5q-137 0 -201 -76.5 t-64 -243.5h-174zM477 0v213h185v-213h-185z" />
<glyph unicode="@" horiz-adv-x="2078" d="M70 528q0 197 81 380t216 316.5t321 213.5t387 80q234 0 435.5 -103t319.5 -279t118 -380q0 -114 -43 -228.5t-115.5 -205.5t-177.5 -148t-221 -57q-199 0 -226 157q-71 -77 -140 -112t-151 -35q-142 0 -237.5 107.5t-95.5 267.5q0 145 74 277t196 211t256 79 q172 0 250 -178l45 135h170l-184 -573q-27 -81 -25 -103q0 -37 30.5 -63.5t71.5 -26.5q85 0 165 67t129.5 177t49.5 227q0 168 -97.5 313t-264 230.5t-358.5 85.5q-159 0 -307.5 -65t-257.5 -173.5t-174.5 -256.5t-65.5 -306q0 -193 101 -351.5t277 -249.5t390 -91 q163 0 395 65l57 -137q-230 -86 -463 -86q-191 0 -363.5 64.5t-297 174t-197.5 261t-73 319.5zM725 500q0 -101 59 -171.5t144 -70.5q78 0 150.5 68t118 180t50.5 235v11q0 80 -54.5 133t-137.5 53q-84 0 -161 -61t-123 -163t-46 -214z" />
<glyph unicode="A" horiz-adv-x="1366" d="M35 0l532 1493h246l524 -1493h-213l-153 449h-576l-157 -449h-203zM442 608h476l-230 680z" />
<glyph unicode="B" horiz-adv-x="1366" d="M162 0v1493h606q207 0 324.5 -106t117.5 -273q0 -230 -206 -326q143 -56 207.5 -141.5t64.5 -220.5q0 -187 -120.5 -306.5t-319.5 -119.5h-674zM352 168h465q130 0 199 71.5t69 184.5q0 114 -69 186t-199 72h-465v-514zM352 850h369q155 0 227 60t72 177q0 238 -299 238 h-369v-475z" />
<glyph unicode="C" horiz-adv-x="1478" d="M98 729q0 132 27 251t83 219.5t136 174t191.5 115t244.5 41.5q486 0 576 -500h-195q-35 171 -132 251.5t-271 80.5q-216 0 -342.5 -171.5t-126.5 -459.5q0 -279 130.5 -439.5t354.5 -160.5q187 0 284.5 99.5t131.5 314.5h196q-67 -582 -614 -582q-161 0 -289.5 58 t-212 161.5t-128 243t-44.5 303.5z" />
<glyph unicode="D" horiz-adv-x="1478" d="M182 0v1493h576q284 0 446 -198.5t162 -546.5q0 -349 -162.5 -548.5t-445.5 -199.5h-576zM373 168h352q221 0 336 147t115 430q0 285 -115 432.5t-336 147.5h-352v-1157z" />
<glyph unicode="E" horiz-adv-x="1366" d="M184 0v1493h1035v-168h-844v-477h813v-168h-813v-512h880v-168h-1071z" />
<glyph unicode="F" horiz-adv-x="1251" d="M184 0v1493h1002v-168h-811v-477h712v-168h-712v-680h-191z" />
<glyph unicode="G" horiz-adv-x="1593" d="M90 731q0 168 48.5 313t138 253.5t226.5 170.5t304 62q255 0 420 -130.5t205 -359.5h-195q-31 146 -147 234t-285 88q-235 0 -379.5 -172.5t-144.5 -448.5q0 -278 142 -444t392 -166q205 0 337 125t132 324v41h-455v167h623v-788h-121l-47 197q-108 -121 -232.5 -177.5 t-277.5 -56.5q-303 0 -493.5 212.5t-190.5 555.5z" />
<glyph unicode="H" horiz-adv-x="1478" d="M170 0v1493h190v-645h768v645h191v-1493h-191v680h-768v-680h-190z" />
<glyph unicode="I" horiz-adv-x="569" d="M205 0v1493h190v-1493h-190z" />
<glyph unicode="J" horiz-adv-x="1024" d="M39 358v121h190v-86q0 -130 58.5 -200t165.5 -70q114 0 171.5 76t57.5 254v1040h190v-1110q0 -194 -113 -307t-308 -113q-194 0 -303 106t-109 289z" />
<glyph unicode="K" horiz-adv-x="1366" d="M162 0v1493h190v-756l744 756h245l-608 -608l615 -885h-226l-526 766l-244 -244v-522h-190z" />
<glyph unicode="L" d="M164 0v1493h190v-1325h738v-168h-928z" />
<glyph unicode="M" horiz-adv-x="1705" d="M154 0v1493h264l442 -1300l434 1300h265v-1493h-181v1251l-420 -1251h-200l-424 1251v-1251h-180z" />
<glyph unicode="N" horiz-adv-x="1478" d="M156 0v1493h206l781 -1221v1221h180v-1493h-215l-772 1210v-1210h-180z" />
<glyph unicode="O" horiz-adv-x="1593" d="M78 735q0 231 90 412t254 282t375 101q216 0 380.5 -101t253.5 -284t89 -422q0 -218 -88 -390.5t-253 -271t-380 -98.5q-160 0 -294 55.5t-228 155t-146.5 244t-52.5 317.5zM268 735q0 -275 146 -439.5t385 -164.5q237 0 383.5 163.5t146.5 432.5q0 284 -145 459.5 t-387 175.5q-155 0 -276 -79.5t-187 -222t-66 -325.5z" />
<glyph unicode="P" horiz-adv-x="1366" d="M186 0v1493h617q221 0 341 -113.5t120 -324.5q0 -186 -117 -304t-301 -118h-469v-633h-191zM377 801h397q137 0 214 69.5t77 192.5t-77 192.5t-214 69.5h-397v-524z" />
<glyph unicode="Q" horiz-adv-x="1593" d="M78 735q0 231 90 412t254.5 282t376.5 101t376.5 -101t254.5 -281t90 -409q0 -340 -211 -573l192 -158l-96 -119l-215 179q-176 -105 -391 -105q-160 0 -294 55.5t-228 155t-146.5 244t-52.5 317.5zM268 735q0 -275 145 -439.5t384 -164.5q123 0 245 57l-151 127l94 115 l182 -149q84 94 123 203t39 253q0 276 -146.5 450.5t-383.5 174.5t-384 -174.5t-147 -452.5z" />
<glyph unicode="R" horiz-adv-x="1478" d="M190 0v1493h689q220 0 337 -103t117 -296q0 -128 -55 -212t-180 -145q121 -52 160 -128t42 -261q1 -149 19 -206.5t72 -94.5v-47h-232q-43 98 -43 227v17l2 133q1 137 -59 201.5t-187 64.5h-491v-643h-191zM381 811h461q152 0 222.5 62t70.5 194q0 130 -68.5 194 t-224.5 64h-461v-514z" />
<glyph unicode="S" horiz-adv-x="1366" d="M98 485h181q0 -164 107 -259t314 -95q190 0 285.5 67.5t95.5 192.5q0 88 -66.5 146.5t-207.5 95.5l-371 98q-293 76 -293 348q0 204 143.5 327.5t387.5 123.5q258 0 402.5 -122t144.5 -341h-181q0 146 -96.5 224.5t-275.5 78.5q-149 0 -241.5 -74.5t-92.5 -189.5 q0 -86 55.5 -136t190.5 -85l374 -101q152 -41 235 -138.5t83 -235.5q0 -204 -152.5 -325.5t-431.5 -121.5q-179 0 -309.5 56t-205.5 175t-75 291z" />
<glyph unicode="T" horiz-adv-x="1251" d="M43 1325v168h1171v-168h-489v-1325h-190v1325h-492z" />
<glyph unicode="U" horiz-adv-x="1478" d="M174 455v1038h191v-1038q0 -158 103.5 -241t276.5 -83q180 0 282.5 86.5t102.5 237.5v1038h191v-1038q0 -224 -156.5 -358t-419.5 -134q-265 0 -418 132t-153 360z" />
<glyph unicode="V" horiz-adv-x="1366" d="M61 1493h205l439 -1264l413 1264h203l-518 -1493h-205z" />
<glyph unicode="W" horiz-adv-x="1933" d="M45 1493h213l281 -1212l331 1212h205l340 -1212l275 1212h213l-379 -1493h-209l-344 1227l-334 -1227h-209z" />
<glyph unicode="X" horiz-adv-x="1366" d="M45 0l528 766l-495 727h231l383 -586l385 586h228l-504 -727l528 -766h-235l-408 623l-410 -623h-231z" />
<glyph unicode="Y" horiz-adv-x="1366" d="M27 1493h235l438 -727l426 727h228l-561 -907v-586h-191v586z" />
<glyph unicode="Z" horiz-adv-x="1251" d="M57 0v168l897 1157h-839v168h1075v-172l-893 -1153h897v-168h-1137z" />
<glyph unicode="[" horiz-adv-x="569" d="M131 -434v1927h381v-147h-211v-1633h211v-147h-381z" />
<glyph unicode="\" horiz-adv-x="569" d="M-16 1493h112l486 -1534h-113z" />
<glyph unicode="]" horiz-adv-x="569" d="M47 -287h211v1633h-211v147h381v-1927h-381v147z" />
<glyph unicode="^" horiz-adv-x="960" d="M90 674l313 778h150l317 -778h-141l-250 614l-248 -614h-141z" />
<glyph unicode="_" d="M-45 -260h1229v-102h-1229v102z" />
<glyph unicode="`" horiz-adv-x="681" d="M-27 1493h232l196 -303h-122z" />
<glyph unicode="a" d="M86 279q0 201 188 278q51 21 108.5 32t235.5 34q101 12 140 38t39 80v45q0 77 -62.5 118.5t-177.5 41.5q-120 0 -180.5 -46t-71.5 -144h-172q14 348 430 348q198 0 301 -75t103 -218v-598q0 -40 24 -62t68 -22q19 0 37 4v-129q-71 -18 -117 -18q-63 0 -113 40t-63 101 q-70 -75 -166 -116.5t-199 -41.5q-164 0 -258 82t-94 228zM264 283q0 -164 211 -164q130 0 226 70.5t96 181.5v159q-42 -20 -89 -30t-186 -29q-139 -21 -198.5 -63t-59.5 -125z" />
<glyph unicode="b" d="M111 0v1493h170v-565q60 91 140.5 133.5t190.5 42.5q213 0 336 -147.5t123 -407.5q0 -262 -127.5 -421t-339.5 -159q-219 0 -340 185v-154h-153zM281 537q0 -183 82 -295.5t217 -112.5q140 0 226.5 113.5t86.5 296.5q0 181 -85.5 293t-227.5 112h-14q-126 0 -203 -106 q-82 -112 -82 -301z" />
<glyph unicode="c" horiz-adv-x="1024" d="M63 526q0 266 130 422t348 156q185 0 297 -99.5t127 -291.5h-172q-15 112 -81 172.5t-173 60.5q-140 0 -218.5 -110t-78.5 -310q0 -190 79.5 -294.5t221.5 -104.5q111 0 176 57.5t86 184.5h172q-15 -186 -131 -293t-307 -107q-219 0 -347.5 149t-128.5 408z" />
<glyph unicode="d" d="M53 547q0 256 125.5 406.5t335.5 150.5q220 0 330 -166v555h170v-1493h-152v158q-69 -99 -150 -144t-192 -45q-217 0 -342 153.5t-125 424.5zM231 537q0 -186 86 -297t228 -111q136 0 217.5 109t81.5 294q0 187 -82 299.5t-219 112.5q-141 0 -226.5 -110.5t-85.5 -296.5z " />
<glyph unicode="e" d="M82 530q0 264 133 419t358 155q151 0 266.5 -75.5t168.5 -207.5q43 -111 43 -334h-791q3 -178 89 -269t226 -91q215 0 281 199h172q-33 -164 -154.5 -260.5t-304.5 -96.5q-227 0 -357 149t-130 412zM264 627h602l2 12q0 127 -86 217t-211 90q-128 0 -212 -88t-95 -231z " />
<glyph unicode="f" horiz-adv-x="569" d="M37 934v139h143v182q0 115 66.5 179.5t185.5 64.5q47 0 96 -10v-141q-39 2 -59 2q-119 0 -119 -109v-168h178v-139h-178v-934h-170v934h-143z" />
<glyph unicode="g" d="M59 526q0 260 126 419t331 159q202 0 328 -186v155h157v-897q0 -178 -27 -297t-87 -191.5t-148 -103t-217 -30.5q-189 0 -301.5 85.5t-126.5 237.5h174q14 -94 83 -137t177 -43q155 0 235.5 93t80.5 300v72q-86 -103 -164 -148t-178 -45q-192 0 -317.5 153.5 t-125.5 403.5zM238 537q0 -194 79.5 -302t219.5 -108q136 0 213 106t77 297q0 195 -77 305.5t-215 110.5q-137 0 -217 -108.5t-80 -300.5z" />
<glyph unicode="h" d="M143 0v1493h170v-567q75 98 152.5 138t191.5 40q157 0 247.5 -79t90.5 -214v-811h-170v743q0 101 -62.5 156t-158.5 55q-132 0 -211.5 -99t-79.5 -263v-592h-170z" />
<glyph unicode="i" horiz-adv-x="454" d="M123 1235v213h213v-213h-213zM143 0v1073h170v-1073h-170z" />
<glyph unicode="j" horiz-adv-x="454" d="M-37 -295l41 -2h16q63 0 92 29q31 34 31 112v1229h170v-1296q0 -109 -74.5 -166t-218.5 -57q-27 0 -57 6v145zM123 1235v213h213v-213h-213z" />
<glyph unicode="k" horiz-adv-x="1024" d="M119 0v1493h170v-875l454 455h220l-373 -371l438 -702h-211l-362 582l-166 -164v-418h-170z" />
<glyph unicode="l" horiz-adv-x="454" d="M139 0v1493h170v-1493h-170z" />
<glyph unicode="m" horiz-adv-x="1705" d="M145 0v1073h156v-151q69 97 146 139.5t184 42.5q104 0 173 -39t116 -125q75 91 148.5 127.5t180.5 36.5q150 0 228.5 -77t78.5 -222v-805h-170v739q0 102 -51.5 158.5t-144.5 56.5q-105 0 -179.5 -81.5t-74.5 -198.5v-674h-170v739q0 103 -52 159t-147 56 q-104 0 -178 -81.5t-74 -198.5v-674h-170z" />
<glyph unicode="n" d="M143 0v1073h158v-180q71 113 153.5 162t202.5 49q155 0 247.5 -79.5t92.5 -213.5v-811h-170v743q0 97 -60 154t-161 57q-131 0 -212 -99t-81 -263v-592h-170z" />
<glyph unicode="o" d="M74 537q0 269 128 418t355 149q233 0 360 -149.5t127 -426.5q0 -263 -129 -411t-356 -148q-229 0 -357 149.5t-128 418.5zM252 537q0 -194 82 -302t225 -108q142 0 224.5 107.5t82.5 295.5q0 199 -81 307.5t-226 108.5q-143 0 -225 -108t-82 -301z" />
<glyph unicode="p" d="M113 -446v1519h155v-162q122 193 342 193q214 0 337.5 -154t123.5 -424q0 -255 -125.5 -406t-333.5 -151q-104 0 -182.5 38.5t-146.5 121.5v-575h-170zM283 528q0 -187 81 -293t218 -106q140 0 225.5 109.5t85.5 291.5q0 191 -84.5 302.5t-226.5 111.5 q-135 0 -217 -113.5t-82 -302.5z" />
<glyph unicode="q" d="M53 524q0 266 127 423t340 157q106 0 194 -44.5t148 -129.5v143h152v-1519h-170v585q-60 -88 -140 -129t-192 -41q-213 0 -336 147.5t-123 407.5zM231 537q0 -186 86 -297t228 -111q136 0 217.5 108.5t81.5 292.5q0 188 -81.5 301t-217.5 113q-142 0 -228 -111t-86 -296z " />
<glyph unicode="r" horiz-adv-x="681" d="M143 0v1073h156v-194q74 120 142 172.5t151 52.5q22 0 65 -6v-174q-192 -3 -268 -90.5t-76 -276.5v-557h-170z" />
<glyph unicode="s" horiz-adv-x="1024" d="M70 328h180q16 -117 77.5 -159t184.5 -42q114 0 182 43t68 117q0 57 -37.5 88t-128.5 53l-160 39q-190 46 -265 114.5t-75 194.5q0 149 112.5 238.5t299.5 89.5q186 0 286.5 -86t102.5 -244h-180q-3 85 -57.5 128.5t-157.5 43.5q-104 0 -166 -44t-62 -118q0 -57 47 -92.5 t152 -60.5l164 -39q162 -39 232.5 -105.5t70.5 -185.5q0 -154 -119 -243t-323 -89q-212 0 -317 87t-111 272z" />
<glyph unicode="t" horiz-adv-x="569" d="M29 934v139h145v295h170v-295h176v-139h-176v-703q0 -57 19 -76.5t75 -19.5q51 0 82 8v-143q-80 -14 -139 -14q-100 0 -153.5 44t-53.5 126v778h-145z" />
<glyph unicode="u" d="M133 262v811h170v-743q0 -97 60 -154t161 -57q133 0 213 99t80 263v592h170v-1073h-153v166q-75 -106 -158 -151.5t-201 -45.5q-157 0 -249.5 79.5t-92.5 213.5z" />
<glyph unicode="v" horiz-adv-x="1024" d="M20 1073h193l287 -870l303 870h192l-411 -1073h-187z" />
<glyph unicode="w" horiz-adv-x="1478" d="M12 1073h189l219 -835l205 835h209l210 -835l213 835h193l-315 -1073h-195l-217 842l-207 -842h-192z" />
<glyph unicode="x" horiz-adv-x="1024" d="M35 0l379 547l-359 526h195l258 -389l258 389h192l-360 -518l371 -555h-199l-268 412l-273 -412h-194z" />
<glyph unicode="y" horiz-adv-x="1024" d="M41 1073h182l275 -835l297 835h184l-477 -1298q-82 -221 -277 -221q-63 0 -114 26v154q60 -13 90 -13q55 0 85 23.5t52 81.5l65 170z" />
<glyph unicode="z" horiz-adv-x="1024" d="M63 0v154l642 770h-599v149h801v-151l-637 -772h666v-150h-873z" />
<glyph unicode="{" horiz-adv-x="684" d="M88 459v141q91 19 125.5 80t34.5 203v342q0 127 58.5 197.5t164.5 70.5h94v-133h-30q-75 0 -102 -28.5t-27 -108.5v-371q0 -142 -37.5 -213.5t-130.5 -108.5q86 -40 127 -118t41 -205v-371q0 -80 27 -108.5t102 -28.5h30v-133h-94q-106 0 -164.5 70.5t-58.5 197.5v342 q0 141 -34.5 202.5t-125.5 80.5z" />
<glyph unicode="|" horiz-adv-x="532" d="M197 -434v1927h139v-1927h-139z" />
<glyph unicode="}" horiz-adv-x="684" d="M59 -301h33q76 0 103.5 28.5t27.5 108.5v371q0 127 41 205t127 116q-168 77 -168 324v371q0 80 -27.5 108.5t-103.5 28.5h-33v133h97q107 0 166 -70t59 -198v-342q0 -141 34 -202.5t122 -80.5v-141q-88 -19 -122 -80.5t-34 -202.5v-342q0 -128 -59 -198t-166 -70h-97v133 z" />
<glyph unicode="~" horiz-adv-x="1196" d="M154 600q7 145 64 221t157 76q52 0 110 -33l240 -141q57 -35 102 -35q57 0 81 36t24 118h108v-33q0 -119 -58.5 -189.5t-156.5 -70.5q-84 0 -166 53l-200 129q-16 9 -45 19t-43 10q-95 0 -109 -160h-108z" />
<glyph unicode="&#xa1;" horiz-adv-x="569" d="M199 272l45 457h80l45 -457v-692h-170v692zM199 860v213h172v-213h-172z" />
<glyph unicode="&#xa2;" d="M106 518q0 250 120 406t327 178v184h86v-182q180 -12 282 -114t111 -277h-172q-10 103 -68.5 164t-152.5 69v-837q196 21 233 260h172q-11 -185 -119 -296t-286 -120v-199h-86v201q-208 19 -327.5 169t-119.5 394zM285 518q0 -173 70 -279t198 -126v831 q-132 -25 -200 -132.5t-68 -293.5z" />
<glyph unicode="&#xa3;" d="M53 657v113h166q-70 116 -89 166.5t-19 118.5q0 122 64 222.5t176 158t247 57.5q211 0 329 -118.5t122 -356.5h-181q-9 315 -278 315q-131 0 -210 -72t-79 -190q0 -36 7 -63.5t15 -45.5t40.5 -79t58.5 -113h328v-113h-279q31 -91 31 -145q0 -80 -52.5 -164t-189.5 -223 q121 80 250 80q43 0 177.5 -32t152.5 -32q81 0 170 62l86 -135q-62 -60 -126 -87.5t-143 -27.5q-57 0 -114 14t-185 58q-68 22 -135 22q-107 0 -223 -76l-98 135q141 121 198.5 209.5t57.5 182.5q0 78 -49 159h-226z" />
<glyph unicode="&#xa4;" d="M57 1137l99 98l116 -115q58 50 136 77.5t161 27.5t161 -27.5t136 -77.5l117 115l98 -98l-112 -111q102 -117 102 -307q0 -184 -102 -309l110 -115l-92 -92l-113 119q-122 -113 -305 -113t-305 113l-112 -119l-93 92l111 115q-102 125 -102 309q0 190 102 307zM217 719 q0 -149 103 -258t249 -109t249.5 109t103.5 258q0 146 -104 254t-249 108t-248.5 -108t-103.5 -254z" />
<glyph unicode="&#xa5;" d="M23 1452h174l378 -659l367 659h174l-411 -727h309v-104h-348v-158h348v-105h-348v-358h-181v358h-352v105h352v158h-352v104h309z" />
<glyph unicode="&#xa6;" horiz-adv-x="532" d="M197 336h139v-770h-139v770zM197 723v770h139v-770h-139z" />
<glyph unicode="&#xa7;" d="M88 639q0 102 50.5 174.5t164.5 132.5q-48 57 -69 104.5t-21 104.5q0 141 110 239.5t269 98.5q160 0 259 -100t99 -263v-57h-172v53q0 95 -53.5 152t-144.5 57q-78 0 -130.5 -49.5t-52.5 -124.5q0 -45 26.5 -80.5t90.5 -76.5l299 -193q124 -79 173.5 -155t49.5 -187 q0 -236 -223 -319q61 -69 85 -122.5t24 -119.5q0 -148 -109.5 -246t-273.5 -98q-183 0 -282 106.5t-99 300.5h174q0 -128 57.5 -189t151.5 -61q87 0 141.5 49.5t54.5 127.5q0 54 -26 96.5t-86 83.5l-349 239q-99 69 -143.5 145.5t-44.5 176.5zM250 672q0 -62 27 -102.5 t108 -100.5l340 -252q72 38 110.5 92.5t38.5 116.5q0 125 -149 229l-330 224q-80 -53 -112.5 -99.5t-32.5 -107.5z" />
<glyph unicode="&#xa8;" horiz-adv-x="681" d="M82 1237v209h186v-209h-186zM414 1237v209h186v-209h-186z" />
<glyph unicode="&#xa9;" horiz-adv-x="1509" d="M43 684q0 145 56.5 277t152 228t227.5 153t277 57q193 0 357.5 -96t260.5 -261t96 -358t-96 -357.5t-260.5 -260t-357.5 -95.5q-145 0 -277 56.5t-227.5 152t-152 227.5t-56.5 277zM131 684q0 -170 83.5 -314t227.5 -227.5t314 -83.5q127 0 243 49.5t200 133t133.5 199.5 t49.5 243t-49.5 243.5t-133.5 200.5t-200 133.5t-243 49.5q-170 0 -314 -84t-227.5 -228.5t-83.5 -314.5zM369 674q0 123 44.5 220.5t139 157.5t225.5 60q297 0 348 -285h-131q-19 93 -74 136t-157 43q-123 0 -195.5 -89.5t-72.5 -240.5q0 -146 75 -230t203 -84 q107 0 163 53t77 169h131q-40 -328 -371 -328q-192 0 -298.5 116.5t-106.5 301.5z" />
<glyph unicode="&#xaa;" horiz-adv-x="757" d="M76 1014q0 105 70.5 153.5t250.5 61.5q58 4 79.5 18.5t21.5 48.5v27q0 43 -36 66.5t-102 23.5q-69 0 -99 -24.5t-40 -90.5h-121q3 109 71 165.5t194 56.5q249 0 249 -193v-366q0 -48 48 -48q6 0 20 7v-91q-32 -12 -66 -12q-51 0 -77 20.5t-35 67.5q-101 -88 -215 -88 q-98 0 -155.5 53t-57.5 144zM88 621v104h567v-104h-567zM195 1020q0 -46 30.5 -71t85.5 -25q75 0 131 40.5t56 94.5v104q-41 -17 -156 -33q-80 -12 -113.5 -36.5t-33.5 -73.5z" />
<glyph unicode="&#xab;" d="M201 465v182l311 250v-170l-217 -170l217 -170v-170zM621 465v182l311 250v-170l-217 -170l217 -170v-170z" />
<glyph unicode="&#xac;" horiz-adv-x="1196" d="M139 629v139h918v-442h-139v303h-779z" />
<glyph unicode="&#xad;" horiz-adv-x="681" d="M94 492v147h488v-147h-488z" />
<glyph unicode="&#xae;" horiz-adv-x="1509" d="M43 684q0 145 56.5 277t152 228t227.5 153t277 57q193 0 357.5 -96t260.5 -261t96 -358t-96 -357.5t-260.5 -260t-357.5 -95.5q-145 0 -277 56.5t-227.5 152t-152 227.5t-56.5 277zM131 684q0 -170 83.5 -314t227.5 -227.5t314 -83.5q127 0 243 49.5t200 133t133.5 199.5 t49.5 243t-49.5 243.5t-133.5 200.5t-200 133.5t-243 49.5q-170 0 -314 -84t-227.5 -228.5t-83.5 -314.5zM393 276v816h414q133 0 203.5 -58t70.5 -164q0 -68 -29.5 -113t-97.5 -77q64 -28 85.5 -70t23.5 -139q2 -79 11.5 -108.5t41.5 -49.5v-37h-149q-29 63 -29 140l2 69 q0 70 -33 103t-104 33h-281v-345h-129zM522 727h262q86 0 126 31t40 98q0 65 -39.5 97t-126.5 32h-262v-258z" />
<glyph unicode="&#xaf;" horiz-adv-x="681" d="M57 1270v143h561v-143h-561z" />
<glyph unicode="&#xb0;" horiz-adv-x="819" d="M111 1141q0 127 85.5 213t213.5 86t213.5 -86t85.5 -213t-85.5 -213t-213.5 -86t-213.5 86t-85.5 213zM209 1141q0 -83 60 -147t141 -64t140.5 64t59.5 147t-59.5 147t-140.5 64t-141 -64t-60 -147z" />
<glyph unicode="&#xb1;" horiz-adv-x="1196" d="M139 0v139h918v-139h-918zM139 582v139h389v389h140v-389h389v-139h-389v-318h-140v318h-389z" />
<glyph unicode="&#xb2;" horiz-adv-x="681" d="M59 686q6 131 52.5 200t175.5 136l106 57q105 55 105 142q0 58 -43.5 96.5t-108.5 38.5q-74 0 -113 -41.5t-45 -136.5h-110q3 139 69.5 206.5t200.5 67.5q117 0 190.5 -63.5t73.5 -163.5q0 -144 -174 -232l-112 -59q-59 -29 -87.5 -60t-43.5 -83h411v-105h-547z" />
<glyph unicode="&#xb3;" horiz-adv-x="681" d="M70 918h112q3 -84 42.5 -123t121.5 -39q75 0 118.5 39t43.5 108q0 79 -50.5 104t-172.5 25v92q115 0 156.5 23t41.5 86q0 57 -37 90t-100 33q-76 0 -111.5 -37t-35.5 -123h-113q6 256 260 256q115 0 182.5 -58.5t67.5 -158.5q0 -107 -102 -152q127 -46 127 -180 q0 -110 -75.5 -175.5t-203.5 -65.5q-131 0 -201.5 66.5t-70.5 189.5z" />
<glyph unicode="&#xb4;" horiz-adv-x="681" d="M281 1190l196 303h232l-306 -303h-122z" />
<glyph unicode="&#xb5;" d="M133 -451v1524h170v-760q0 -97 59.5 -154t159.5 -57q133 0 213 99t80 264v608h170v-893q0 -84 92 -84q17 0 37 4v-129q-68 -18 -117 -18q-88 0 -130.5 41t-45.5 129q-120 -170 -334 -170q-111 0 -184 53v-457h-170z" />
<glyph unicode="&#xb6;" horiz-adv-x="1099" d="M98 1001q0 207 133 349.5t326 142.5h512v-131h-117v-1724h-131v1724h-168v-1724h-131v892q-197 10 -310.5 144t-113.5 327z" />
<glyph unicode="&#xb7;" horiz-adv-x="569" d="M178 512q0 44 31.5 75t75.5 31t75 -31t31 -75t-31 -75t-75 -31t-75.5 31t-31.5 75z" />
<glyph unicode="&#xb8;" horiz-adv-x="681" d="M80 -401l43 82l18 -9q71 -35 107.5 -47t75.5 -12q47 0 78.5 26t31.5 66q0 37 -25.5 63.5t-68.5 26.5q-28 0 -64 -8l-34 25l86 198h98l-47 -121h47q73 0 117.5 -50.5t44.5 -119.5q0 -88 -67.5 -139t-184.5 -51q-59 0 -109 14t-147 56z" />
<glyph unicode="&#xb9;" horiz-adv-x="681" d="M143 1219v84l27 2q66 4 99.5 17.5t52 41.5t34.5 88h76v-766h-110v533h-179z" />
<glyph unicode="&#xba;" horiz-adv-x="747" d="M82 1169q0 166 76.5 258.5t214.5 92.5q140 0 215.5 -92.5t75.5 -264.5q0 -163 -77 -254.5t-214 -91.5q-138 0 -214.5 92.5t-76.5 259.5zM104 621v104h539v-104h-539zM201 1169q0 -115 46 -180t126 -65t126 64.5t46 176.5q0 117 -45 182.5t-127 65.5q-80 0 -126 -65 t-46 -179z" />
<glyph unicode="&#xbb;" d="M201 217v170l221 170l-221 170v170l315 -248v-182zM608 217v170l221 170l-221 170v170l316 -248v-182z" />
<glyph unicode="&#xbc;" horiz-adv-x="1708" d="M166 1219v84l27 2q66 4 99.5 17.5t52 41.5t34.5 88h76v-766h-111v533h-178zM350 -51l926 1503h119l-926 -1503h-119zM999 180v107l369 479h82v-490h121v-96h-121v-180h-111v180h-340zM1106 276h233v306z" />
<glyph unicode="&#xbd;" horiz-adv-x="1708" d="M166 1219v84l27 2q66 4 99.5 17.5t52 41.5t34.5 88h76v-766h-111v533h-178zM260 -51l926 1503h119l-926 -1503h-119zM1010 0q6 131 52 200t175 138l104 55q107 55 107 142q0 58 -44 96.5t-110 38.5q-73 0 -111 -41.5t-44 -136.5h-113q4 139 71 206.5t201 67.5 q117 0 191 -63.5t74 -163.5q0 -144 -174 -232l-113 -59q-59 -29 -87.5 -60.5t-43.5 -83.5h411v-104h-546z" />
<glyph unicode="&#xbe;" horiz-adv-x="1708" d="M131 918h113q3 -84 42.5 -123t121.5 -39q75 0 118 39t43 108q0 79 -50.5 104t-172.5 25v92q115 0 157 23t42 86q0 57 -37 90t-100 33q-77 0 -112.5 -37t-35.5 -123h-113q6 256 261 256q115 0 182 -58.5t67 -158.5q0 -107 -102 -152q127 -46 127 -180q0 -110 -75.5 -175.5 t-203.5 -65.5q-131 0 -201.5 66.5t-70.5 189.5zM391 -51l926 1503h119l-926 -1503h-119zM979 180v107l369 479h82v-490h120v-96h-120v-180h-111v180h-340zM1085 276h234v306z" />
<glyph unicode="&#xbf;" d="M111 -51q0 102 44.5 182t159.5 184q104 96 133 142t29 112v97h185v-113q0 -56 -13 -95.5t-45 -82.5q-27 -36 -47 -56t-108 -100q-82 -72 -118 -135.5t-36 -134.5q0 -105 72 -169.5t190 -64.5q137 0 200.5 76.5t63.5 243.5h174q0 -236 -113.5 -357.5t-334.5 -121.5 q-200 0 -318 106.5t-118 286.5zM477 860v213h185v-213h-185z" />
<glyph unicode="&#xc0;" horiz-adv-x="1366" d="M35 0l532 1493h246l524 -1493h-213l-153 449h-576l-157 -449h-203zM250 1876h278l236 -272h-148zM442 608h476l-230 680z" />
<glyph unicode="&#xc1;" horiz-adv-x="1366" d="M35 0l532 1493h246l524 -1493h-213l-153 449h-576l-157 -449h-203zM442 608h476l-230 680zM616 1604l236 272h278l-366 -272h-148z" />
<glyph unicode="&#xc2;" horiz-adv-x="1366" d="M35 0l532 1493h246l524 -1493h-213l-153 449h-576l-157 -449h-203zM338 1604l235 276h234l235 -276h-153l-199 176l-194 -176h-158zM442 608h476l-230 680z" />
<glyph unicode="&#xc3;" horiz-adv-x="1366" d="M35 0l532 1493h246l524 -1493h-213l-153 449h-576l-157 -449h-203zM360 1636q17 101 63 156t114 55q31 0 55 -6.5t88 -32.5q80 -36 129 -36q52 0 76 75h119q-30 -213 -183 -213q-28 0 -57 9t-117 43q-71 26 -100 26q-23 0 -41 -20t-27 -56h-119zM442 608h476l-230 680z " />
<glyph unicode="&#xc4;" horiz-adv-x="1366" d="M35 0l532 1493h246l524 -1493h-213l-153 449h-576l-157 -449h-203zM432 1636v209h186v-209h-186zM442 608h476l-230 680zM764 1636v209h186v-209h-186z" />
<glyph unicode="&#xc5;" horiz-adv-x="1366" d="M35 0l532 1493h246l524 -1493h-213l-153 449h-576l-157 -449h-203zM442 608h476l-230 680zM494 1774q0 78 58.5 136t139.5 58q82 0 139.5 -58t57.5 -141q0 -79 -58.5 -136.5t-138.5 -57.5q-82 0 -140 58.5t-58 140.5zM592 1774q0 -41 29.5 -71t70.5 -30q40 0 69.5 29 t29.5 67q0 43 -29 72t-70 29t-70.5 -28.5t-29.5 -67.5z" />
<glyph unicode="&#xc6;" horiz-adv-x="2048" d="M23 0l612 1493h1274v-168h-760v-477h721v-168h-721v-512h797v-168h-988v438h-550l-175 -438h-210zM471 606h487v719h-204z" />
<glyph unicode="&#xc7;" horiz-adv-x="1478" d="M98 729q0 132 27 251t83 219.5t136 174t191.5 115t244.5 41.5q486 0 576 -500h-195q-35 171 -132 251.5t-271 80.5q-216 0 -342.5 -171.5t-126.5 -459.5q0 -279 130.5 -439.5t354.5 -160.5q187 0 284.5 99.5t131.5 314.5h196q-64 -559 -569 -580l-29 -76h48q73 0 117 -50 t44 -120q0 -88 -67.5 -139t-184.5 -51q-59 0 -109 14t-147 56l43 82l19 -9q71 -36 107 -47.5t75 -11.5q47 0 79 26t32 66q0 37 -25.5 63.5t-68.5 26.5q-28 0 -64 -8l-35 25l66 153q-148 10 -266 72t-195 163.5t-117.5 236.5t-40.5 292z" />
<glyph unicode="&#xc8;" horiz-adv-x="1366" d="M184 0v1493h1035v-168h-844v-477h813v-168h-813v-512h880v-168h-1071zM262 1876h279l235 -272h-147z" />
<glyph unicode="&#xc9;" horiz-adv-x="1366" d="M184 0v1493h1035v-168h-844v-477h813v-168h-813v-512h880v-168h-1071zM629 1604l235 272h279l-367 -272h-147z" />
<glyph unicode="&#xca;" horiz-adv-x="1366" d="M184 0v1493h1035v-168h-844v-477h813v-168h-813v-512h880v-168h-1071zM350 1604l236 276h233l236 -276h-154l-199 176l-194 -176h-158z" />
<glyph unicode="&#xcb;" horiz-adv-x="1366" d="M184 0v1493h1035v-168h-844v-477h813v-168h-813v-512h880v-168h-1071zM444 1636v209h187v-209h-187zM776 1636v209h187v-209h-187z" />
<glyph unicode="&#xcc;" horiz-adv-x="569" d="M-119 1876h279l235 -272h-147zM205 0v1493h190v-1493h-190z" />
<glyph unicode="&#xcd;" horiz-adv-x="569" d="M205 0v1493h190v-1493h-190zM207 1604l235 272h279l-367 -272h-147z" />
<glyph unicode="&#xce;" horiz-adv-x="569" d="M-51 1604l235 276h234l235 -276h-153l-199 176l-195 -176h-157zM205 0v1493h190v-1493h-190z" />
<glyph unicode="&#xcf;" horiz-adv-x="569" d="M43 1636v209h186v-209h-186zM205 0v1493h190v-1493h-190zM375 1636v209h186v-209h-186z" />
<glyph unicode="&#xd0;" horiz-adv-x="1478" d="M41 694v137h141v662h578q283 0 444.5 -199t161.5 -546q0 -349 -161.5 -548.5t-444.5 -199.5h-578v694h-141zM373 168h354q220 0 334.5 147.5t114.5 432.5q0 284 -114.5 430.5t-334.5 146.5h-354v-494h350v-137h-350v-526z" />
<glyph unicode="&#xd1;" horiz-adv-x="1478" d="M156 0v1493h206l781 -1221v1221h180v-1493h-215l-772 1210v-1210h-180zM410 1636q17 101 63 156t113 55q31 0 55 -6.5t88 -32.5q80 -36 129 -36q52 0 76 75h119q-30 -213 -183 -213q-28 0 -57 9t-117 43q-71 26 -100 26q-23 0 -41 -20t-27 -56h-118z" />
<glyph unicode="&#xd2;" horiz-adv-x="1593" d="M78 735q0 231 90 412t254 282t375 101q216 0 380.5 -101t253.5 -284t89 -422q0 -218 -88 -390.5t-253 -271t-380 -98.5q-160 0 -294 55.5t-228 155t-146.5 244t-52.5 317.5zM268 735q0 -275 146 -439.5t385 -164.5q237 0 383.5 163.5t146.5 432.5q0 284 -145 459.5 t-387 175.5q-155 0 -276 -79.5t-187 -222t-66 -325.5zM356 1876h279l235 -272h-147z" />
<glyph unicode="&#xd3;" horiz-adv-x="1593" d="M78 735q0 231 90 412t254 282t375 101q216 0 380.5 -101t253.5 -284t89 -422q0 -218 -88 -390.5t-253 -271t-380 -98.5q-160 0 -294 55.5t-228 155t-146.5 244t-52.5 317.5zM268 735q0 -275 146 -439.5t385 -164.5q237 0 383.5 163.5t146.5 432.5q0 284 -145 459.5 t-387 175.5q-155 0 -276 -79.5t-187 -222t-66 -325.5zM723 1604l235 272h279l-367 -272h-147z" />
<glyph unicode="&#xd4;" horiz-adv-x="1593" d="M78 735q0 231 90 412t254 282t375 101q216 0 380.5 -101t253.5 -284t89 -422q0 -218 -88 -390.5t-253 -271t-380 -98.5q-160 0 -294 55.5t-228 155t-146.5 244t-52.5 317.5zM268 735q0 -275 146 -439.5t385 -164.5q237 0 383.5 163.5t146.5 432.5q0 284 -145 459.5 t-387 175.5q-155 0 -276 -79.5t-187 -222t-66 -325.5zM444 1604l236 276h233l236 -276h-154l-198 176l-195 -176h-158z" />
<glyph unicode="&#xd5;" horiz-adv-x="1593" d="M78 735q0 231 90 412t254 282t375 101q216 0 380.5 -101t253.5 -284t89 -422q0 -218 -88 -390.5t-253 -271t-380 -98.5q-160 0 -294 55.5t-228 155t-146.5 244t-52.5 317.5zM268 735q0 -275 146 -439.5t385 -164.5q237 0 383.5 163.5t146.5 432.5q0 284 -145 459.5 t-387 175.5q-155 0 -276 -79.5t-187 -222t-66 -325.5zM467 1636q17 101 63 156t113 55q31 0 55 -6.5t88 -32.5q80 -36 129 -36q52 0 76 75h119q-30 -213 -182 -213q-28 0 -57 9t-117 43q-71 26 -101 26q-48 0 -67 -76h-119z" />
<glyph unicode="&#xd6;" horiz-adv-x="1593" d="M78 735q0 231 90 412t254 282t375 101q216 0 380.5 -101t253.5 -284t89 -422q0 -218 -88 -390.5t-253 -271t-380 -98.5q-160 0 -294 55.5t-228 155t-146.5 244t-52.5 317.5zM268 735q0 -275 146 -439.5t385 -164.5q237 0 383.5 163.5t146.5 432.5q0 284 -145 459.5 t-387 175.5q-155 0 -276 -79.5t-187 -222t-66 -325.5zM539 1636v209h186v-209h-186zM870 1636v209h187v-209h-187z" />
<glyph unicode="&#xd7;" horiz-adv-x="1196" d="M225 238l275 274l-275 274l99 99l274 -275l274 275l99 -99l-275 -274l275 -274l-99 -99l-274 275l-274 -275z" />
<glyph unicode="&#xd8;" horiz-adv-x="1593" d="M78 43l162 176q-162 204 -162 516q0 231 90 412t254 282t375 101q291 0 481 -178l158 174l84 -76l-166 -180q166 -218 166 -547q0 -218 -88 -390.5t-253 -271t-380 -98.5q-293 0 -484 172l-153 -168zM268 735q0 -223 99 -377l788 861q-140 143 -358 143 q-155 0 -276 -79.5t-187 -222t-66 -325.5zM438 270q139 -139 361 -139q237 0 383.5 163.5t146.5 432.5q0 242 -104 401z" />
<glyph unicode="&#xd9;" horiz-adv-x="1478" d="M174 455v1038h191v-1038q0 -158 103.5 -241t276.5 -83q180 0 282.5 86.5t102.5 237.5v1038h191v-1038q0 -224 -156.5 -358t-419.5 -134q-265 0 -418 132t-153 360zM299 1876h279l235 -272h-147z" />
<glyph unicode="&#xda;" horiz-adv-x="1478" d="M174 455v1038h191v-1038q0 -158 103.5 -241t276.5 -83q180 0 282.5 86.5t102.5 237.5v1038h191v-1038q0 -224 -156.5 -358t-419.5 -134q-265 0 -418 132t-153 360zM666 1604l235 272h279l-367 -272h-147z" />
<glyph unicode="&#xdb;" horiz-adv-x="1478" d="M174 455v1038h191v-1038q0 -158 103.5 -241t276.5 -83q180 0 282.5 86.5t102.5 237.5v1038h191v-1038q0 -224 -156.5 -358t-419.5 -134q-265 0 -418 132t-153 360zM387 1604l236 276h233l236 -276h-154l-199 176l-194 -176h-158z" />
<glyph unicode="&#xdc;" horiz-adv-x="1478" d="M174 455v1038h191v-1038q0 -158 103.5 -241t276.5 -83q180 0 282.5 86.5t102.5 237.5v1038h191v-1038q0 -224 -156.5 -358t-419.5 -134q-265 0 -418 132t-153 360zM481 1636v209h187v-209h-187zM813 1636v209h186v-209h-186z" />
<glyph unicode="&#xdd;" horiz-adv-x="1366" d="M27 1493h235l438 -727l426 727h228l-561 -907v-586h-191v586zM625 1604l235 272h279l-367 -272h-147z" />
<glyph unicode="&#xde;" horiz-adv-x="1366" d="M186 0v1493h191v-246h426q214 0 336.5 -116t122.5 -318q0 -187 -116.5 -306.5t-299.5 -119.5h-469v-387h-191zM377 555h397q133 0 208 69.5t75 192.5t-75 192.5t-208 69.5h-397v-524z" />
<glyph unicode="&#xdf;" horiz-adv-x="1251" d="M143 0v1102q0 110 63 201t166.5 140.5t223.5 49.5q125 0 233.5 -45.5t177 -133t68.5 -198.5q0 -98 -55.5 -179t-147.5 -116q127 -34 207 -137.5t80 -234.5q0 -226 -124 -358t-335 -132q-96 0 -172 8v170q85 -10 156 -10q132 0 214.5 86t82.5 223q0 158 -94 218.5 t-289 60.5v168q121 0 210 62.5t89 164.5q0 100 -88.5 161.5t-208.5 61.5q-117 0 -202 -65t-85 -166v-1102h-170z" />
<glyph unicode="&#xe0;" d="M86 279q0 201 188 278q51 21 108.5 32t235.5 34q101 12 140 38t39 80v45q0 77 -62.5 118.5t-177.5 41.5q-120 0 -180.5 -46t-71.5 -144h-172q14 348 430 348q198 0 301 -75t103 -218v-598q0 -40 24 -62t68 -22q19 0 37 4v-129q-71 -18 -117 -18q-63 0 -113 40t-63 101 q-70 -75 -166 -116.5t-199 -41.5q-164 0 -258 82t-94 228zM197 1493h231l197 -303h-123zM264 283q0 -164 211 -164q130 0 226 70.5t96 181.5v159q-42 -20 -89 -30t-186 -29q-139 -21 -198.5 -63t-59.5 -125z" />
<glyph unicode="&#xe1;" d="M86 279q0 201 188 278q51 21 108.5 32t235.5 34q101 12 140 38t39 80v45q0 77 -62.5 118.5t-177.5 41.5q-120 0 -180.5 -46t-71.5 -144h-172q14 348 430 348q198 0 301 -75t103 -218v-598q0 -40 24 -62t68 -22q19 0 37 4v-129q-71 -18 -117 -18q-63 0 -113 40t-63 101 q-70 -75 -166 -116.5t-199 -41.5q-164 0 -258 82t-94 228zM264 283q0 -164 211 -164q130 0 226 70.5t96 181.5v159q-42 -20 -89 -30t-186 -29q-139 -21 -198.5 -63t-59.5 -125zM502 1190l196 303h232l-305 -303h-123z" />
<glyph unicode="&#xe2;" d="M86 279q0 201 188 278q51 21 108.5 32t235.5 34q101 12 140 38t39 80v45q0 77 -62.5 118.5t-177.5 41.5q-120 0 -180.5 -46t-71.5 -144h-172q14 348 430 348q198 0 301 -75t103 -218v-598q0 -40 24 -62t68 -22q19 0 37 4v-129q-71 -18 -117 -18q-63 0 -113 40t-63 101 q-70 -75 -166 -116.5t-199 -41.5q-164 0 -258 82t-94 228zM264 283q0 -164 211 -164q130 0 226 70.5t96 181.5v159q-42 -20 -89 -30t-186 -29q-139 -21 -198.5 -63t-59.5 -125zM268 1188l197 307h194l197 -307h-129l-166 196l-162 -196h-131z" />
<glyph unicode="&#xe3;" d="M86 279q0 201 188 278q51 21 108.5 32t235.5 34q101 12 140 38t39 80v45q0 77 -62.5 118.5t-177.5 41.5q-120 0 -180.5 -46t-71.5 -144h-172q14 348 430 348q198 0 301 -75t103 -218v-598q0 -40 24 -62t68 -22q19 0 37 4v-129q-71 -18 -117 -18q-63 0 -113 40t-63 101 q-70 -75 -166 -116.5t-199 -41.5q-164 0 -258 82t-94 228zM231 1237q17 101 63 156t114 55q31 0 55 -6.5t88 -32.5q82 -37 129 -37q52 0 76 76h118q-30 -213 -182 -213q-29 0 -58.5 9t-115.5 42q-73 27 -100 27q-23 0 -41 -20t-27 -56h-119zM264 283q0 -164 211 -164 q130 0 226 70.5t96 181.5v159q-42 -20 -89 -30t-186 -29q-139 -21 -198.5 -63t-59.5 -125z" />
<glyph unicode="&#xe4;" d="M86 279q0 201 188 278q51 21 108.5 32t235.5 34q101 12 140 38t39 80v45q0 77 -62.5 118.5t-177.5 41.5q-120 0 -180.5 -46t-71.5 -144h-172q14 348 430 348q198 0 301 -75t103 -218v-598q0 -40 24 -62t68 -22q19 0 37 4v-129q-71 -18 -117 -18q-63 0 -113 40t-63 101 q-70 -75 -166 -116.5t-199 -41.5q-164 0 -258 82t-94 228zM264 283q0 -164 211 -164q130 0 226 70.5t96 181.5v159q-42 -20 -89 -30t-186 -29q-139 -21 -198.5 -63t-59.5 -125zM303 1237v209h186v-209h-186zM635 1237v209h186v-209h-186z" />
<glyph unicode="&#xe5;" d="M86 279q0 201 188 278q51 21 108.5 32t235.5 34q101 12 140 38t39 80v45q0 77 -62.5 118.5t-177.5 41.5q-120 0 -180.5 -46t-71.5 -144h-172q14 348 430 348q198 0 301 -75t103 -218v-598q0 -40 24 -62t68 -22q19 0 37 4v-129q-71 -18 -117 -18q-63 0 -113 40t-63 101 q-70 -75 -166 -116.5t-199 -41.5q-164 0 -258 82t-94 228zM264 283q0 -164 211 -164q130 0 226 70.5t96 181.5v159q-42 -20 -89 -30t-186 -29q-139 -21 -198.5 -63t-59.5 -125zM365 1343q0 79 58.5 137t139.5 58q82 0 139.5 -58t57.5 -141q0 -79 -58.5 -136.5t-138.5 -57.5 q-82 0 -140 58t-58 140zM463 1343q0 -41 29.5 -70.5t70.5 -29.5q40 0 69.5 29t29.5 67q0 43 -29 72t-70 29t-70.5 -29t-29.5 -68z" />
<glyph unicode="&#xe6;" horiz-adv-x="1820" d="M70 279q0 114 46.5 180.5t160.5 105t325 56.5q104 9 141 34.5t37 85.5v45q0 78 -61.5 119t-179.5 41q-119 0 -179.5 -46t-70.5 -144h-172q14 348 426 348q263 0 358 -168q56 78 150 123t204 45q149 0 264.5 -76t168.5 -207q43 -111 43 -342h-791q3 -167 90 -259.5 t225 -92.5q101 0 173.5 52t109.5 147h172q-32 -164 -154.5 -260.5t-302.5 -96.5q-118 0 -214 45t-150 125l-33 56q-116 -120 -219 -173t-223 -53q-158 0 -251 83t-93 227zM248 283q0 -79 54.5 -121.5t150.5 -42.5q75 0 152.5 36t126 87t48.5 96v190q-42 -19 -89 -28.5 t-185 -30.5q-141 -21 -199.5 -62t-58.5 -124zM944 618h602q0 146 -82 237t-213 91q-129 0 -213 -89.5t-94 -238.5z" />
<glyph unicode="&#xe7;" horiz-adv-x="1024" d="M63 526q0 266 130 422t348 156q185 0 297 -99.5t127 -291.5h-172q-15 112 -81 172.5t-173 60.5q-140 0 -218.5 -110t-78.5 -310q0 -190 79.5 -294.5t221.5 -104.5q111 0 176 57.5t86 184.5h172q-14 -171 -114 -276t-267 -122l-33 -82h47q73 0 117.5 -50.5t44.5 -119.5 q0 -88 -67.5 -139t-184.5 -51q-59 0 -109 14t-147 56l43 82l19 -9q71 -36 107 -47.5t75 -11.5q47 0 78.5 26t31.5 66q0 37 -25.5 63.5t-68.5 26.5q-27 0 -63 -8l-35 25l70 159q-201 15 -317 162.5t-116 392.5z" />
<glyph unicode="&#xe8;" d="M82 530q0 264 133 419t358 155q151 0 266.5 -75.5t168.5 -207.5q43 -111 43 -334h-791q3 -178 89 -269t226 -91q215 0 281 199h172q-33 -164 -154.5 -260.5t-304.5 -96.5q-227 0 -357 149t-130 412zM207 1493h231l197 -303h-123zM264 627h602l2 12q0 127 -86 217t-211 90 q-128 0 -212 -88t-95 -231z" />
<glyph unicode="&#xe9;" d="M82 530q0 264 133 419t358 155q151 0 266.5 -75.5t168.5 -207.5q43 -111 43 -334h-791q3 -178 89 -269t226 -91q215 0 281 199h172q-33 -164 -154.5 -260.5t-304.5 -96.5q-227 0 -357 149t-130 412zM264 627h602l2 12q0 127 -86 217t-211 90q-128 0 -212 -88t-95 -231z M512 1190l197 303h231l-305 -303h-123z" />
<glyph unicode="&#xea;" d="M82 530q0 264 133 419t358 155q151 0 266.5 -75.5t168.5 -207.5q43 -111 43 -334h-791q3 -178 89 -269t226 -91q215 0 281 199h172q-33 -164 -154.5 -260.5t-304.5 -96.5q-227 0 -357 149t-130 412zM264 627h602l2 12q0 127 -86 217t-211 90q-128 0 -212 -88t-95 -231z M279 1188l196 307h195l196 -307h-129l-166 196l-161 -196h-131z" />
<glyph unicode="&#xeb;" d="M82 530q0 264 133 419t358 155q151 0 266.5 -75.5t168.5 -207.5q43 -111 43 -334h-791q3 -178 89 -269t226 -91q215 0 281 199h172q-33 -164 -154.5 -260.5t-304.5 -96.5q-227 0 -357 149t-130 412zM264 627h602l2 12q0 127 -86 217t-211 90q-128 0 -212 -88t-95 -231z M313 1237v209h187v-209h-187zM645 1237v209h186v-209h-186z" />
<glyph unicode="&#xec;" horiz-adv-x="569" d="M-57 1493h231l197 -303h-123zM201 0v1073h170v-1073h-170z" />
<glyph unicode="&#xed;" horiz-adv-x="569" d="M201 0v1073h170v-1073h-170zM203 1190l196 303h232l-305 -303h-123z" />
<glyph unicode="&#xee;" horiz-adv-x="569" d="M-8 1188l196 307h195l197 -307h-129l-166 196l-162 -196h-131zM201 0v1073h170v-1073h-170z" />
<glyph unicode="&#xef;" horiz-adv-x="569" d="M27 1237v209h186v-209h-186zM201 0v1073h170v-1073h-170zM358 1237v209h187v-209h-187z" />
<glyph unicode="&#xf0;" d="M74 537q0 262 121 412.5t325 150.5q47 0 129 -27q-81 81 -200 182l-199 -92l-74 80l174 82q-62 48 -168 107l90 90q50 -22 90 -44t138 -85l198 92l82 -76l-184 -84q239 -183 343.5 -370.5t104.5 -415.5q0 -276 -126 -423t-359 -147t-359 147t-126 421zM252 537 q0 -193 82 -301.5t225 -108.5q142 0 224.5 107.5t82.5 295.5q0 199 -81 307.5t-226 108.5q-143 0 -225 -108t-82 -301z" />
<glyph unicode="&#xf1;" d="M143 0v1073h158v-180q71 113 153.5 162t202.5 49q155 0 247.5 -79.5t92.5 -213.5v-811h-170v743q0 97 -60 154t-161 57q-131 0 -212 -99t-81 -263v-592h-170zM238 1237q17 101 63 156t113 55q31 0 55 -6.5t88 -32.5q82 -37 129 -37q52 0 76 76h119q-30 -213 -183 -213 q-29 0 -58.5 9t-115.5 42q-74 27 -100 27q-23 0 -41 -20t-27 -56h-118z" />
<glyph unicode="&#xf2;" d="M74 537q0 269 128 418t355 149q233 0 360 -149.5t127 -426.5q0 -263 -129 -411t-356 -148q-229 0 -357 149.5t-128 418.5zM203 1493h231l197 -303h-123zM252 537q0 -194 82 -302t225 -108q142 0 224.5 107.5t82.5 295.5q0 199 -81 307.5t-226 108.5q-143 0 -225 -108 t-82 -301z" />
<glyph unicode="&#xf3;" d="M74 537q0 269 128 418t355 149q233 0 360 -149.5t127 -426.5q0 -263 -129 -411t-356 -148q-229 0 -357 149.5t-128 418.5zM252 537q0 -194 82 -302t225 -108q142 0 224.5 107.5t82.5 295.5q0 199 -81 307.5t-226 108.5q-143 0 -225 -108t-82 -301zM508 1190l197 303h231 l-305 -303h-123z" />
<glyph unicode="&#xf4;" d="M74 537q0 269 128 418t355 149q233 0 360 -149.5t127 -426.5q0 -263 -129 -411t-356 -148q-229 0 -357 149.5t-128 418.5zM252 537q0 -194 82 -302t225 -108q142 0 224.5 107.5t82.5 295.5q0 199 -81 307.5t-226 108.5q-143 0 -225 -108t-82 -301zM274 1188l197 307h195 l196 -307h-129l-166 196l-161 -196h-132z" />
<glyph unicode="&#xf5;" d="M74 537q0 269 128 418t355 149q233 0 360 -149.5t127 -426.5q0 -263 -129 -411t-356 -148q-229 0 -357 149.5t-128 418.5zM238 1237q17 101 63 156t113 55q31 0 55 -6.5t88 -32.5q82 -37 129 -37q52 0 76 76h119q-30 -213 -183 -213q-29 0 -58.5 9t-115.5 42 q-74 27 -100 27q-23 0 -41 -20t-27 -56h-118zM252 537q0 -194 82 -302t225 -108q142 0 224.5 107.5t82.5 295.5q0 199 -81 307.5t-226 108.5q-143 0 -225 -108t-82 -301z" />
<glyph unicode="&#xf6;" d="M74 537q0 269 128 418t355 149q233 0 360 -149.5t127 -426.5q0 -263 -129 -411t-356 -148q-229 0 -357 149.5t-128 418.5zM252 537q0 -194 82 -302t225 -108q142 0 224.5 107.5t82.5 295.5q0 199 -81 307.5t-226 108.5q-143 0 -225 -108t-82 -301zM309 1237v209h187v-209 h-187zM641 1237v209h186v-209h-186z" />
<glyph unicode="&#xf7;" horiz-adv-x="1196" d="M139 442v140h918v-140h-918zM492 139q0 43 31 75t75 32t75.5 -32t31.5 -75q0 -44 -31.5 -75t-75.5 -31t-75 31t-31 75zM492 885q0 44 31 75t75 31t75.5 -31t31.5 -75q0 -43 -31.5 -75t-75.5 -32t-75 32t-31 75z" />
<glyph unicode="&#xf8;" d="M74 537q0 269 128 418t355 149q202 0 322 -111l86 101l75 -64l-94 -112q98 -149 98 -390q0 -263 -129 -411t-356 -148q-196 0 -319 111l-86 -100l-76 63l94 113q-98 149 -98 381zM252 537q0 -143 43 -236l471 559q-77 86 -207 86q-143 0 -225 -108t-82 -301zM352 213 q80 -86 207 -86q142 0 224.5 107.5t82.5 295.5q0 144 -43 242z" />
<glyph unicode="&#xf9;" d="M133 262v811h170v-743q0 -97 60 -154t161 -57q133 0 213 99t80 263v592h170v-1073h-153v166q-75 -106 -158 -151.5t-201 -45.5q-157 0 -249.5 79.5t-92.5 213.5zM203 1493h231l197 -303h-123z" />
<glyph unicode="&#xfa;" d="M133 262v811h170v-743q0 -97 60 -154t161 -57q133 0 213 99t80 263v592h170v-1073h-153v166q-75 -106 -158 -151.5t-201 -45.5q-157 0 -249.5 79.5t-92.5 213.5zM508 1190l197 303h231l-305 -303h-123z" />
<glyph unicode="&#xfb;" d="M133 262v811h170v-743q0 -97 60 -154t161 -57q133 0 213 99t80 263v592h170v-1073h-153v166q-75 -106 -158 -151.5t-201 -45.5q-157 0 -249.5 79.5t-92.5 213.5zM274 1188l197 307h195l196 -307h-129l-166 196l-161 -196h-132z" />
<glyph unicode="&#xfc;" d="M133 262v811h170v-743q0 -97 60 -154t161 -57q133 0 213 99t80 263v592h170v-1073h-153v166q-75 -106 -158 -151.5t-201 -45.5q-157 0 -249.5 79.5t-92.5 213.5zM309 1237v209h187v-209h-187zM641 1237v209h186v-209h-186z" />
<glyph unicode="&#xfd;" horiz-adv-x="1024" d="M41 1073h182l275 -835l297 835h184l-477 -1298q-82 -221 -277 -221q-63 0 -114 26v154q60 -13 90 -13q55 0 85 23.5t52 81.5l65 170zM451 1190l196 303h232l-306 -303h-122z" />
<glyph unicode="&#xfe;" d="M111 -446v1908h170v-522q56 78 141.5 121t187.5 43q209 0 334 -159.5t125 -426.5q0 -245 -126.5 -397t-332.5 -152q-104 0 -182.5 38.5t-146.5 121.5v-575h-170zM281 528q0 -178 82.5 -288.5t216.5 -110.5q138 0 224.5 110.5t86.5 282.5q0 192 -85 307t-226 115 q-135 0 -217 -113.5t-82 -302.5z" />
<glyph unicode="&#xff;" horiz-adv-x="1024" d="M41 1073h182l275 -835l297 835h184l-477 -1298q-82 -221 -277 -221q-63 0 -114 26v154q60 -13 90 -13q55 0 85 23.5t52 81.5l65 170zM252 1237v209h186v-209h-186zM584 1237v209h186v-209h-186z" />
<glyph unicode="&#x100;" horiz-adv-x="1366" d="M35 0l532 1493h246l524 -1493h-213l-153 449h-576l-157 -449h-203zM408 1669v143h561v-143h-561zM442 608h476l-230 680z" />
<glyph unicode="&#x101;" d="M86 279q0 201 188 278q51 21 108.5 32t235.5 34q101 12 140 38t39 80v45q0 77 -62.5 118.5t-177.5 41.5q-120 0 -180.5 -46t-71.5 -144h-172q14 348 430 348q198 0 301 -75t103 -218v-598q0 -40 24 -62t68 -22q19 0 37 4v-129q-71 -18 -117 -18q-63 0 -113 40t-63 101 q-70 -75 -166 -116.5t-199 -41.5q-164 0 -258 82t-94 228zM264 283q0 -164 211 -164q130 0 226 70.5t96 181.5v159q-42 -20 -89 -30t-186 -29q-139 -21 -198.5 -63t-59.5 -125zM279 1270v143h561v-143h-561z" />
<glyph unicode="&#x102;" horiz-adv-x="1366" d="M35 0l532 1493h246l524 -1493h-213l-153 449h-576l-157 -449h-203zM319 1866h146q9 -59 62 -81t163 -22q105 0 161 23.5t62 79.5h146q-12 -123 -107 -186.5t-266 -63.5q-165 0 -264.5 61.5t-102.5 188.5zM442 608h476l-230 680z" />
<glyph unicode="&#x103;" d="M86 279q0 201 188 278q51 21 108.5 32t235.5 34q101 12 140 38t39 80v45q0 77 -62.5 118.5t-177.5 41.5q-120 0 -180.5 -46t-71.5 -144h-172q14 348 430 348q198 0 301 -75t103 -218v-598q0 -40 24 -62t68 -22q19 0 37 4v-129q-71 -18 -117 -18q-63 0 -113 40t-63 101 q-70 -75 -166 -116.5t-199 -41.5q-164 0 -258 82t-94 228zM246 1481h110q25 -61 80 -98t121 -37t121 37t80 98h110q0 -118 -92 -197.5t-219 -79.5t-219 79.5t-92 197.5zM264 283q0 -164 211 -164q130 0 226 70.5t96 181.5v159q-42 -20 -89 -30t-186 -29q-139 -21 -198.5 -63 t-59.5 -125z" />
<glyph unicode="&#x104;" horiz-adv-x="1366" d="M35 0l532 1493h246l524 -1493q-94 0 -159 -100q-33 -47 -33 -121q0 -44 23.5 -67t66.5 -23h102v-160h-102q-101 0 -175.5 53t-74.5 146q0 80 41 145q42 68 98 127l-153 449h-576l-157 -449h-203zM442 608h476l-230 680z" />
<glyph unicode="&#x105;" d="M86 279q0 201 188 278q51 21 108.5 32t235.5 34q101 12 140 38t39 80v45q0 77 -62.5 118.5t-177.5 41.5q-120 0 -180.5 -46t-71.5 -144h-172q14 348 430 348q198 0 301 -75t103 -218v-598q0 -40 24 -62t68 -22q19 0 37 4v-129l-37 -8q-70 -17 -113 -78.5t-43 -138.5 q0 -44 23.5 -67t66.5 -23h103v-160h-103q-101 0 -175.5 53t-74.5 146q0 80 40 144.5t124 127.5q-40 17 -67.5 50.5t-36.5 76.5q-70 -75 -166 -116.5t-199 -41.5q-164 0 -258 82t-94 228zM264 283q0 -164 211 -164q130 0 226 70.5t96 181.5v159q-42 -20 -89 -30t-186 -29 q-139 -21 -198.5 -63t-59.5 -125z" />
<glyph unicode="&#x106;" horiz-adv-x="1478" d="M98 729q0 132 27 251t83 219.5t136 174t191.5 115t244.5 41.5q486 0 576 -500h-195q-35 171 -132 251.5t-271 80.5q-216 0 -342.5 -171.5t-126.5 -459.5q0 -279 130.5 -439.5t354.5 -160.5q187 0 284.5 99.5t131.5 314.5h196q-67 -582 -614 -582q-161 0 -289.5 58 t-212 161.5t-128 243t-44.5 303.5zM684 1604l236 272h278l-367 -272h-147z" />
<glyph unicode="&#x107;" horiz-adv-x="1024" d="M63 526q0 266 130 422t348 156q185 0 297 -99.5t127 -291.5h-172q-15 112 -81 172.5t-173 60.5q-140 0 -218.5 -110t-78.5 -310q0 -190 79.5 -294.5t221.5 -104.5q111 0 176 57.5t86 184.5h172q-15 -186 -131 -293t-307 -107q-219 0 -347.5 149t-128.5 408zM479 1190 l197 303h231l-305 -303h-123z" />
<glyph unicode="&#x108;" horiz-adv-x="1478" d="M98 729q0 132 27 251t83 219.5t136 174t191.5 115t244.5 41.5q486 0 576 -500h-195q-35 171 -132 251.5t-271 80.5q-216 0 -342.5 -171.5t-126.5 -459.5q0 -279 130.5 -439.5t354.5 -160.5q187 0 284.5 99.5t131.5 314.5h196q-67 -582 -614 -582q-161 0 -289.5 58 t-212 161.5t-128 243t-44.5 303.5zM406 1604l235 276h233l236 -276h-154l-198 176l-195 -176h-157z" />
<glyph unicode="&#x109;" horiz-adv-x="1024" d="M63 526q0 266 130 422t348 156q185 0 297 -99.5t127 -291.5h-172q-15 112 -81 172.5t-173 60.5q-140 0 -218.5 -110t-78.5 -310q0 -190 79.5 -294.5t221.5 -104.5q111 0 176 57.5t86 184.5h172q-15 -186 -131 -293t-307 -107q-219 0 -347.5 149t-128.5 408zM246 1188 l196 307h195l197 -307h-129l-166 196l-162 -196h-131z" />
<glyph unicode="&#x10a;" horiz-adv-x="1478" d="M98 729q0 132 27 251t83 219.5t136 174t191.5 115t244.5 41.5q486 0 576 -500h-195q-35 171 -132 251.5t-271 80.5q-216 0 -342.5 -171.5t-126.5 -459.5q0 -279 130.5 -439.5t354.5 -160.5q187 0 284.5 99.5t131.5 314.5h196q-67 -582 -614 -582q-161 0 -289.5 58 t-212 161.5t-128 243t-44.5 303.5zM653 1634v213h213v-213h-213z" />
<glyph unicode="&#x10b;" horiz-adv-x="1024" d="M63 526q0 266 130 422t348 156q185 0 297 -99.5t127 -291.5h-172q-15 112 -81 172.5t-173 60.5q-140 0 -218.5 -110t-78.5 -310q0 -190 79.5 -294.5t221.5 -104.5q111 0 176 57.5t86 184.5h172q-15 -186 -131 -293t-307 -107q-219 0 -347.5 149t-128.5 408zM434 1235v213 h213v-213h-213z" />
<glyph unicode="&#x10c;" horiz-adv-x="1478" d="M98 729q0 132 27 251t83 219.5t136 174t191.5 115t244.5 41.5q486 0 576 -500h-195q-35 171 -132 251.5t-271 80.5q-216 0 -342.5 -171.5t-126.5 -459.5q0 -279 130.5 -439.5t354.5 -160.5q187 0 284.5 99.5t131.5 314.5h196q-67 -582 -614 -582q-161 0 -289.5 58 t-212 161.5t-128 243t-44.5 303.5zM408 1880h153l199 -176l194 176h158l-235 -276h-234z" />
<glyph unicode="&#x10d;" horiz-adv-x="1024" d="M63 526q0 266 130 422t348 156q185 0 297 -99.5t127 -291.5h-172q-15 112 -81 172.5t-173 60.5q-140 0 -218.5 -110t-78.5 -310q0 -190 79.5 -294.5t221.5 -104.5q111 0 176 57.5t86 184.5h172q-15 -186 -131 -293t-307 -107q-219 0 -347.5 149t-128.5 408zM246 1495h129 l166 -197l161 197h132l-197 -307h-195z" />
<glyph unicode="&#x10e;" horiz-adv-x="1478" d="M182 0v1493h576q284 0 446 -198.5t162 -546.5q0 -349 -162.5 -548.5t-445.5 -199.5h-576zM373 168h352q221 0 336 147t115 430q0 285 -115 432.5t-336 147.5h-352v-1157zM375 1880h153l199 -176l195 176h157l-235 -276h-234z" />
<glyph unicode="&#x10f;" d="M53 547q0 256 125.5 406.5t335.5 150.5q220 0 330 -166v555h170v-1493h-152v158q-69 -99 -150 -144t-192 -45q-217 0 -342 153.5t-125 424.5zM231 537q0 -186 86 -297t228 -111q136 0 217.5 109t81.5 294q0 187 -82 299.5t-219 112.5q-141 0 -226.5 -110.5t-85.5 -296.5z M1153 1034v78q55 0 84 41.5t29 118.5v16h-113v205h205v-211q0 -117 -54.5 -182.5t-150.5 -65.5z" />
<glyph unicode="&#x110;" horiz-adv-x="1478" d="M41 694v137h141v662h578q283 0 444.5 -199t161.5 -546q0 -349 -161.5 -548.5t-444.5 -199.5h-578v694h-141zM373 168h354q220 0 334.5 147.5t114.5 432.5q0 284 -114.5 430.5t-334.5 146.5h-354v-494h350v-137h-350v-526z" />
<glyph unicode="&#x111;" d="M53 549q0 254 125.5 404.5t333.5 150.5q104 0 183 -38.5t147 -121.5v285h-307v108h307v156h170v-156h129v-108h-129v-1229h-152v137q-143 -168 -344 -168q-210 0 -336.5 157.5t-126.5 422.5zM231 537q0 -182 86 -291t226 -109q136 0 217.5 106.5t81.5 288.5 q0 188 -81 296t-218 108q-140 0 -226 -108.5t-86 -290.5z" />
<glyph unicode="&#x112;" horiz-adv-x="1366" d="M184 0v1493h1035v-168h-844v-477h813v-168h-813v-512h880v-168h-1071zM420 1669v143h561v-143h-561z" />
<glyph unicode="&#x113;" d="M82 530q0 264 133 419t358 155q151 0 266.5 -75.5t168.5 -207.5q43 -111 43 -334h-791q3 -178 89 -269t226 -91q215 0 281 199h172q-33 -164 -154.5 -260.5t-304.5 -96.5q-227 0 -357 149t-130 412zM264 627h602l2 12q0 127 -86 217t-211 90q-128 0 -212 -88t-95 -231z M289 1270v143h561v-143h-561z" />
<glyph unicode="&#x114;" horiz-adv-x="1366" d="M184 0v1493h1035v-168h-844v-477h813v-168h-813v-512h880v-168h-1071zM332 1866h145q9 -59 62 -81t163 -22q106 0 162 23.5t62 79.5h145q-12 -123 -107 -186.5t-266 -63.5q-165 0 -264 61.5t-102 188.5z" />
<glyph unicode="&#x115;" d="M82 530q0 264 133 419t358 155q151 0 266.5 -75.5t168.5 -207.5q43 -111 43 -334h-791q3 -178 89 -269t226 -91q215 0 281 199h172q-33 -164 -154.5 -260.5t-304.5 -96.5q-227 0 -357 149t-130 412zM256 1481h111q25 -61 79.5 -98t120.5 -37t121 37t80 98h111 q0 -118 -92.5 -197.5t-219.5 -79.5t-219 79.5t-92 197.5zM264 627h602l2 12q0 127 -86 217t-211 90q-128 0 -212 -88t-95 -231z" />
<glyph unicode="&#x116;" horiz-adv-x="1366" d="M184 0v1493h1035v-168h-844v-477h813v-168h-813v-512h880v-168h-1071zM598 1634v213h213v-213h-213z" />
<glyph unicode="&#x117;" d="M82 530q0 264 133 419t358 155q151 0 266.5 -75.5t168.5 -207.5q43 -111 43 -334h-791q3 -178 89 -269t226 -91q215 0 281 199h172q-33 -164 -154.5 -260.5t-304.5 -96.5q-227 0 -357 149t-130 412zM264 627h602l2 12q0 127 -86 217t-211 90q-128 0 -212 -88t-95 -231z M467 1235v213h213v-213h-213z" />
<glyph unicode="&#x118;" horiz-adv-x="1366" d="M184 0v1493h1035v-168h-844v-477h813v-168h-813v-512h880v-168q-94 0 -159 -100q-33 -47 -33 -121q0 -44 23.5 -67t66.5 -23h102v-160h-102q-101 0 -175.5 53t-74.5 146q0 79 40 143.5t122 128.5h-881z" />
<glyph unicode="&#x119;" d="M82 530q0 264 133 419t358 155q151 0 266.5 -75.5t168.5 -207.5q43 -111 43 -334h-791q3 -178 89 -269t226 -91q215 0 281 199h172q-46 -222 -231 -308q-83 -41 -136 -102t-53 -137q0 -44 23.5 -67t66.5 -23h103v-160h-103q-101 0 -175 53t-74 146q0 132 124 241h-4 q-227 0 -357 149t-130 412zM264 627h602l2 12q0 127 -86 217t-211 90q-128 0 -212 -88t-95 -231z" />
<glyph unicode="&#x11a;" horiz-adv-x="1366" d="M184 0v1493h1035v-168h-844v-477h813v-168h-813v-512h880v-168h-1071zM352 1880h154l199 -176l194 176h158l-236 -276h-233z" />
<glyph unicode="&#x11b;" d="M82 530q0 264 133 419t358 155q151 0 266.5 -75.5t168.5 -207.5q43 -111 43 -334h-791q3 -178 89 -269t226 -91q215 0 281 199h172q-33 -164 -154.5 -260.5t-304.5 -96.5q-227 0 -357 149t-130 412zM264 627h602l2 12q0 127 -86 217t-211 90q-128 0 -212 -88t-95 -231z M279 1495h129l165 -197l162 197h131l-196 -307h-195z" />
<glyph unicode="&#x11c;" horiz-adv-x="1593" d="M90 731q0 168 48.5 313t138 253.5t226.5 170.5t304 62q255 0 420 -130.5t205 -359.5h-195q-31 146 -147 234t-285 88q-235 0 -379.5 -172.5t-144.5 -448.5q0 -278 142 -444t392 -166q205 0 337 125t132 324v41h-455v167h623v-788h-121l-47 197q-108 -121 -232.5 -177.5 t-277.5 -56.5q-303 0 -493.5 212.5t-190.5 555.5zM455 1604l235 276h234l235 -276h-153l-199 176l-195 -176h-157z" />
<glyph unicode="&#x11d;" d="M59 526q0 260 126 419t331 159q202 0 328 -186v155h157v-897q0 -178 -27 -297t-87 -191.5t-148 -103t-217 -30.5q-189 0 -301.5 85.5t-126.5 237.5h174q14 -94 83 -137t177 -43q155 0 235.5 93t80.5 300v72q-86 -103 -164 -148t-178 -45q-192 0 -317.5 153.5 t-125.5 403.5zM238 537q0 -194 79.5 -302t219.5 -108q136 0 213 106t77 297q0 195 -77 305.5t-215 110.5q-137 0 -217 -108.5t-80 -300.5zM274 1188l197 307h195l196 -307h-129l-166 196l-161 -196h-132z" />
<glyph unicode="&#x11e;" horiz-adv-x="1593" d="M90 731q0 168 48.5 313t138 253.5t226.5 170.5t304 62q255 0 420 -130.5t205 -359.5h-195q-31 146 -147 234t-285 88q-235 0 -379.5 -172.5t-144.5 -448.5q0 -278 142 -444t392 -166q205 0 337 125t132 324v41h-455v167h623v-788h-121l-47 197q-108 -121 -232.5 -177.5 t-277.5 -56.5q-303 0 -493.5 212.5t-190.5 555.5zM436 1866h146q9 -59 62 -81t163 -22q105 0 161 23.5t62 79.5h146q-12 -123 -107 -186.5t-266 -63.5q-165 0 -264.5 61.5t-102.5 188.5z" />
<glyph unicode="&#x11f;" d="M59 526q0 260 126 419t331 159q202 0 328 -186v155h157v-897q0 -178 -27 -297t-87 -191.5t-148 -103t-217 -30.5q-189 0 -301.5 85.5t-126.5 237.5h174q14 -94 83 -137t177 -43q155 0 235.5 93t80.5 300v72q-86 -103 -164 -148t-178 -45q-192 0 -317.5 153.5 t-125.5 403.5zM238 537q0 -194 79.5 -302t219.5 -108q136 0 213 106t77 297q0 195 -77 305.5t-215 110.5q-137 0 -217 -108.5t-80 -300.5zM252 1481h110q25 -61 80 -98t121 -37t121 37t80 98h110q0 -118 -92 -197.5t-219 -79.5t-219 79.5t-92 197.5z" />
<glyph unicode="&#x120;" horiz-adv-x="1593" d="M90 731q0 168 48.5 313t138 253.5t226.5 170.5t304 62q255 0 420 -130.5t205 -359.5h-195q-31 146 -147 234t-285 88q-235 0 -379.5 -172.5t-144.5 -448.5q0 -278 142 -444t392 -166q205 0 337 125t132 324v41h-455v167h623v-788h-121l-47 197q-108 -121 -232.5 -177.5 t-277.5 -56.5q-303 0 -493.5 212.5t-190.5 555.5zM702 1634v213h213v-213h-213z" />
<glyph unicode="&#x121;" d="M59 526q0 260 126 419t331 159q202 0 328 -186v155h157v-897q0 -178 -27 -297t-87 -191.5t-148 -103t-217 -30.5q-189 0 -301.5 85.5t-126.5 237.5h174q14 -94 83 -137t177 -43q155 0 235.5 93t80.5 300v72q-86 -103 -164 -148t-178 -45q-192 0 -317.5 153.5 t-125.5 403.5zM238 537q0 -194 79.5 -302t219.5 -108q136 0 213 106t77 297q0 195 -77 305.5t-215 110.5q-137 0 -217 -108.5t-80 -300.5zM463 1235v213h213v-213h-213z" />
<glyph unicode="&#x122;" horiz-adv-x="1593" d="M90 731q0 168 48.5 313t138 253.5t226.5 170.5t304 62q255 0 420 -130.5t205 -359.5h-195q-31 146 -147 234t-285 88q-235 0 -379.5 -172.5t-144.5 -448.5q0 -278 142 -444t392 -166q205 0 337 125t132 324v41h-455v167h623v-788h-121l-47 197q-108 -121 -232.5 -177.5 t-277.5 -56.5q-303 0 -493.5 212.5t-190.5 555.5zM707 -123h204v-211q0 -117 -54.5 -182.5t-149.5 -65.5v78q55 0 83.5 41.5t28.5 118.5v16h-112v205z" />
<glyph unicode="&#x123;" d="M59 526q0 260 126 419t331 159q202 0 328 -186v155h157v-897q0 -178 -27 -297t-87 -191.5t-148 -103t-217 -30.5q-189 0 -301.5 85.5t-126.5 237.5h174q14 -94 83 -137t177 -43q155 0 235.5 93t80.5 300v72q-86 -103 -164 -148t-178 -45q-192 0 -317.5 153.5 t-125.5 403.5zM238 537q0 -194 79.5 -302t219.5 -108q136 0 213 106t77 297q0 195 -77 305.5t-215 110.5q-137 0 -217 -108.5t-80 -300.5zM469 1182v211q0 116 54.5 181.5t150.5 65.5v-77q-55 0 -84 -41.5t-29 -118.5v-17h113v-204h-205z" />
<glyph unicode="&#x124;" horiz-adv-x="1478" d="M170 0v1493h190v-645h768v645h191v-1493h-191v680h-768v-680h-190zM387 1604l236 276h233l236 -276h-154l-199 176l-194 -176h-158z" />
<glyph unicode="&#x125;" d="M143 0v1493h170v-567q75 98 152.5 138t191.5 40q157 0 247.5 -79t90.5 -214v-811h-170v743q0 101 -62.5 156t-158.5 55q-132 0 -211.5 -99t-79.5 -263v-592h-170zM217 1604l236 276h233l236 -276h-154l-199 176l-194 -176h-158z" />
<glyph unicode="&#x126;" horiz-adv-x="1478" d="M76 1147v94h94v252h190v-252h768v252h191v-252h94v-94h-94v-1147h-191v680h-768v-680h-190v1147h-94zM360 848h768v299h-768v-299z" />
<glyph unicode="&#x127;" horiz-adv-x="1214" d="M139 1022v102l84 35v334h170v-264l256 104v-100l-256 -107v-200q75 98 152.5 138t191.5 40q157 0 247.5 -79t90.5 -214v-811h-170v743q0 101 -62.5 156t-158.5 55q-132 0 -211.5 -99t-79.5 -263v-592h-170v1057z" />
<glyph unicode="&#x128;" horiz-adv-x="569" d="M-29 1636q17 101 63 156t113 55q31 0 55.5 -6.5t88.5 -32.5q80 -36 129 -36q52 0 76 75h118q-30 -213 -182 -213q-28 0 -57 9t-117 43q-71 26 -100 26q-23 0 -41 -20t-27 -56h-119zM205 0v1493h190v-1493h-190z" />
<glyph unicode="&#x129;" horiz-adv-x="569" d="M-45 1237q17 101 63 156t113 55q31 0 55 -6.5t88 -32.5q82 -37 129 -37q52 0 76 76h119q-30 -213 -182 -213q-29 0 -58.5 9t-115.5 42q-74 27 -101 27q-48 0 -67 -76h-119zM201 0v1073h170v-1073h-170z" />
<glyph unicode="&#x12a;" horiz-adv-x="569" d="M18 1669v143h562v-143h-562zM205 0v1493h190v-1493h-190z" />
<glyph unicode="&#x12b;" horiz-adv-x="569" d="M2 1270v143h561v-143h-561zM201 0v1073h170v-1073h-170z" />
<glyph unicode="&#x12c;" horiz-adv-x="569" d="M-70 1866h146q9 -59 62 -81t163 -22q105 0 161 23.5t62 79.5h146q-12 -123 -107 -186.5t-266 -63.5q-165 0 -264.5 61.5t-102.5 188.5zM205 0v1493h190v-1493h-190z" />
<glyph unicode="&#x12d;" horiz-adv-x="569" d="M-31 1481h111q25 -61 80 -98t121 -37t120.5 37t79.5 98h111q0 -118 -92 -197.5t-219 -79.5t-219.5 79.5t-92.5 197.5zM201 0v1073h170v-1073h-170z" />
<glyph unicode="&#x12e;" horiz-adv-x="569" d="M84 -272q0 79 40 143.5t122 128.5h-41v1493h190v-1493q-74 -30 -119 -100q-32 -46 -32 -121q0 -44 23.5 -67t66.5 -23h102v-160h-102q-101 0 -175.5 53t-74.5 146z" />
<glyph unicode="&#x12f;" horiz-adv-x="569" d="M80 -272q0 79 40 143.5t122 128.5h-41v1073h170v-1073q-66 -46 -99 -100q-32 -46 -32 -121q0 -44 23.5 -67t66.5 -23h102v-160h-102q-101 0 -175.5 53t-74.5 146zM178 1235v213h213v-213h-213z" />
<glyph unicode="&#x130;" horiz-adv-x="569" d="M197 1634v213h213v-213h-213zM205 0v1493h190v-1493h-190z" />
<glyph unicode="&#x131;" horiz-adv-x="454" d="M143 0v1073h170v-1073h-170z" />
<glyph unicode="&#x134;" horiz-adv-x="1024" d="M39 358v121h190v-86q0 -130 58.5 -200t165.5 -70q114 0 171.5 76t57.5 254v1040h190v-1110q0 -194 -113 -307t-308 -113q-194 0 -303 106t-109 289zM426 1604l236 276h233l235 -276h-153l-199 176l-194 -176h-158z" />
<glyph unicode="&#x135;" horiz-adv-x="454" d="M-66 1188l197 307h195l196 -307h-129l-166 196l-161 -196h-132zM-37 -295l41 -2q76 -4 107.5 29.5t31.5 111.5v1229h170v-1296q0 -109 -74.5 -166t-218.5 -57q-27 0 -57 6v145z" />
<glyph unicode="&#x136;" horiz-adv-x="1366" d="M162 0v1493h190v-756l744 756h245l-608 -608l615 -885h-226l-526 766l-244 -244v-522h-190zM633 -123h205v-211q0 -117 -54.5 -182.5t-150.5 -65.5v78q55 0 83.5 41.5t28.5 118.5v16h-112v205z" />
<glyph unicode="&#x137;" horiz-adv-x="1024" d="M119 0v1493h170v-875l454 455h220l-373 -371l438 -702h-211l-362 582l-166 -164v-418h-170zM412 -123h204v-211q0 -117 -54.5 -182.5t-149.5 -65.5v78q55 0 83.5 41.5t28.5 118.5v16h-112v205z" />
<glyph unicode="&#x139;" d="M164 0v1493h190v-1325h738v-168h-928zM166 1604l235 272h279l-367 -272h-147z" />
<glyph unicode="&#x13a;" horiz-adv-x="454" d="M139 0v1493h170v-1493h-170zM141 1604l236 272h278l-366 -272h-148z" />
<glyph unicode="&#x13b;" d="M164 0v1493h190v-1325h738v-168h-928zM528 -123h205v-211q0 -117 -54.5 -182.5t-150.5 -65.5v78q55 0 84 41.5t29 118.5v16h-113v205z" />
<glyph unicode="&#x13c;" horiz-adv-x="454" d="M127 -123h205v-211q0 -117 -54.5 -182.5t-150.5 -65.5v78q55 0 84 41.5t29 118.5v16h-113v205zM139 0v1493h170v-1493h-170z" />
<glyph unicode="&#x13d;" d="M164 0v1493h190v-1325h738v-168h-928zM494 1034v78q55 0 83.5 41.5t28.5 118.5v16h-112v205h204v-211q0 -117 -54.5 -182.5t-149.5 -65.5z" />
<glyph unicode="&#x13e;" horiz-adv-x="454" d="M139 0v1493h170v-1493h-170zM449 1034v78q55 0 83.5 41.5t28.5 118.5v16h-112v205h204v-211q0 -117 -54.5 -182.5t-149.5 -65.5z" />
<glyph unicode="&#x13f;" d="M164 0v1493h190v-1325h738v-168h-928zM723 672v213h213v-213h-213z" />
<glyph unicode="&#x140;" horiz-adv-x="659" d="M139 0v1493h170v-1493h-170zM449 672v213h213v-213h-213z" />
<glyph unicode="&#x141;" horiz-adv-x="1286" d="M117 360v197l133 131v805h190v-635l256 254v-197l-256 -253v-494h738v-168h-928v492z" />
<glyph unicode="&#x142;" horiz-adv-x="624" d="M98 457v190l127 154v692h170v-510l135 164v-189l-135 -163v-795h-170v610z" />
<glyph unicode="&#x143;" horiz-adv-x="1478" d="M156 0v1493h206l781 -1221v1221h180v-1493h-215l-772 1210v-1210h-180zM666 1604l235 272h279l-367 -272h-147z" />
<glyph unicode="&#x144;" d="M143 0v1073h158v-180q71 113 153.5 162t202.5 49q155 0 247.5 -79.5t92.5 -213.5v-811h-170v743q0 97 -60 154t-161 57q-131 0 -212 -99t-81 -263v-592h-170zM508 1190l197 303h231l-305 -303h-123z" />
<glyph unicode="&#x145;" horiz-adv-x="1478" d="M156 0v1493h206l781 -1221v1221h180v-1493h-215l-772 1210v-1210h-180zM639 -123h205v-211q0 -117 -54.5 -182.5t-150.5 -65.5v78q55 0 84 41.5t29 118.5v16h-113v205z" />
<glyph unicode="&#x146;" d="M143 0v1073h158v-180q71 113 153.5 162t202.5 49q155 0 247.5 -79.5t92.5 -213.5v-811h-170v743q0 97 -60 154t-161 57q-131 0 -212 -99t-81 -263v-592h-170zM469 -123h205v-211q0 -117 -54.5 -182.5t-150.5 -65.5v78q55 0 84 41.5t29 118.5v16h-113v205z" />
<glyph unicode="&#x147;" horiz-adv-x="1478" d="M156 0v1493h206l781 -1221v1221h180v-1493h-215l-772 1210v-1210h-180zM389 1880h154l198 -176l195 176h158l-236 -276h-233z" />
<glyph unicode="&#x148;" d="M143 0v1073h158v-180q71 113 153.5 162t202.5 49q155 0 247.5 -79.5t92.5 -213.5v-811h-170v743q0 97 -60 154t-161 57q-131 0 -212 -99t-81 -263v-592h-170zM274 1495h129l166 -197l162 197h131l-196 -307h-195z" />
<glyph unicode="&#x14a;" horiz-adv-x="1478" d="M156 0v1493h206l781 -1221v1221h180v-1591q0 -194 -113.5 -307t-308.5 -113q-194 0 -303 106t-109 289l191 35q0 -130 58 -200t165 -70q105 0 172.5 90.5t67.5 212.5l-807 1265v-1210h-180z" />
<glyph unicode="&#x14b;" d="M143 0v1073h158v-180q71 113 153.5 162t202.5 49q155 0 247.5 -79.5t92.5 -213.5v-1034q0 -109 -74 -166t-218 -57q-28 0 -58 6v145l41 -2q76 -4 107.5 29.5t31.5 111.5v899q0 97 -60 154t-161 57q-131 0 -212 -99t-81 -263v-592h-170z" />
<glyph unicode="&#x14c;" horiz-adv-x="1593" d="M78 735q0 231 90 412t254 282t375 101q216 0 380.5 -101t253.5 -284t89 -422q0 -218 -88 -390.5t-253 -271t-380 -98.5q-160 0 -294 55.5t-228 155t-146.5 244t-52.5 317.5zM268 735q0 -275 146 -439.5t385 -164.5q237 0 383.5 163.5t146.5 432.5q0 284 -145 459.5 t-387 175.5q-155 0 -276 -79.5t-187 -222t-66 -325.5zM514 1669v143h561v-143h-561z" />
<glyph unicode="&#x14d;" d="M74 537q0 269 128 418t355 149q233 0 360 -149.5t127 -426.5q0 -263 -129 -411t-356 -148q-229 0 -357 149.5t-128 418.5zM252 537q0 -194 82 -302t225 -108q142 0 224.5 107.5t82.5 295.5q0 199 -81 307.5t-226 108.5q-143 0 -225 -108t-82 -301zM285 1270v143h561v-143 h-561z" />
<glyph unicode="&#x14e;" horiz-adv-x="1593" d="M78 735q0 231 90 412t254 282t375 101q216 0 380.5 -101t253.5 -284t89 -422q0 -218 -88 -390.5t-253 -271t-380 -98.5q-160 0 -294 55.5t-228 155t-146.5 244t-52.5 317.5zM268 735q0 -275 146 -439.5t385 -164.5q237 0 383.5 163.5t146.5 432.5q0 284 -145 459.5 t-387 175.5q-155 0 -276 -79.5t-187 -222t-66 -325.5zM426 1866h145q9 -59 62.5 -81t163.5 -22q105 0 161 23.5t62 79.5h145q-12 -123 -107 -186.5t-265 -63.5q-165 0 -264.5 61.5t-102.5 188.5z" />
<glyph unicode="&#x14f;" d="M74 537q0 269 128 418t355 149q233 0 360 -149.5t127 -426.5q0 -263 -129 -411t-356 -148q-229 0 -357 149.5t-128 418.5zM252 537q0 -194 82 -302t225 -108q142 0 224.5 107.5t82.5 295.5q0 199 -81 307.5t-226 108.5q-143 0 -225 -108t-82 -301zM252 1481h110 q25 -61 80 -98t121 -37t121 37t80 98h110q0 -118 -92 -197.5t-219 -79.5t-219 79.5t-92 197.5z" />
<glyph unicode="&#x150;" horiz-adv-x="1593" d="M78 735q0 231 90 412t254 282t375 101q216 0 380.5 -101t253.5 -284t89 -422q0 -218 -88 -390.5t-253 -271t-380 -98.5q-160 0 -294 55.5t-228 155t-146.5 244t-52.5 317.5zM268 735q0 -275 146 -439.5t385 -164.5q237 0 383.5 163.5t146.5 432.5q0 284 -145 459.5 t-387 175.5q-155 0 -276 -79.5t-187 -222t-66 -325.5zM547 1608l196 307h232l-305 -307h-123zM883 1608l196 307h232l-305 -307h-123z" />
<glyph unicode="&#x151;" d="M74 537q0 269 128 418t355 149q233 0 360 -149.5t127 -426.5q0 -263 -129 -411t-356 -148q-229 0 -357 149.5t-128 418.5zM252 537q0 -194 82 -302t225 -108q142 0 224.5 107.5t82.5 295.5q0 199 -81 307.5t-226 108.5q-143 0 -225 -108t-82 -301zM319 1188l197 307h232 l-306 -307h-123zM655 1188l197 307h231l-305 -307h-123z" />
<glyph unicode="&#x152;" horiz-adv-x="2048" d="M88 729q0 365 165 577t447 212q248 0 375 -181v156h879v-168h-688v-487h671v-168h-671v-502h698v-168h-889v162q-71 -100 -162 -146.5t-215 -46.5q-285 0 -447.5 202t-162.5 558zM279 737q0 -296 106.5 -448t312.5 -152q255 0 377 246v721q-122 246 -375 246 q-208 0 -314.5 -156t-106.5 -457z" />
<glyph unicode="&#x153;" horiz-adv-x="1933" d="M82 530q0 275 126.5 424.5t358.5 149.5q278 0 402 -217q63 103 167 160t228 57q151 0 266 -75.5t168 -207.5q43 -111 43 -342h-790q3 -167 90 -259.5t225 -92.5q101 0 173 52t108 147h172q-33 -164 -154.5 -260.5t-302.5 -96.5q-130 0 -232.5 54.5t-164.5 156.5 q-129 -211 -398 -211q-231 0 -358 148t-127 413zM260 530q0 -185 82.5 -294t224.5 -109q141 0 224 108t83 289q0 198 -81 310t-226 112q-143 0 -225 -111.5t-82 -304.5zM1055 618h602q0 146 -82 237t-213 91q-129 0 -213 -89.5t-94 -238.5z" />
<glyph unicode="&#x154;" horiz-adv-x="1478" d="M190 0v1493h689q220 0 337 -103t117 -296q0 -128 -55 -212t-180 -145q121 -52 160 -128t42 -261q1 -149 19 -206.5t72 -94.5v-47h-232q-46 104 -43 244l2 133q1 137 -59 201.5t-187 64.5h-491v-643h-191zM381 811h461q152 0 222.5 62t70.5 194q0 130 -68.5 194t-224.5 64 h-461v-514zM666 1604l235 272h279l-367 -272h-147z" />
<glyph unicode="&#x155;" horiz-adv-x="681" d="M143 0v1073h156v-194q74 120 142 172.5t151 52.5q22 0 65 -6v-174q-192 -3 -268 -90.5t-76 -276.5v-557h-170zM252 1190l197 303h231l-305 -303h-123z" />
<glyph unicode="&#x156;" horiz-adv-x="1478" d="M190 0v1493h689q220 0 337 -103t117 -296q0 -128 -55 -212t-180 -145q121 -52 160 -128t42 -261q1 -149 19 -206.5t72 -94.5v-47h-232q-46 104 -43 244l2 133q1 137 -59 201.5t-187 64.5h-491v-643h-191zM381 811h461q152 0 222.5 62t70.5 194q0 130 -68.5 194t-224.5 64 h-461v-514zM639 -123h205v-211q0 -117 -54.5 -182.5t-150.5 -65.5v78q55 0 84 41.5t29 118.5v16h-113v205z" />
<glyph unicode="&#x157;" horiz-adv-x="681" d="M129 -123h205v-211q0 -117 -54.5 -182.5t-150.5 -65.5v78q55 0 84 41.5t29 118.5v16h-113v205zM143 0v1073h156v-194q74 120 142 172.5t151 52.5q22 0 65 -6v-174q-192 -3 -268 -90.5t-76 -276.5v-557h-170z" />
<glyph unicode="&#x158;" horiz-adv-x="1478" d="M190 0v1493h689q220 0 337 -103t117 -296q0 -128 -55 -212t-180 -145q121 -52 160 -128t42 -261q1 -149 19 -206.5t72 -94.5v-47h-232q-46 104 -43 244l2 133q1 137 -59 201.5t-187 64.5h-491v-643h-191zM381 811h461q152 0 222.5 62t70.5 194q0 130 -68.5 194t-224.5 64 h-461v-514zM389 1880h154l198 -176l195 176h158l-236 -276h-233z" />
<glyph unicode="&#x159;" horiz-adv-x="681" d="M18 1495h129l166 -197l162 197h131l-196 -307h-195zM143 0v1073h156v-194q74 120 142 172.5t151 52.5q22 0 65 -6v-174q-192 -3 -268 -90.5t-76 -276.5v-557h-170z" />
<glyph unicode="&#x15a;" horiz-adv-x="1366" d="M98 485h181q0 -164 107 -259t314 -95q190 0 285.5 67.5t95.5 192.5q0 88 -66.5 146.5t-207.5 95.5l-371 98q-293 76 -293 348q0 204 143.5 327.5t387.5 123.5q258 0 402.5 -122t144.5 -341h-181q0 146 -96.5 224.5t-275.5 78.5q-149 0 -241.5 -74.5t-92.5 -189.5 q0 -86 55.5 -136t190.5 -85l374 -101q152 -41 235 -138.5t83 -235.5q0 -204 -152.5 -325.5t-431.5 -121.5q-179 0 -309.5 56t-205.5 175t-75 291zM610 1604l236 272h278l-366 -272h-148z" />
<glyph unicode="&#x15b;" horiz-adv-x="1024" d="M70 328h180q16 -117 77.5 -159t184.5 -42q114 0 182 43t68 117q0 57 -37.5 88t-128.5 53l-160 39q-190 46 -265 114.5t-75 194.5q0 149 112.5 238.5t299.5 89.5q186 0 286.5 -86t102.5 -244h-180q-3 85 -57.5 128.5t-157.5 43.5q-104 0 -166 -44t-62 -118q0 -57 47 -92.5 t152 -60.5l164 -39q162 -39 232.5 -105.5t70.5 -185.5q0 -154 -119 -243t-323 -89q-212 0 -317 87t-111 272zM451 1190l196 303h232l-306 -303h-122z" />
<glyph unicode="&#x15c;" horiz-adv-x="1366" d="M98 485h181q0 -164 107 -259t314 -95q190 0 285.5 67.5t95.5 192.5q0 88 -66.5 146.5t-207.5 95.5l-371 98q-293 76 -293 348q0 204 143.5 327.5t387.5 123.5q258 0 402.5 -122t144.5 -341h-181q0 146 -96.5 224.5t-275.5 78.5q-149 0 -241.5 -74.5t-92.5 -189.5 q0 -86 55.5 -136t190.5 -85l374 -101q152 -41 235 -138.5t83 -235.5q0 -204 -152.5 -325.5t-431.5 -121.5q-179 0 -309.5 56t-205.5 175t-75 291zM332 1604l235 276h234l235 -276h-153l-199 176l-195 -176h-157z" />
<glyph unicode="&#x15d;" horiz-adv-x="1024" d="M70 328h180q16 -117 77.5 -159t184.5 -42q114 0 182 43t68 117q0 57 -37.5 88t-128.5 53l-160 39q-190 46 -265 114.5t-75 194.5q0 149 112.5 238.5t299.5 89.5q186 0 286.5 -86t102.5 -244h-180q-3 85 -57.5 128.5t-157.5 43.5q-104 0 -166 -44t-62 -118q0 -57 47 -92.5 t152 -60.5l164 -39q162 -39 232.5 -105.5t70.5 -185.5q0 -154 -119 -243t-323 -89q-212 0 -317 87t-111 272zM217 1188l197 307h194l197 -307h-129l-166 196l-162 -196h-131z" />
<glyph unicode="&#x15e;" horiz-adv-x="1366" d="M98 485h181q0 -164 107 -259t314 -95q190 0 285.5 67.5t95.5 192.5q0 88 -66.5 146.5t-207.5 95.5l-371 98q-293 76 -293 348q0 204 143.5 327.5t387.5 123.5q258 0 402.5 -122t144.5 -341h-181q0 146 -96.5 224.5t-275.5 78.5q-149 0 -241.5 -74.5t-92.5 -189.5 q0 -86 55.5 -136t190.5 -85l374 -101q152 -41 235 -138.5t83 -235.5q0 -193 -137.5 -313t-389.5 -132l-28 -76h47q73 0 117.5 -50.5t44.5 -119.5q0 -88 -67.5 -139t-184.5 -51q-59 0 -109 14t-147 56l43 82l18 -9q71 -35 107.5 -47t75.5 -12q47 0 78.5 26t31.5 66 q0 37 -25.5 63.5t-68.5 26.5q-28 0 -64 -8l-34 25l65 151q-254 11 -400.5 143t-146.5 379z" />
<glyph unicode="&#x15f;" horiz-adv-x="1024" d="M70 328h180q16 -117 77.5 -159t184.5 -42q114 0 182 43t68 117q0 57 -37.5 88t-128.5 53l-160 39q-190 46 -265 114.5t-75 194.5q0 149 112.5 238.5t299.5 89.5q186 0 286.5 -86t102.5 -244h-180q-3 85 -57.5 128.5t-157.5 43.5q-104 0 -166 -44t-62 -118q0 -57 47 -92.5 t152 -60.5l164 -39q162 -39 232.5 -105.5t70.5 -185.5q0 -144 -102.5 -231t-282.5 -99l-33 -82h47q73 0 117.5 -50.5t44.5 -119.5q0 -88 -67.5 -139t-184.5 -51q-59 0 -109 14t-147 56l43 82l19 -9q71 -36 107 -47.5t75 -11.5q47 0 79 26t32 66q0 37 -26 63.5t-69 26.5 q-27 0 -63 -8l-35 25l70 157q-190 9 -284.5 96t-100.5 263z" />
<glyph unicode="&#x160;" horiz-adv-x="1366" d="M98 485h181q0 -164 107 -259t314 -95q190 0 285.5 67.5t95.5 192.5q0 88 -66.5 146.5t-207.5 95.5l-371 98q-293 76 -293 348q0 204 143.5 327.5t387.5 123.5q258 0 402.5 -122t144.5 -341h-181q0 146 -96.5 224.5t-275.5 78.5q-149 0 -241.5 -74.5t-92.5 -189.5 q0 -86 55.5 -136t190.5 -85l374 -101q152 -41 235 -138.5t83 -235.5q0 -204 -152.5 -325.5t-431.5 -121.5q-179 0 -309.5 56t-205.5 175t-75 291zM334 1880h153l199 -176l195 176h157l-235 -276h-234z" />
<glyph unicode="&#x161;" horiz-adv-x="1024" d="M70 328h180q16 -117 77.5 -159t184.5 -42q114 0 182 43t68 117q0 57 -37.5 88t-128.5 53l-160 39q-190 46 -265 114.5t-75 194.5q0 149 112.5 238.5t299.5 89.5q186 0 286.5 -86t102.5 -244h-180q-3 85 -57.5 128.5t-157.5 43.5q-104 0 -166 -44t-62 -118q0 -57 47 -92.5 t152 -60.5l164 -39q162 -39 232.5 -105.5t70.5 -185.5q0 -154 -119 -243t-323 -89q-212 0 -317 87t-111 272zM217 1495h129l166 -197l162 197h131l-197 -307h-194z" />
<glyph unicode="&#x162;" horiz-adv-x="1251" d="M43 1325v168h1171v-168h-489v-1325h-57l-43 -111h47q73 0 117.5 -50.5t44.5 -119.5q0 -88 -67.5 -139t-184.5 -51q-59 0 -109 14t-147 56l43 82l18 -9q71 -36 107 -47.5t75 -11.5q47 0 79 26t32 66q0 37 -25.5 63.5t-68.5 26.5q-28 0 -64 -8l-35 25l82 188h-34v1325h-492 z" />
<glyph unicode="&#x163;" horiz-adv-x="569" d="M29 934v139h145v295h170v-295h176v-139h-176v-703q0 -57 19 -76.5t75 -19.5q51 0 82 8v-143q-80 -14 -139 -14h-6l-37 -97h47q73 0 117.5 -50.5t44.5 -119.5q0 -88 -67.5 -139t-184.5 -51q-59 0 -109 14t-147 56l43 82l18 -9q71 -35 107.5 -47t75.5 -12q47 0 78.5 26 t31.5 66q0 37 -25.5 63.5t-68.5 26.5q-27 0 -63 -8l-35 25l82 188q-109 38 -109 156v778h-145z" />
<glyph unicode="&#x164;" horiz-adv-x="1251" d="M43 1325v168h1171v-168h-489v-1325h-190v1325h-492zM281 1880h153l199 -176l194 176h158l-235 -276h-234z" />
<glyph unicode="&#x165;" horiz-adv-x="569" d="M29 934v139h145v295h170v-295h176v-139h-176v-703q0 -57 19 -76.5t75 -19.5q51 0 82 8v-143q-80 -14 -139 -14q-100 0 -153.5 44t-53.5 126v778h-145zM414 1143v78q55 0 83.5 41t28.5 118v17h-112v205h204v-211q0 -117 -54.5 -182.5t-149.5 -65.5z" />
<glyph unicode="&#x168;" horiz-adv-x="1478" d="M174 455v1038h191v-1038q0 -158 103.5 -241t276.5 -83q180 0 282.5 86.5t102.5 237.5v1038h191v-1038q0 -224 -156.5 -358t-419.5 -134q-265 0 -418 132t-153 360zM410 1636q17 101 63 156t113 55q31 0 55 -6.5t88 -32.5q80 -36 129 -36q52 0 76 75h119 q-30 -213 -183 -213q-28 0 -57 9t-117 43q-71 26 -100 26q-23 0 -41 -20t-27 -56h-118z" />
<glyph unicode="&#x169;" d="M133 262v811h170v-743q0 -97 60 -154t161 -57q133 0 213 99t80 263v592h170v-1073h-153v166q-75 -106 -158 -151.5t-201 -45.5q-157 0 -249.5 79.5t-92.5 213.5zM238 1237q17 101 63 156t113 55q31 0 55 -6.5t88 -32.5q82 -37 129 -37q52 0 76 76h119q-30 -213 -183 -213 q-29 0 -58.5 9t-115.5 42q-74 27 -100 27q-23 0 -41 -20t-27 -56h-118z" />
<glyph unicode="&#x16a;" horiz-adv-x="1478" d="M174 455v1038h191v-1038q0 -158 103.5 -241t276.5 -83q180 0 282.5 86.5t102.5 237.5v1038h191v-1038q0 -224 -156.5 -358t-419.5 -134q-265 0 -418 132t-153 360zM457 1669v143h561v-143h-561z" />
<glyph unicode="&#x16b;" d="M133 262v811h170v-743q0 -97 60 -154t161 -57q133 0 213 99t80 263v592h170v-1073h-153v166q-75 -106 -158 -151.5t-201 -45.5q-157 0 -249.5 79.5t-92.5 213.5zM285 1270v143h561v-143h-561z" />
<glyph unicode="&#x16c;" horiz-adv-x="1478" d="M174 455v1038h191v-1038q0 -158 103.5 -241t276.5 -83q180 0 282.5 86.5t102.5 237.5v1038h191v-1038q0 -224 -156.5 -358t-419.5 -134q-265 0 -418 132t-153 360zM369 1866h145q9 -59 62 -81t163 -22q106 0 162 23.5t62 79.5h145q-12 -123 -107 -186.5t-266 -63.5 q-165 0 -264 61.5t-102 188.5z" />
<glyph unicode="&#x16d;" d="M133 262v811h170v-743q0 -97 60 -154t161 -57q133 0 213 99t80 263v592h170v-1073h-153v166q-75 -106 -158 -151.5t-201 -45.5q-157 0 -249.5 79.5t-92.5 213.5zM252 1481h110q25 -61 80 -98t121 -37t121 37t80 98h110q0 -118 -92 -197.5t-219 -79.5t-219 79.5t-92 197.5 z" />
<glyph unicode="&#x16e;" horiz-adv-x="1478" d="M174 455v1038h191v-1038q0 -158 103.5 -241t276.5 -83q180 0 282.5 86.5t102.5 237.5v1038h191v-1038q0 -224 -156.5 -358t-419.5 -134q-265 0 -418 132t-153 360zM543 1774q0 78 58.5 136t139.5 58q82 0 139.5 -58t57.5 -141q0 -79 -58.5 -136.5t-138.5 -57.5 q-82 0 -140 58.5t-58 140.5zM641 1774q0 -41 29.5 -71t70.5 -30q40 0 69.5 29t29.5 67q0 43 -29 72t-70 29t-70.5 -28.5t-29.5 -67.5z" />
<glyph unicode="&#x16f;" d="M133 262v811h170v-743q0 -97 60 -154t161 -57q133 0 213 99t80 263v592h170v-1073h-153v166q-75 -106 -158 -151.5t-201 -45.5q-157 0 -249.5 79.5t-92.5 213.5zM371 1343q0 79 58.5 137t139.5 58q82 0 139.5 -58t57.5 -141q0 -79 -58.5 -136.5t-138.5 -57.5 q-82 0 -140 58t-58 140zM469 1343q0 -41 29.5 -70.5t70.5 -29.5q40 0 69.5 29t29.5 67q0 43 -29 72t-70 29t-70.5 -29t-29.5 -68z" />
<glyph unicode="&#x170;" horiz-adv-x="1478" d="M174 455v1038h191v-1038q0 -158 103.5 -241t276.5 -83q180 0 282.5 86.5t102.5 237.5v1038h191v-1038q0 -224 -156.5 -358t-419.5 -134q-265 0 -418 132t-153 360zM489 1608l197 307h232l-306 -307h-123zM825 1608l197 307h231l-305 -307h-123z" />
<glyph unicode="&#x171;" d="M133 262v811h170v-743q0 -97 60 -154t161 -57q133 0 213 99t80 263v592h170v-1073h-153v166q-75 -106 -158 -151.5t-201 -45.5q-157 0 -249.5 79.5t-92.5 213.5zM319 1188l197 307h232l-306 -307h-123zM655 1188l197 307h231l-305 -307h-123z" />
<glyph unicode="&#x172;" horiz-adv-x="1478" d="M174 455v1038h191v-1038q0 -158 103.5 -241t276.5 -83q180 0 282.5 86.5t102.5 237.5v1038h191v-1038q0 -166 -89.5 -286t-248.5 -171q-79 -26 -130.5 -85t-51.5 -134q0 -44 23.5 -67t66.5 -23h102v-160h-102q-101 0 -175.5 53t-74.5 146q0 127 117 235h-13 q-265 0 -418 132t-153 360z" />
<glyph unicode="&#x173;" d="M133 262v811h170v-743q0 -97 60 -154t161 -57q133 0 213 99t80 263v592h170v-1073q-92 -23 -139 -100q-33 -47 -33 -121q0 -44 23.5 -67t66.5 -23h103v-160h-103q-101 0 -175.5 53t-74.5 146q0 80 41 145q49 82 138 127v166q-75 -106 -158 -151.5t-201 -45.5 q-157 0 -249.5 79.5t-92.5 213.5z" />
<glyph unicode="&#x174;" horiz-adv-x="1933" d="M45 1493h213l281 -1212l331 1212h205l340 -1212l275 1212h213l-379 -1493h-209l-344 1227l-334 -1227h-209zM614 1604l236 276h233l236 -276h-154l-198 176l-195 -176h-158z" />
<glyph unicode="&#x175;" horiz-adv-x="1478" d="M12 1073h189l219 -835l205 835h209l210 -835l213 835h193l-315 -1073h-195l-217 842l-207 -842h-192zM444 1188l197 307h195l196 -307h-129l-166 196l-162 -196h-131z" />
<glyph unicode="&#x176;" horiz-adv-x="1366" d="M27 1493h235l438 -727l426 727h228l-561 -907v-586h-191v586zM346 1604l236 276h233l236 -276h-154l-199 176l-194 -176h-158z" />
<glyph unicode="&#x177;" horiz-adv-x="1024" d="M41 1073h182l275 -835l297 835h184l-477 -1298q-82 -221 -277 -221q-63 0 -114 26v154q60 -13 90 -13q55 0 85 23.5t52 81.5l65 170zM217 1188l197 307h194l197 -307h-129l-166 196l-162 -196h-131z" />
<glyph unicode="&#x178;" horiz-adv-x="1366" d="M27 1493h235l438 -727l426 727h228l-561 -907v-586h-191v586zM440 1636v209h187v-209h-187zM772 1636v209h186v-209h-186z" />
<glyph unicode="&#x179;" horiz-adv-x="1251" d="M57 0v168l897 1157h-839v168h1075v-172l-893 -1153h897v-168h-1137zM580 1604l235 272h279l-367 -272h-147z" />
<glyph unicode="&#x17a;" horiz-adv-x="1024" d="M63 0v154l642 770h-599v149h801v-151l-637 -772h666v-150h-873zM451 1190l196 303h232l-306 -303h-122z" />
<glyph unicode="&#x17b;" horiz-adv-x="1251" d="M57 0v168l897 1157h-839v168h1075v-172l-893 -1153h897v-168h-1137zM549 1634v213h213v-213h-213z" />
<glyph unicode="&#x17c;" horiz-adv-x="1024" d="M63 0v154l642 770h-599v149h801v-151l-637 -772h666v-150h-873zM406 1235v213h212v-213h-212z" />
<glyph unicode="&#x17d;" horiz-adv-x="1251" d="M57 0v168l897 1157h-839v168h1075v-172l-893 -1153h897v-168h-1137zM303 1880h154l198 -176l195 176h158l-236 -276h-233z" />
<glyph unicode="&#x17e;" horiz-adv-x="1024" d="M63 0v154l642 770h-599v149h801v-151l-637 -772h666v-150h-873zM217 1495h129l166 -197l162 197h131l-197 -307h-194z" />
<glyph unicode="&#x17f;" horiz-adv-x="569" d="M180 0v1255q0 115 66.5 179.5t185.5 64.5q47 0 96 -10v-141q-39 2 -59 2q-119 0 -119 -109v-1241h-170z" />
<glyph unicode="&#x18e;" horiz-adv-x="1366" d="M184 0v168h881v512h-813v168h813v477h-844v168h1034v-1493h-1071z" />
<glyph unicode="&#x192;" d="M23 -414l34 172q49 -32 105 -32q78 0 125.5 56t70.5 175l160 846h-231v143h256l45 213q36 170 133.5 261t226.5 91q76 0 162 -38l-61 -162q-65 37 -107 37q-71 0 -120.5 -66.5t-71.5 -191.5l-25 -144h231v-143h-258l-153 -813q-40 -216 -146 -320t-264 -104 q-73 0 -112 20z" />
<glyph unicode="&#x1a0;" horiz-adv-x="1593" d="M78 743q0 349 198.5 562t520.5 213q164 0 298.5 -57.5t229.5 -164.5q92 77 92 197h-98v213h190v-207q0 -175 -131 -270q142 -207 142 -498q0 -183 -68 -342t-190 -262q-187 -158 -463 -158q-323 0 -522 212.5t-199 561.5zM268 743q0 -275 146 -440.5t385 -165.5 q237 0 383.5 164.5t146.5 433.5q0 282 -144.5 448.5t-387.5 166.5q-237 0 -383 -166t-146 -441z" />
<glyph unicode="&#x1a1;" horiz-adv-x="1169" d="M74 537q0 269 128 418t355 149q281 0 408 -225q88 77 88 194h-99v213h191v-207q0 -96 -41.5 -166t-104.5 -112q45 -124 45 -273q0 -263 -129 -411t-356 -148q-229 0 -357 149.5t-128 418.5zM252 537q0 -194 82 -302t225 -108q142 0 224.5 107.5t82.5 295.5 q0 199 -81 307.5t-226 108.5q-143 0 -225 -108t-82 -301z" />
<glyph unicode="&#x1af;" horiz-adv-x="1599" d="M174 461v1032h191v-1032q0 -163 108 -246q110 -78 272 -78q180 0 282.5 86.5t102.5 237.5v1032h191v-238q61 22 110.5 85t49.5 153h-99v213h191v-207q0 -75 -26 -137t-66.5 -100t-81 -60.5t-78.5 -30.5v-710q0 -224 -156.5 -358t-419.5 -134q-265 0 -418 132t-153 360z " />
<glyph unicode="&#x1b0;" horiz-adv-x="1257" d="M133 262v811h170v-743q0 -97 60 -154t161 -57q133 0 213 99t80 263v592h170v-233q60 24 108 86t48 149h-99v213h191v-207q0 -74 -25 -135t-64.5 -99t-79.5 -60.5t-79 -32.5v-754h-153v166q-75 -106 -158 -151.5t-201 -45.5q-157 0 -249.5 79.5t-92.5 213.5z" />
<glyph unicode="&#x1dd;" d="M82 586h790q-3 178 -89 269t-226 91q-215 0 -281 -198h-172q33 164 154.5 260t304.5 96q227 0 357.5 -149t130.5 -412t-133.5 -418.5t-358.5 -155.5q-151 0 -266 75.5t-168 207.5q-43 111 -43 334zM264 434q0 -127 86 -217t211 -90q128 0 212 88t95 231h-602z" />
<glyph unicode="&#x1e6;" horiz-adv-x="1593" d="M90 731q0 168 48.5 313t138 253.5t226.5 170.5t304 62q255 0 420 -130.5t205 -359.5h-195q-31 146 -147 234t-285 88q-235 0 -379.5 -172.5t-144.5 -448.5q0 -278 142 -444t392 -166q205 0 337 125t132 324v41h-455v167h623v-788h-121l-47 197q-108 -121 -232.5 -177.5 t-277.5 -56.5q-303 0 -493.5 212.5t-190.5 555.5zM457 1880h153l199 -176l195 176h157l-235 -276h-234z" />
<glyph unicode="&#x1e7;" d="M59 526q0 260 126 419t331 159q202 0 328 -186v155h157v-897q0 -178 -27 -297t-87 -191.5t-148 -103t-217 -30.5q-189 0 -301.5 85.5t-126.5 237.5h174q14 -94 83 -137t177 -43q155 0 235.5 93t80.5 300v72q-86 -103 -164 -148t-178 -45q-192 0 -317.5 153.5 t-125.5 403.5zM238 537q0 -194 79.5 -302t219.5 -108q136 0 213 106t77 297q0 195 -77 305.5t-215 110.5q-137 0 -217 -108.5t-80 -300.5zM274 1495h129l166 -197l162 197h131l-196 -307h-195z" />
<glyph unicode="&#x1ea;" horiz-adv-x="1593" d="M78 735q0 231 90 412t254 282t375 101q216 0 380.5 -101t253.5 -284t89 -422q0 -263 -128 -457t-350 -266q-85 -28 -140.5 -86.5t-55.5 -134.5q0 -44 23.5 -67t66.5 -23h102v-160h-102q-101 0 -175.5 53t-74.5 146q0 127 117 235h-4q-160 0 -294 55.5t-228 155 t-146.5 244t-52.5 317.5zM268 735q0 -275 146 -439.5t385 -164.5q237 0 383.5 163.5t146.5 432.5q0 284 -145 459.5t-387 175.5q-155 0 -276 -79.5t-187 -222t-66 -325.5z" />
<glyph unicode="&#x1eb;" d="M74 537q0 269 128 418t355 149q233 0 360 -149.5t127 -426.5q0 -196 -73.5 -330t-208.5 -192q-66 -27 -105 -89.5t-39 -137.5q0 -44 24 -67t67 -23h102v-160h-102q-101 0 -175.5 53t-74.5 146q0 131 125 241h-25q-229 0 -357 149.5t-128 418.5zM252 537q0 -194 82 -302 t225 -108q142 0 224.5 107.5t82.5 295.5q0 199 -81 307.5t-226 108.5q-143 0 -225 -108t-82 -301z" />
<glyph unicode="&#x1f4;" horiz-adv-x="1593" d="M90 731q0 168 48.5 313t138 253.5t226.5 170.5t304 62q255 0 420 -130.5t205 -359.5h-195q-31 146 -147 234t-285 88q-235 0 -379.5 -172.5t-144.5 -448.5q0 -278 142 -444t392 -166q205 0 337 125t132 324v41h-455v167h623v-788h-121l-47 197q-108 -121 -232.5 -177.5 t-277.5 -56.5q-303 0 -493.5 212.5t-190.5 555.5zM733 1604l236 272h278l-366 -272h-148z" />
<glyph unicode="&#x1f5;" d="M59 526q0 260 126 419t331 159q202 0 328 -186v155h157v-897q0 -178 -27 -297t-87 -191.5t-148 -103t-217 -30.5q-189 0 -301.5 85.5t-126.5 237.5h174q14 -94 83 -137t177 -43q155 0 235.5 93t80.5 300v72q-86 -103 -164 -148t-178 -45q-192 0 -317.5 153.5 t-125.5 403.5zM238 537q0 -194 79.5 -302t219.5 -108q136 0 213 106t77 297q0 195 -77 305.5t-215 110.5q-137 0 -217 -108.5t-80 -300.5zM508 1190l197 303h231l-305 -303h-123z" />
<glyph unicode="&#x1fa;" horiz-adv-x="1366" d="M35 0l532 1493h246l524 -1493h-213l-153 449h-576l-157 -449h-203zM442 608h476l-230 680zM494 1774q0 78 58.5 136t139.5 58q82 0 139.5 -58t57.5 -141q0 -79 -58.5 -136.5t-138.5 -57.5q-82 0 -140 58.5t-58 140.5zM592 1774q0 -41 29.5 -71t70.5 -30q40 0 69.5 29 t29.5 67q0 43 -29 72t-70 29t-70.5 -28.5t-29.5 -67.5zM616 2009l236 272h278l-366 -272h-148z" />
<glyph unicode="&#x1fb;" d="M86 279q0 201 188 278q51 21 108.5 32t235.5 34q101 12 140 38t39 80v45q0 77 -62.5 118.5t-177.5 41.5q-120 0 -180.5 -46t-71.5 -144h-172q14 348 430 348q198 0 301 -75t103 -218v-598q0 -40 24 -62t68 -22q19 0 37 4v-129q-71 -18 -117 -18q-63 0 -113 40t-63 101 q-70 -75 -166 -116.5t-199 -41.5q-164 0 -258 82t-94 228zM264 283q0 -164 211 -164q130 0 226 70.5t96 181.5v159q-42 -20 -89 -30t-186 -29q-139 -21 -198.5 -63t-59.5 -125zM367 1354q0 78 58.5 136t139.5 58q82 0 139.5 -57.5t57.5 -140.5q0 -79 -58.5 -137t-138.5 -58 q-82 0 -140 58.5t-58 140.5zM465 1354q0 -41 29.5 -71t70.5 -30q40 0 69.5 29.5t29.5 67.5q0 42 -29 71t-70 29t-70.5 -28.5t-29.5 -67.5zM489 1589l236 273h279l-367 -273h-148z" />
<glyph unicode="&#x1fc;" horiz-adv-x="2048" d="M23 0l612 1493h1274v-168h-760v-477h721v-168h-721v-512h797v-168h-988v438h-550l-175 -438h-210zM471 606h487v719h-204zM950 1604l236 272h278l-366 -272h-148z" />
<glyph unicode="&#x1fd;" horiz-adv-x="1820" d="M70 279q0 114 46.5 180.5t160.5 105t325 56.5q104 9 141 34.5t37 85.5v45q0 78 -61.5 119t-179.5 41q-119 0 -179.5 -46t-70.5 -144h-172q14 348 426 348q263 0 358 -168q56 78 150 123t204 45q149 0 264.5 -76t168.5 -207q43 -111 43 -342h-791q3 -167 90 -259.5 t225 -92.5q101 0 173.5 52t109.5 147h172q-32 -164 -154.5 -260.5t-302.5 -96.5q-118 0 -214 45t-150 125l-33 56q-116 -120 -219 -173t-223 -53q-158 0 -251 83t-93 227zM248 283q0 -79 54.5 -121.5t150.5 -42.5q75 0 152.5 36t126 87t48.5 96v190q-42 -19 -89 -28.5 t-185 -30.5q-141 -21 -199.5 -62t-58.5 -124zM850 1190l197 303h231l-305 -303h-123zM944 618h602q0 146 -82 237t-213 91q-129 0 -213 -89.5t-94 -238.5z" />
<glyph unicode="&#x1fe;" horiz-adv-x="1593" d="M78 43l162 176q-162 204 -162 516q0 231 90 412t254 282t375 101q291 0 481 -178l158 174l84 -76l-166 -180q166 -218 166 -547q0 -218 -88 -390.5t-253 -271t-380 -98.5q-293 0 -484 172l-153 -168zM268 735q0 -223 99 -377l788 861q-140 143 -358 143 q-155 0 -276 -79.5t-187 -222t-66 -325.5zM438 270q139 -139 361 -139q237 0 383.5 163.5t146.5 432.5q0 242 -104 401zM723 1604l235 272h279l-367 -272h-147z" />
<glyph unicode="&#x1ff;" d="M74 537q0 269 128 418t355 149q202 0 322 -111l86 101l75 -64l-94 -112q98 -149 98 -390q0 -263 -129 -411t-356 -148q-196 0 -319 111l-86 -100l-76 63l94 113q-98 149 -98 381zM252 537q0 -143 43 -236l471 559q-77 86 -207 86q-143 0 -225 -108t-82 -301zM352 213 q80 -86 207 -86q142 0 224.5 107.5t82.5 295.5q0 144 -43 242zM565 1190l197 303h231l-305 -303h-123z" />
<glyph unicode="&#x200;" horiz-adv-x="1366" d="M35 0l532 1493h246l524 -1493h-213l-153 449h-576l-157 -449h-203zM176 1915h232l196 -307h-123zM442 608h476l-230 680zM512 1915h231l197 -307h-123z" />
<glyph unicode="&#x201;" d="M49 1495h232l196 -307h-123zM86 279q0 201 188 278q51 21 108.5 32t235.5 34q101 12 140 38t39 80v45q0 77 -62.5 118.5t-177.5 41.5q-120 0 -180.5 -46t-71.5 -144h-172q14 348 430 348q198 0 301 -75t103 -218v-598q0 -40 24 -62t68 -22q19 0 37 4v-129 q-71 -18 -117 -18q-63 0 -113 40t-63 101q-70 -75 -166 -116.5t-199 -41.5q-164 0 -258 82t-94 228zM264 283q0 -164 211 -164q130 0 226 70.5t96 181.5v159q-42 -20 -89 -30t-186 -29q-139 -21 -198.5 -63t-59.5 -125zM385 1495h231l197 -307h-123z" />
<glyph unicode="&#x204;" horiz-adv-x="1366" d="M184 0v1493h1035v-168h-844v-477h813v-168h-813v-512h880v-168h-1071zM188 1915h232l196 -307h-122zM524 1915h232l196 -307h-123z" />
<glyph unicode="&#x205;" d="M59 1495h232l196 -307h-122zM82 530q0 264 133 419t358 155q151 0 266.5 -75.5t168.5 -207.5q43 -111 43 -334h-791q3 -178 89 -269t226 -91q215 0 281 199h172q-33 -164 -154.5 -260.5t-304.5 -96.5q-227 0 -357 149t-130 412zM264 627h602l2 12q0 127 -86 217t-211 90 q-128 0 -212 -88t-95 -231zM395 1495h232l196 -307h-123z" />
<glyph unicode="&#x208;" horiz-adv-x="569" d="M-213 1915h231l197 -307h-123zM123 1915h231l197 -307h-123zM205 0v1493h190v-1493h-190z" />
<glyph unicode="&#x209;" horiz-adv-x="569" d="M-227 1495h231l197 -307h-123zM109 1495h231l197 -307h-123zM201 0v1073h170v-1073h-170z" />
<glyph unicode="&#x20c;" horiz-adv-x="1593" d="M78 735q0 231 90 412t254 282t375 101q216 0 380.5 -101t253.5 -284t89 -422q0 -218 -88 -390.5t-253 -271t-380 -98.5q-160 0 -294 55.5t-228 155t-146.5 244t-52.5 317.5zM268 735q0 -275 146 -439.5t385 -164.5q237 0 383.5 163.5t146.5 432.5q0 284 -145 459.5 t-387 175.5q-155 0 -276 -79.5t-187 -222t-66 -325.5zM283 1915h231l197 -307h-123zM618 1915h232l197 -307h-123z" />
<glyph unicode="&#x20d;" d="M55 1495h232l196 -307h-123zM74 537q0 269 128 418t355 149q233 0 360 -149.5t127 -426.5q0 -263 -129 -411t-356 -148q-229 0 -357 149.5t-128 418.5zM252 537q0 -194 82 -302t225 -108q142 0 224.5 107.5t82.5 295.5q0 199 -81 307.5t-226 108.5q-143 0 -225 -108 t-82 -301zM391 1495h232l196 -307h-123z" />
<glyph unicode="&#x210;" horiz-adv-x="1478" d="M190 0v1493h689q220 0 337 -103t117 -296q0 -128 -55 -212t-180 -145q121 -52 160 -128t42 -261q1 -149 19 -206.5t72 -94.5v-47h-232q-46 104 -43 244l2 133q1 137 -59 201.5t-187 64.5h-491v-643h-191zM225 1915h232l196 -307h-123zM381 811h461q152 0 222.5 62 t70.5 194q0 130 -68.5 194t-224.5 64h-461v-514zM561 1915h232l196 -307h-123z" />
<glyph unicode="&#x211;" horiz-adv-x="681" d="M-201 1495h232l196 -307h-123zM135 1495h232l196 -307h-123zM143 0v1073h156v-194q74 120 142 172.5t151 52.5q22 0 65 -6v-174q-192 -3 -268 -90.5t-76 -276.5v-557h-170z" />
<glyph unicode="&#x214;" horiz-adv-x="1478" d="M174 455v1038h191v-1038q0 -158 103.5 -241t276.5 -83q180 0 282.5 86.5t102.5 237.5v1038h191v-1038q0 -224 -156.5 -358t-419.5 -134q-265 0 -418 132t-153 360zM225 1915h232l196 -307h-123zM561 1915h232l196 -307h-123z" />
<glyph unicode="&#x215;" d="M55 1495h232l196 -307h-123zM133 262v811h170v-743q0 -97 60 -154t161 -57q133 0 213 99t80 263v592h170v-1073h-153v166q-75 -106 -158 -151.5t-201 -45.5q-157 0 -249.5 79.5t-92.5 213.5zM391 1495h232l196 -307h-123z" />
<glyph unicode="&#x218;" horiz-adv-x="1366" d="M98 485h181q0 -164 107 -259t314 -95q190 0 285.5 67.5t95.5 192.5q0 88 -66.5 146.5t-207.5 95.5l-371 98q-293 76 -293 348q0 204 143.5 327.5t387.5 123.5q258 0 402.5 -122t144.5 -341h-181q0 146 -96.5 224.5t-275.5 78.5q-149 0 -241.5 -74.5t-92.5 -189.5 q0 -86 55.5 -136t190.5 -85l374 -101q152 -41 235 -138.5t83 -235.5q0 -204 -152.5 -325.5t-431.5 -121.5q-179 0 -309.5 56t-205.5 175t-75 291zM584 -123h204v-211q0 -117 -54.5 -182.5t-149.5 -65.5v78q55 0 83.5 41.5t28.5 118.5v16h-112v205z" />
<glyph unicode="&#x219;" horiz-adv-x="1024" d="M70 328h180q16 -117 77.5 -159t184.5 -42q114 0 182 43t68 117q0 57 -37.5 88t-128.5 53l-160 39q-190 46 -265 114.5t-75 194.5q0 149 112.5 238.5t299.5 89.5q186 0 286.5 -86t102.5 -244h-180q-3 85 -57.5 128.5t-157.5 43.5q-104 0 -166 -44t-62 -118q0 -57 47 -92.5 t152 -60.5l164 -39q162 -39 232.5 -105.5t70.5 -185.5q0 -154 -119 -243t-323 -89q-212 0 -317 87t-111 272zM412 -123h204v-211q0 -117 -54.5 -182.5t-149.5 -65.5v78q55 0 83.5 41.5t28.5 118.5v16h-112v205z" />
<glyph unicode="&#x21a;" horiz-adv-x="1251" d="M43 1325v168h1171v-168h-489v-1325h-190v1325h-492zM530 -123h205v-211q0 -117 -54.5 -182.5t-150.5 -65.5v78q55 0 84 41.5t29 118.5v16h-113v205z" />
<glyph unicode="&#x21b;" horiz-adv-x="569" d="M29 934v139h145v295h170v-295h176v-139h-176v-703q0 -57 19 -76.5t75 -19.5q51 0 82 8v-143q-80 -14 -139 -14q-100 0 -153.5 44t-53.5 126v778h-145zM184 -123h205v-211q0 -117 -54.5 -182.5t-150.5 -65.5v78q55 0 84 41.5t29 118.5v16h-113v205z" />
<glyph unicode="&#x258;" d="M82 487q0 223 43 334q53 132 168 207.5t266 75.5q225 0 358.5 -155.5t133.5 -418.5t-130.5 -412t-357.5 -149q-183 0 -304.5 96.5t-154.5 260.5h172q66 -199 281 -199q140 0 226 91t89 269h-790zM264 639q0 -8 2 -12h602q-11 143 -95 231t-212 88q-125 0 -211 -90 t-86 -217z" />
<glyph unicode="&#x259;" d="M82 586h790q-3 178 -89 269t-226 91q-215 0 -281 -198h-172q33 164 154.5 260t304.5 96q227 0 357.5 -149t130.5 -412t-133.5 -418.5t-358.5 -155.5q-151 0 -266 75.5t-168 207.5q-43 111 -43 334zM264 434q0 -127 86 -217t211 -90q128 0 212 88t95 231h-602z" />
<glyph unicode="&#x2be;" horiz-adv-x="919" d="M139 1159q11 130 92 205.5t215 75.5q153 0 243.5 -103.5t90.5 -283.5q0 -185 -91 -293.5t-243 -108.5q-131 0 -210 70.5t-89 206.5q-1 6 4 11t13 5h115q13 0 16 -14q9 -68 48 -105t103 -37q88 0 135.5 69.5t47.5 195.5q0 119 -48.5 184.5t-136.5 65.5q-134 0 -157 -148 q-3 -14 -17 -14h-114q-8 0 -13 5.5t-4 12.5z" />
<glyph unicode="&#x2bf;" horiz-adv-x="919" d="M139 1038q0 185 91 293.5t243 108.5q131 0 210 -70.5t89 -206.5q2 -6 -3 -11t-13 -5h-115q-13 0 -16 14q-9 68 -48.5 105t-103.5 37q-87 0 -134.5 -69.5t-47.5 -195.5q0 -119 48 -184.5t136 -65.5q135 0 158 148q3 14 16 14h115q8 0 12.5 -5.5t3.5 -12.5 q-11 -130 -92 -205.5t-215 -75.5q-153 0 -243.5 103.5t-90.5 283.5z" />
<glyph unicode="&#x2c6;" horiz-adv-x="681" d="M47 1188l197 307h194l197 -307h-129l-166 196l-162 -196h-131z" />
<glyph unicode="&#x2c7;" horiz-adv-x="681" d="M47 1495h129l166 -197l162 197h131l-197 -307h-194z" />
<glyph unicode="&#x2d8;" horiz-adv-x="681" d="M25 1481h110q25 -61 80 -98t121 -37t121 37t80 98h110q0 -118 -92 -197.5t-219 -79.5t-219 79.5t-92 197.5z" />
<glyph unicode="&#x2d9;" horiz-adv-x="681" d="M236 1235v213h213v-213h-213z" />
<glyph unicode="&#x2da;" horiz-adv-x="681" d="M143 1343q0 78 59 136.5t140 58.5q82 0 139.5 -58t57.5 -141q0 -79 -58.5 -136.5t-138.5 -57.5q-82 0 -140.5 58t-58.5 140zM242 1343q0 -41 29.5 -70.5t70.5 -29.5q40 0 69 29t29 67q0 43 -28.5 72t-69.5 29t-70.5 -29t-29.5 -68z" />
<glyph unicode="&#x2db;" horiz-adv-x="681" d="M213 -272q0 79 40 143.5t122 128.5h133q-74 -55 -104.5 -102.5t-30.5 -118.5q0 -44 23.5 -67t66.5 -23h102v-160h-102q-101 0 -175.5 53t-74.5 146z" />
<glyph unicode="&#x2dc;" horiz-adv-x="681" d="M10 1237q17 101 63 156t113 55q31 0 55.5 -6.5t88.5 -32.5q82 -37 129 -37q52 0 76 76h118q-30 -213 -182 -213q-29 0 -58.5 9t-115.5 42q-73 27 -100 27q-23 0 -41 -20t-27 -56h-119z" />
<glyph unicode="&#x2dd;" horiz-adv-x="681" d="M92 1188l197 307h231l-305 -307h-123zM428 1188l197 307h231l-305 -307h-123z" />
<glyph unicode="&#x300;" horiz-adv-x="0" d="M-936 1493h231l197 -303h-123z" />
<glyph unicode="&#x301;" horiz-adv-x="0" d="M-629 1190l197 303h231l-305 -303h-123z" />
<glyph unicode="&#x302;" horiz-adv-x="0" d="M-862 1188l196 307h195l197 -307h-129l-166 196l-162 -196h-131z" />
<glyph unicode="&#x303;" horiz-adv-x="0" d="M-899 1237q17 101 63 156t113 55q31 0 55 -6.5t88 -32.5q82 -37 129 -37q52 0 76 76h119q-30 -213 -182 -213q-29 0 -58.5 9t-115.5 42q-73 27 -101 27q-48 0 -67 -76h-119z" />
<glyph unicode="&#x304;" horiz-adv-x="0" d="M-852 1270v143h561v-143h-561z" />
<glyph unicode="&#x306;" horiz-adv-x="0" d="M-885 1481h111q25 -61 80 -98t121 -37t120.5 37t79.5 98h111q0 -118 -92 -197.5t-219 -79.5t-219.5 79.5t-92.5 197.5z" />
<glyph unicode="&#x307;" horiz-adv-x="0" d="M-674 1235v213h213v-213h-213z" />
<glyph unicode="&#x308;" horiz-adv-x="0" d="M-827 1237v209h186v-209h-186zM-496 1237v209h187v-209h-187z" />
<glyph unicode="&#x309;" horiz-adv-x="0" d="M-801 1386q0 116 60.5 176t177.5 60q104 0 164.5 -48t60.5 -128q0 -49 -21.5 -83t-80.5 -77q-47 -36 -59.5 -49.5t-12.5 -30.5v-61h-127v67q0 48 23 78t86 72v-2q65 51 65 86q0 28 -28.5 45.5t-75.5 17.5q-72 0 -93 -34v2q-14 -22 -14 -91h-125z" />
<glyph unicode="&#x30a;" horiz-adv-x="0" d="M-766 1343q0 78 59 136.5t140 58.5q82 0 139 -58t57 -141q0 -79 -58 -136.5t-138 -57.5q-82 0 -140.5 58t-58.5 140zM-668 1343q0 -41 30 -70.5t71 -29.5q40 0 69 29t29 67q0 43 -28.5 72t-69.5 29t-71 -29t-30 -68z" />
<glyph unicode="&#x30b;" horiz-adv-x="0" d="M-817 1188l196 307h232l-305 -307h-123zM-481 1188l196 307h232l-305 -307h-123z" />
<glyph unicode="&#x30c;" horiz-adv-x="0" d="M-862 1495h129l166 -197l161 197h132l-197 -307h-195z" />
<glyph unicode="&#x30f;" horiz-adv-x="0" d="M-1083 1495h231l197 -307h-123zM-748 1495h232l197 -307h-123z" />
<glyph unicode="&#x311;" horiz-adv-x="0" d="M-885 1204q0 118 92.5 197.5t219.5 79.5t219 -79.5t92 -197.5h-111q-25 61 -79.5 98t-120.5 37t-121 -37t-80 -98h-111z" />
<glyph unicode="&#x323;" horiz-adv-x="0" d="M-674 -162h213v-213h-213v213z" />
<glyph unicode="&#x326;" horiz-adv-x="0" d="M-670 -123h205v-211q0 -117 -54.5 -182.5t-150.5 -65.5v78q55 0 84 41.5t29 118.5v16h-113v205z" />
<glyph unicode="&#x32e;" horiz-adv-x="0" d="M-938 -143h145q9 -59 62.5 -81t163.5 -22q105 0 161 23.5t62 79.5h145q-12 -123 -107 -186.5t-265 -63.5q-165 0 -264.5 61.5t-102.5 188.5z" />
<glyph unicode="&#x32f;" horiz-adv-x="0" d="M-938 -393q12 123 107 186.5t266 63.5q165 0 264 -61.5t102 -188.5h-145q-9 59 -62 80.5t-163 21.5q-106 0 -162 -23t-62 -79h-145z" />
<glyph unicode="&#x330;" horiz-adv-x="0" d="M-899 -373q17 101 63 156t113 55q31 0 55 -6.5t88 -32.5q82 -37 129 -37q52 0 76 76h119q-30 -213 -182 -213q-29 0 -58.5 9t-115.5 42q-74 27 -101 27q-48 0 -67 -76h-119z" />
<glyph unicode="&#x331;" horiz-adv-x="0" d="M-852 -197h561v-143h-561v143z" />
<glyph unicode="&#x332;" horiz-adv-x="0" d="M-852 -197h561v-143h-561v143z" />
<glyph unicode="&#x391;" horiz-adv-x="1366" d="M35 0l532 1493h246l524 -1493h-213l-153 449h-576l-157 -449h-203zM442 608h476l-230 680z" />
<glyph unicode="&#x392;" horiz-adv-x="1366" d="M162 0v1493h606q207 0 324.5 -106t117.5 -273q0 -230 -206 -326q143 -56 207.5 -141.5t64.5 -220.5q0 -187 -120.5 -306.5t-319.5 -119.5h-674zM352 168h465q130 0 199 71.5t69 184.5q0 114 -69 186t-199 72h-465v-514zM352 850h369q155 0 227 60t72 177q0 238 -299 238 h-369v-475z" />
<glyph unicode="&#x393;" horiz-adv-x="1251" d="M184 0v1493h1002v-168h-811v-1325h-191z" />
<glyph unicode="&#x394;" horiz-adv-x="1456" d="M-4 0l655 1464h154l655 -1464h-1464zM256 168h944l-473 1057z" />
<glyph unicode="&#x395;" horiz-adv-x="1366" d="M184 0v1493h1035v-168h-844v-477h813v-168h-813v-512h880v-168h-1071z" />
<glyph unicode="&#x396;" horiz-adv-x="1251" d="M57 0v168l897 1157h-839v168h1075v-172l-893 -1153h897v-168h-1137z" />
<glyph unicode="&#x397;" horiz-adv-x="1478" d="M170 0v1493h190v-645h768v645h191v-1493h-191v680h-768v-680h-190z" />
<glyph unicode="&#x398;" horiz-adv-x="1593" d="M78 735q0 231 90 412t254 282t375 101q216 0 380.5 -101t253.5 -284t89 -422q0 -218 -88 -390.5t-253 -271t-380 -98.5q-160 0 -294 55.5t-228 155t-146.5 244t-52.5 317.5zM268 735q0 -275 146 -439.5t385 -164.5q237 0 383.5 163.5t146.5 432.5q0 284 -145 459.5 t-387 175.5q-155 0 -276 -79.5t-187 -222t-66 -325.5zM401 664v167h797v-167h-797z" />
<glyph unicode="&#x399;" horiz-adv-x="569" d="M205 0v1493h190v-1493h-190z" />
<glyph unicode="&#x39a;" horiz-adv-x="1366" d="M162 0v1493h190v-756l744 756h245l-608 -608l615 -885h-226l-526 766l-244 -244v-522h-190z" />
<glyph unicode="&#x39b;" horiz-adv-x="1366" d="M35 0l532 1493h246l524 -1493h-213l-436 1288l-450 -1288h-203z" />
<glyph unicode="&#x39c;" horiz-adv-x="1705" d="M154 0v1493h264l442 -1300l434 1300h265v-1493h-181v1251l-420 -1251h-200l-424 1251v-1251h-180z" />
<glyph unicode="&#x39d;" horiz-adv-x="1478" d="M156 0v1493h206l781 -1221v1221h180v-1493h-215l-772 1210v-1210h-180z" />
<glyph unicode="&#x39e;" horiz-adv-x="1478" d="M94 0v188h1290v-188h-1290zM94 1305v188h1290v-188h-1290zM283 664v167h913v-167h-913z" />
<glyph unicode="&#x39f;" horiz-adv-x="1593" d="M78 735q0 231 90 412t254 282t375 101q216 0 380.5 -101t253.5 -284t89 -422q0 -218 -88 -390.5t-253 -271t-380 -98.5q-160 0 -294 55.5t-228 155t-146.5 244t-52.5 317.5zM268 735q0 -275 146 -439.5t385 -164.5q237 0 383.5 163.5t146.5 432.5q0 284 -145 459.5 t-387 175.5q-155 0 -276 -79.5t-187 -222t-66 -325.5z" />
<glyph unicode="&#x3a0;" horiz-adv-x="1271" d="M61 0v1493h1149v-1493h-190v1325h-768v-1325h-191z" />
<glyph unicode="&#x3a1;" horiz-adv-x="1366" d="M186 0v1493h617q221 0 341 -113.5t120 -324.5q0 -186 -117 -304t-301 -118h-469v-633h-191zM377 801h397q137 0 214 69.5t77 192.5t-77 192.5t-214 69.5h-397v-524z" />
<glyph unicode="&#x3a3;" horiz-adv-x="1232" d="M61 0v152l594 596l-594 593v152h1110v-168h-856l578 -577l-578 -580h856v-168h-1110z" />
<glyph unicode="&#x3a4;" horiz-adv-x="1251" d="M43 1325v168h1171v-168h-489v-1325h-190v1325h-492z" />
<glyph unicode="&#x3a5;" horiz-adv-x="1366" d="M27 1493h235l438 -727l426 727h228l-561 -907v-586h-191v586z" />
<glyph unicode="&#x3a6;" horiz-adv-x="1558" d="M139 748q0 95 44 175.5t120 135t173.5 89t207.5 44.5v301h190v-301q110 -10 207.5 -44.5t173.5 -89t120 -135t44 -175.5q0 -77 -29 -145t-79.5 -119t-119.5 -90t-149 -62t-168 -31v-301h-190v301q-88 8 -168 31t-149 62t-119.5 90t-79.5 119t-29 145zM315 748 q0 -124 105 -198t264 -93v579q-76 -9 -140.5 -30.5t-116.5 -56.5t-82 -86.5t-30 -114.5zM874 457q159 19 264 93t105 198q0 63 -30 114.5t-82 86.5t-116.5 56.5t-140.5 30.5v-579z" />
<glyph unicode="&#x3a7;" horiz-adv-x="1366" d="M45 0l528 766l-495 727h231l383 -586l385 586h228l-504 -727l528 -766h-235l-408 623l-410 -623h-231z" />
<glyph unicode="&#x3a8;" horiz-adv-x="1525" d="M139 1073v420h176v-420q0 -163 100 -288.5t253 -159.5v868h190v-868q153 34 252.5 159.5t99.5 288.5v420h176v-420q0 -230 -151 -402t-377 -206v-465h-190v465q-226 34 -377.5 206t-151.5 402z" />
<glyph unicode="&#x3a9;" horiz-adv-x="1556" d="M61 0v168h408v137q-154 85 -245 235.5t-91 331.5q0 174 86.5 323t235 236t323.5 87t323.5 -87t235 -236t86.5 -323q0 -181 -91 -331.5t-245 -235.5v-137h408v-168h-598v412q148 41 242 169t94 291q0 195 -132.5 336.5t-322.5 141.5q-125 0 -230 -65.5t-164.5 -175 t-59.5 -237.5q0 -164 93.5 -291.5t241.5 -168.5v-412h-598z" />
<glyph unicode="&#x3b1;" horiz-adv-x="1576" d="M139 510q0 118 43.5 226t117 187.5t177 127t217.5 47.5q288 0 467 -367q110 341 139 387l138 -90q-48 -70 -193 -518q35 -110 55 -169.5t58.5 -147t79.5 -148.5l-138 -90q-59 88 -145 342q-82 -147 -198.5 -234.5t-262.5 -87.5q-112 0 -214.5 42t-177 113t-119 170.5 t-44.5 209.5zM307 510q0 -158 114 -268.5t273 -110.5q72 0 135 31t111 85.5t84 119.5t63 143q-23 70 -47.5 128t-60.5 116.5t-76 98t-94 64.5t-115 25q-163 0 -275 -128t-112 -304z" />
<glyph unicode="&#x3b2;" horiz-adv-x="1124" d="M150 -471v1573q0 99 34.5 175.5t95 122.5t137 69.5t165.5 23.5q181 0 293 -104t112 -273q0 -109 -54.5 -181.5t-168.5 -113.5q149 -51 218 -140.5t69 -231.5q0 -224 -123.5 -352t-335.5 -128q-149 0 -273 88v-528h-169zM319 227q114 -90 256 -90q133 0 215 81.5t82 217.5 q0 155 -86 217t-276 62v168h18q123 0 202 63.5t79 163.5q0 98 -68 160.5t-174 62.5q-113 0 -180.5 -62.5t-67.5 -168.5v-875z" />
<glyph unicode="&#x3b3;" horiz-adv-x="1312" d="M139 1073h180l338 -848l338 848h181l-435 -1087v-457h-168v457z" />
<glyph unicode="&#x3b4;" horiz-adv-x="1122" d="M61 457q0 164 121 276t312 156q-92 72 -147.5 168t-55.5 203q0 71 46.5 125t118.5 81t156 27q91 0 175 -35t149 -100l-98 -98q-94 94 -226 94q-63 0 -107 -24t-44 -70q0 -44 17 -85.5t38 -70.5t63.5 -65.5t68.5 -55t78 -53.5q19 -13 28 -19q307 -212 307 -454 q0 -135 -67 -247t-182 -176.5t-251 -64.5q-135 0 -250 64.5t-182.5 177t-67.5 246.5zM252 457q0 -134 89.5 -226t219.5 -92t219.5 92t89.5 226q0 104 -57 188t-154 125q-107 0 -199 -37t-150 -109.5t-58 -166.5z" />
<glyph unicode="&#x3b5;" horiz-adv-x="1247" d="M139 350q0 171 189 240q-158 71 -158 227q0 99 63.5 174t162.5 112.5t214 37.5q212 0 465 -117l-51 -115q-172 76 -414 76q-112 0 -192 -42.5t-80 -125.5q0 -43 19 -74t60.5 -50t79.5 -30t106.5 -15.5t109 -5.5t116.5 -1v-125q-60 0 -92 -0.5t-89 -2t-90 -6t-78.5 -12 t-71.5 -20t-52 -29.5t-37.5 -41.5t-11.5 -54.5q0 -80 53 -140.5t135 -90t177 -29.5q232 0 381 74l55 -115q-232 -115 -436 -115q-139 0 -260 50t-197 146.5t-76 219.5z" />
<glyph unicode="&#x3b6;" horiz-adv-x="1069" d="M139 537q0 255 130.5 473.5t351.5 349.5h-482v125h860v-125h-104q-174 -51 -308.5 -174.5t-207 -292.5t-72.5 -356q0 -98 36 -183t105 -138.5t156 -53.5h76q132 0 225.5 -92t93.5 -222q0 -128 -93.5 -216.5t-225.5 -88.5v140q64 0 107.5 49t43.5 116q0 65 -44 111.5 t-107 46.5h-76q-131 0 -239 73.5t-167 195t-59 262.5z" />
<glyph unicode="&#x3b7;" d="M139 0v1073h168v-90q125 115 297 115q162 0 278.5 -111.5t116.5 -271.5v-1186h-168v1186q0 95 -66.5 161t-160.5 66q-96 0 -175.5 -48.5t-121.5 -127.5v-766h-168z" />
<glyph unicode="&#x3b8;" horiz-adv-x="1189" d="M139 721q0 121 14.5 232.5t49 216t86 180.5t130 122t175.5 46q82 0 151 -31.5t118 -89t86 -132t59 -165.5t32.5 -185t10.5 -194q0 -114 -16.5 -219.5t-52 -202t-88 -168t-129.5 -114t-171 -42.5q-93 0 -169.5 42.5t-128.5 114t-88 168t-52.5 202.5t-16.5 219zM307 799 h576q-2 77 -7 139.5t-17 130t-33 117.5t-51.5 91.5t-76.5 63t-104 21.5t-103.5 -21.5t-75.5 -63t-51 -91.5t-33 -117.5t-17 -130t-7 -139.5zM309 643q16 -512 285 -512q271 0 287 512h-572z" />
<glyph unicode="&#x3b9;" horiz-adv-x="724" d="M279 322v751h167v-751q0 -76 38.5 -133.5t101.5 -57.5v-156q-130 0 -218.5 103t-88.5 244z" />
<glyph unicode="&#x3ba;" horiz-adv-x="1024" d="M119 0v1073h170v-455l454 455h220l-373 -371l438 -702h-211l-362 582l-166 -164v-418h-170z" />
<glyph unicode="&#x3bb;" horiz-adv-x="1402" d="M139 0l576 973l-29 74q-48 127 -146 209.5t-221 82.5v140q174 0 317.5 -105.5t209.5 -273.5l420 -1100h-181l-294 776l-459 -776h-193z" />
<glyph unicode="&#x3bc;" horiz-adv-x="1417" d="M279 -471v1544h167v-682q28 -116 95.5 -188t167.5 -72q99 0 166.5 72t95.5 188v682h168v-1073h-168v94q-109 -119 -262 -119q-154 0 -263 119v-565h-167z" />
<glyph unicode="&#x3bd;" horiz-adv-x="1169" d="M70 1073h180l383 -911q140 92 219.5 239t79.5 314q0 162 -33 358h172q29 -173 29 -358q0 -240 -127.5 -442.5t-343.5 -305.5l-113 43z" />
<glyph unicode="&#x3be;" d="M139 444q0 116 65 209.5t175 151.5q-96 49 -152.5 128.5t-56.5 180.5q0 149 131 246h-162v125h860v-125h-383q-122 -20 -200 -83.5t-78 -162.5q0 -111 102 -175.5t240 -64.5v-139q-97 0 -181.5 -35t-138 -102.5t-53.5 -153.5q0 -119 87 -200.5t210 -81.5h76 q132 0 225.5 -92t93.5 -222q0 -128 -93.5 -216.5t-225.5 -88.5v140q64 0 107.5 49t43.5 116q0 65 -44 111.5t-107 46.5h-76q-125 0 -231.5 57t-170 158.5t-63.5 222.5z" />
<glyph unicode="&#x3bf;" d="M74 537q0 269 128 418t355 149q233 0 360 -149.5t127 -426.5q0 -263 -129 -411t-356 -148q-229 0 -357 149.5t-128 418.5zM252 537q0 -194 82 -302t225 -108q142 0 224.5 107.5t82.5 295.5q0 199 -81 307.5t-226 108.5q-143 0 -225 -108t-82 -301z" />
<glyph unicode="&#x3c0;" horiz-adv-x="1374" d="M61 700q0 111 25.5 183.5t84 114.5t140 58.5t205.5 16.5h797v-139h-205v-934h-170v934h-338v-934h-170v934q-119 0 -174 -56.5t-55 -177.5h-140z" />
<glyph unicode="&#x3c1;" horiz-adv-x="1302" d="M139 -471v1008q0 149 66 277.5t184.5 206t261.5 77.5t261.5 -77.5t184.5 -206t66 -277.5t-66 -278t-184.5 -206.5t-261.5 -77.5q-190 0 -344 125v-571h-168zM307 289q61 -76 152 -117t192 -41q148 0 246 121t98 285q0 107 -43 199t-122.5 149t-178.5 57t-178.5 -57 t-122.5 -149t-43 -199v-248z" />
<glyph unicode="&#x3c2;" d="M139 553q0 143 58.5 267.5t166.5 201t240 76.5q141 0 249 -90t136 -228l-147 -30q-17 84 -84 138t-154 54q-89 0 -158 -56t-104 -144t-35 -189q0 -102 35 -190.5t104 -144.5t158 -56h76q132 0 225.5 -92t93.5 -222q0 -128 -93.5 -216.5t-225.5 -88.5v140q64 0 107.5 49 t43.5 116q0 65 -44 111.5t-107 46.5h-76q-132 0 -240 76.5t-166.5 201.5t-58.5 269z" />
<glyph unicode="&#x3c3;" horiz-adv-x="1325" d="M139 537q0 269 128.5 418t355.5 149q64 0 137 -17q190 17 454 93l41 -152q-118 -34 -290 -55q145 -148 145 -445q0 -263 -129 -411t-356 -148q-229 0 -357.5 149.5t-128.5 418.5zM317 537q0 -194 82.5 -302t225.5 -108q142 0 224.5 107.5t82.5 295.5q0 199 -81 307.5 t-226 108.5q-143 0 -225.5 -108.5t-82.5 -300.5z" />
<glyph unicode="&#x3c4;" horiz-adv-x="1021" d="M139 911v156h744v-156h-289v-589q0 -76 39 -133.5t102 -57.5v-156q-131 0 -220 103t-89 244v589h-287z" />
<glyph unicode="&#x3c5;" d="M139 358v715h168v-715q0 -95 68 -161t164 -66q87 0 155 54.5t102.5 140.5t34.5 186q0 278 -63 561h172q59 -265 59 -561q0 -141 -58 -263.5t-164.5 -198t-237.5 -75.5q-164 0 -282 111.5t-118 271.5z" />
<glyph unicode="&#x3c6;" horiz-adv-x="1757" d="M139 537q0 181 106.5 330.5t278.5 217.5l54 -131q-125 -50 -198 -164.5t-73 -252.5q0 -114 69 -202.5t177.5 -137.5t241.5 -62v377q0 113 27.5 217t78 187t130 132.5t175.5 49.5q94 0 173.5 -47t130.5 -126t79.5 -179.5t28.5 -208.5q0 -117 -53.5 -218t-144.5 -171 t-208.5 -113.5t-248.5 -54.5v-451h-168v451q-131 11 -248.5 54.5t-209 113.5t-145 171t-53.5 218zM963 135q133 13 241 62t177 137.5t69 202.5q0 106 -23.5 194t-80.5 149.5t-140 61.5q-65 0 -114 -37t-76 -100.5t-40 -136.5t-13 -156v-377z" />
<glyph unicode="&#x3c7;" horiz-adv-x="1323" d="M139 -471l428 772l-428 772h189l334 -602l333 602h189l-428 -772l428 -772h-189l-333 602l-334 -602h-189z" />
<glyph unicode="&#x3c8;" horiz-adv-x="1478" d="M139 358v715h168v-715q0 -56 28.5 -98.5t79 -68t109.5 -39.5t131 -19v1360h168v-1360q72 5 131 19t109.5 39.5t79 68t28.5 98.5v715h168v-715q0 -86 -42.5 -156t-115.5 -115.5t-163.5 -72t-194.5 -34.5v-451h-168v451q-104 8 -194.5 34.5t-163.5 72t-115.5 115.5 t-42.5 156z" />
<glyph unicode="&#x3c9;" horiz-adv-x="1550" d="M139 563q0 223 131 510h129q-92 -199 -92 -510q0 -58 2 -103t8.5 -98.5t20 -91.5t34 -71.5t53 -50.5t75.5 -17q176 0 209 289q-17 133 -17 295h168v-81t1.5 -80.5t4 -82t7 -75.5t12 -73t17.5 -62t24 -54.5t32 -39.5t41.5 -27.5t51.5 -8.5q43 0 75.5 17t52.5 50.5 t33.5 71.5t20 91.5t8.5 98t2 103.5q0 311 -92 510h129q131 -287 131 -510q0 -113 -21 -215t-63 -187t-113 -135.5t-163 -50.5q-192 0 -281 209q-90 -209 -270 -209q-92 0 -163 50.5t-113 135t-63.5 187t-21.5 215.5z" />
<glyph unicode="&#x3d1;" horiz-adv-x="1277" d="M139 358v357h168v-357q0 -96 78 -158.5t184 -62.5t184 62.5t78 158.5v443q-92 4 -167 13t-151.5 26t-133 45t-101.5 67t-68.5 96t-23.5 128q0 158 112 268t271 110q121 0 220.5 -66.5t154.5 -176.5t55 -238v-151h140v-125h-140v-439q0 -109 -59.5 -199t-158 -140 t-212.5 -50t-212.5 50t-158 140t-59.5 199zM322 1176q0 -54 27.5 -96t72.5 -68.5t113 -45t138 -27t158 -13.5v147q0 93 -30 173.5t-91 133t-141 52.5q-103 0 -175 -75.5t-72 -180.5z" />
<glyph unicode="&#x3d5;" horiz-adv-x="1435" d="M141 537q0 141 65 263t178 200.5t251 97.5v395h168v-395q138 -19 251 -97.5t178.5 -200.5t65.5 -263t-65.5 -263.5t-178.5 -201t-251 -97.5v-446h-168v446q-138 19 -251 97.5t-178 201t-65 263.5zM309 537q0 -144 93 -254t233 -138v783q-140 -28 -233 -137.5t-93 -253.5z M803 145q140 28 233.5 138t93.5 254t-93.5 253.5t-233.5 137.5v-783z" />
<glyph unicode="&#x3d6;" horiz-adv-x="1550" d="M139 563q0 223 131 510h129q-92 -199 -92 -510q0 -58 2 -103t8.5 -98.5t20 -91.5t34 -71.5t53 -50.5t75.5 -17q176 0 209 289q-17 133 -17 295h168v-81t1.5 -80.5t4 -82t7 -75.5t12 -73t17.5 -62t24 -54.5t32 -39.5t41.5 -27.5t51.5 -8.5q43 0 75.5 17t52.5 50.5 t33.5 71.5t20 91.5t8.5 98t2 103.5q0 95 -8.5 182t-26.5 173t-50 156t-75 124.5t-105.5 84.5t-137.5 30q-236 0 -471 -82l-35 104q244 86 506 86q138 0 249 -73t180 -195.5t105.5 -273.5t36.5 -316q0 -113 -21 -215t-63 -187t-113 -135.5t-163 -50.5q-192 0 -281 209 q-90 -209 -270 -209q-92 0 -163 50.5t-113 135t-63.5 187t-21.5 215.5z" />
<glyph unicode="&#x3f5;" horiz-adv-x="1024" d="M63 526q0 266 130 422t348 156q160 0 266.5 -75.5t142.5 -223.5h-182q-63 141 -229 141q-125 0 -201.5 -88t-91.5 -252h436v-139h-438q12 -163 90 -251.5t209 -88.5q171 0 233 141h182q-39 -141 -147.5 -220t-271.5 -79q-219 0 -347.5 149t-128.5 408z" />
<glyph unicode="&#x400;" horiz-adv-x="1366" d="M184 0v1493h1035v-168h-844v-477h813v-168h-813v-512h880v-168h-1071zM487 1878h232l196 -303h-122z" />
<glyph unicode="&#x401;" horiz-adv-x="1366" d="M162 0v1493h1034v-168h-844v-477h813v-168h-813v-512h881v-168h-1071zM408 1661v211h213v-211h-213zM739 1661v211h213v-211h-213z" />
<glyph unicode="&#x402;" horiz-adv-x="1511" d="M43 1325v168h1008v-168h-408v-364h414q188 0 283.5 -105t95.5 -289v-530q0 -184 -95.5 -288.5t-283.5 -104.5h-107v168h99q88 0 142 48t54 140v604q0 92 -54 140.5t-142 48.5h-406v-793h-190v1325h-410z" />
<glyph unicode="&#x403;" horiz-adv-x="1251" d="M184 0v1493h1002v-168h-811v-1325h-191zM471 1575l197 303h231l-305 -303h-123z" />
<glyph unicode="&#x404;" horiz-adv-x="1478" d="M98 729q0 181 54 336.5t155 265.5q169 187 473 187q246 0 389 -121t187 -367h-195q-17 83 -42 135t-66 90q-46 43 -125.5 69t-169.5 26q-193 0 -315.5 -133.5t-147.5 -368.5h745v-168h-749q12 -258 141.5 -408.5t341.5 -150.5q120 0 211 50t137 142q45 86 68 232h196 q-67 -592 -614 -592q-289 0 -457 174q-106 109 -161.5 263t-55.5 339z" />
<glyph unicode="&#x405;" horiz-adv-x="1366" d="M98 475h181q-3 -133 77 -229q105 -125 344 -125q184 0 275 63q48 34 77 90.5t29 116.5q0 88 -66.5 146.5t-207.5 95.5l-371 98q-293 76 -293 348q0 203 142.5 321t388.5 118q258 0 402 -121.5t145 -341.5h-181q-2 146 -98 224.5t-274 78.5q-151 0 -242.5 -69t-91.5 -183 q0 -86 55 -135t191 -86l374 -101q152 -41 235 -138.5t83 -235.5q0 -97 -44.5 -189.5t-119.5 -152.5q-149 -115 -420 -115q-346 0 -502 213q-45 62 -66 134.5t-22 174.5z" />
<glyph unicode="&#x406;" horiz-adv-x="569" d="M205 0v1493h192v-1493h-192z" />
<glyph unicode="&#x407;" horiz-adv-x="569" d="M16 1649v211h213v-211h-213zM205 0v1493h192v-1493h-192zM348 1649v211h213v-211h-213z" />
<glyph unicode="&#x408;" horiz-adv-x="1024" d="M35 348v131h194v-96q0 -130 58.5 -200t165.5 -70q57 0 105.5 24.5t76.5 67.5q47 68 47 237v1051h190v-1120q0 -194 -113 -307t-308 -113q-192 0 -304 106.5t-112 288.5z" />
<glyph unicode="&#x409;" horiz-adv-x="2211" d="M170 0v193q142 0 192 287q36 206 36 688q0 50 -1 151v174h846v-643h295q265 0 397 -108t158 -316q0 -180 -115 -301q-116 -125 -325 -125h-602v1325h-461q0 -36 1 -113q2 -400 -20 -601q-58 -531 -316 -600q-40 -11 -85 -11zM1243 168h391q133 0 199 72q70 73 70 184 q0 113 -70 186q-66 72 -199 72h-391v-514z" />
<glyph unicode="&#x40a;" horiz-adv-x="2076" d="M170 0v1493h190v-645h625v645h191v-643h260q265 0 397 -108t158 -316q0 -180 -115 -301q-116 -125 -326 -125h-565v680h-623v-680h-192zM1176 168h356q133 0 199 72q69 72 69 184q0 114 -69 186q-66 72 -199 72h-356v-514z" />
<glyph unicode="&#x40b;" horiz-adv-x="1531" d="M43 1325v168h1008v-168h-408v-364h434q188 0 283.5 -105t95.5 -289v-567h-190v604q0 92 -54.5 140.5t-142.5 48.5h-426v-793h-190v1325h-410z" />
<glyph unicode="&#x40c;" horiz-adv-x="1366" d="M162 0v1493h190v-645l744 645h245l-843 -725l850 -768h-226l-770 664v-664h-190zM537 1575l196 303h232l-306 -303h-122z" />
<glyph unicode="&#x40d;" horiz-adv-x="1478" d="M156 0v1493h180v-1221l780 1221h207v-1493h-180v1210l-772 -1210h-215zM526 1878h232l196 -303h-123z" />
<glyph unicode="&#x40e;" horiz-adv-x="1331" d="M53 1493h232l379 -776l376 776h228l-752 -1493h-231l264 500zM352 1851h121q15 -135 189 -135q83 0 131.5 35t54.5 100h121q-10 -136 -89.5 -206t-222.5 -70q-177 0 -262 117q-22 32 -32 66t-11 93z" />
<glyph unicode="&#x40f;" horiz-adv-x="1478" d="M170 0v1493h192v-1325h766v1325h193v-1493h-494v-276h-163v276h-494z" />
<glyph unicode="&#x410;" horiz-adv-x="1366" d="M35 0l532 1493h246l524 -1493h-213l-153 449h-576l-157 -449h-203zM442 608h476l-230 680z" />
<glyph unicode="&#x411;" horiz-adv-x="1366" d="M162 0v1493h1001v-168h-811v-434h484q61 0 117 -11t116.5 -41t105 -78t73 -129t28.5 -186q0 -90 -30.5 -177t-84.5 -144q-116 -125 -325 -125h-674zM352 168h465q133 0 199 72q32 34 50.5 90.5t18.5 113.5q0 58 -18 115.5t-51 91.5q-66 72 -199 72h-465v-555z" />
<glyph unicode="&#x412;" horiz-adv-x="1366" d="M162 0v1493h606q211 0 324 -104q118 -106 118 -275q0 -230 -206 -326q143 -56 207.5 -141.5t64.5 -220.5q0 -180 -115 -301q-116 -125 -325 -125h-674zM352 168h465q133 0 199 72q69 72 69 184q0 114 -69 186q-66 72 -199 72h-465v-514zM352 850h369q80 0 129.5 12 t87.5 41q82 63 82 184q0 122 -82 185q-38 29 -87.5 41t-129.5 12h-369v-475z" />
<glyph unicode="&#x413;" horiz-adv-x="1251" d="M162 0v1493h1001v-168h-811v-1325h-190z" />
<glyph unicode="&#x414;" horiz-adv-x="1662" d="M70 152h188q116 53 171.5 231t55.5 444v666h922v-1341h186v-428h-163v276h-1197v-276h-163v428zM537 168h677v1157h-536v-498q0 -438 -141 -659z" />
<glyph unicode="&#x415;" horiz-adv-x="1366" d="M162 0v1493h1034v-168h-844v-477h813v-168h-813v-512h881v-168h-1071z" />
<glyph unicode="&#x416;" horiz-adv-x="2095" d="M129 0l666 768l-580 725h238l487 -631v631h190v-631l488 631h237l-579 -725l666 -768h-242l-570 664v-664h-190v664l-586 -664h-225z" />
<glyph unicode="&#x417;" horiz-adv-x="1366" d="M98 475h181q-3 -133 77 -229q105 -125 344 -125q184 0 275 63q48 34 77 90.5t29 116.5q0 120 -92.5 193t-240.5 73h-222v168h181q132 0 227.5 88t95.5 193q0 114 -91.5 183t-242.5 69q-178 0 -274 -78.5t-98 -224.5h-181q1 220 145 341.5t402 121.5q246 0 388.5 -118 t142.5 -321q0 -222 -215 -313q128 -47 197 -139t69 -217q0 -97 -44.5 -189.5t-119.5 -152.5q-149 -115 -420 -115q-346 0 -502 213q-45 62 -66 134.5t-22 174.5z" />
<glyph unicode="&#x418;" horiz-adv-x="1490" d="M162 0v1493h180v-1235l780 1235h207v-1493h-180v1225l-772 -1225h-215z" />
<glyph unicode="&#x419;" horiz-adv-x="1490" d="M162 0v1493h180v-1235l780 1235h207v-1493h-180v1225l-772 -1225h-215zM436 1892h121q15 -135 188 -135q83 0 132 35.5t55 99.5h121q-10 -136 -89.5 -206t-222.5 -70q-177 0 -262 117q-22 32 -32 66t-11 93z" />
<glyph unicode="&#x41a;" horiz-adv-x="1366" d="M162 0v1493h190v-627l625 627h227l-706 -707l774 -786h-254l-666 682v-682h-190z" />
<glyph unicode="&#x41b;" horiz-adv-x="1378" d="M68 -20v192q79 0 131.5 92.5t74 235t21.5 327.5v666h922v-1493h-193v1325h-537v-498q0 -133 -12 -250.5t-42.5 -229t-77 -191.5t-120 -128t-167.5 -48z" />
<glyph unicode="&#x41c;" horiz-adv-x="1728" d="M162 0v1493h264l442 -1300l435 1300h264v-1493h-181v1251l-419 -1251h-201l-424 1251v-1251h-180z" />
<glyph unicode="&#x41d;" horiz-adv-x="1472" d="M162 0v1493h190v-645h766v645h193v-1493h-193v680h-764v-680h-192z" />
<glyph unicode="&#x41e;" horiz-adv-x="1593" d="M78 735q0 231 90 409t253.5 276t375.5 98q328 0 525.5 -217t197.5 -578q0 -184 -68.5 -347t-189.5 -265q-187 -158 -463 -158q-159 0 -293.5 57t-228.5 158.5t-146.5 247.5t-52.5 319zM268 735q0 -276 146.5 -445t384.5 -169q236 0 383 168t147 438q0 283 -144.5 453 t-387.5 170q-237 0 -383 -169.5t-146 -445.5z" />
<glyph unicode="&#x41f;" horiz-adv-x="1472" d="M162 0v1493h1149v-1493h-193v1325h-764v-1325h-192z" />
<glyph unicode="&#x420;" horiz-adv-x="1366" d="M162 0v1493h616q221 0 341 -113.5t120 -324.5q0 -103 -31 -179t-98 -137q-118 -106 -289 -106h-469v-633h-190zM352 801h398q136 0 213 69.5t77 192.5t-77 192.5t-213 69.5h-398v-524z" />
<glyph unicode="&#x421;" horiz-adv-x="1478" d="M98 729q0 181 54 336.5t155 265.5q169 187 473 187q246 0 389 -121t187 -367h-195q-17 83 -42 135t-66 90q-46 43 -125.5 69t-169.5 26q-217 0 -343 -166t-126 -453q0 -280 131 -445t354 -165q120 0 211 50t137 142q45 86 68 232h196q-67 -592 -614 -592q-289 0 -457 174 q-106 109 -161.5 263t-55.5 339z" />
<glyph unicode="&#x422;" horiz-adv-x="1251" d="M43 1325v168h1171v-168h-489v-1325h-190v1325h-492z" />
<glyph unicode="&#x423;" horiz-adv-x="1331" d="M53 1493h232l366 -758l389 758h228l-752 -1493h-231l258 506z" />
<glyph unicode="&#x424;" horiz-adv-x="1916" d="M131 748q0 87 18 161t47 127t73 95.5t87.5 70t100 47.5t101.5 30t100 16t87 7t72 1v190h195v-190q40 0 72 -1t87 -7t100 -16t101.5 -30t100 -47.5t87.5 -70t73 -95.5t47 -127t18 -161t-16.5 -160.5t-43 -127t-68.5 -96t-83 -70t-96 -47.5t-99.5 -30t-102 -16t-93.5 -7 t-84 -1v-193h-195v193q-48 0 -84 1t-93.5 7t-102 16t-99.5 30t-96 47.5t-83 70t-68.5 96t-43 127t-16.5 160.5zM336 748q0 -74 21 -134t53.5 -99.5t78.5 -69.5t89 -45.5t92.5 -25t82.5 -12t64 -2.5v775q-31 0 -64 -2.5t-82.5 -12t-92.5 -25t-89 -45t-78.5 -69t-53.5 -99.5 t-21 -134zM1012 360q31 0 64 2.5t82.5 12t92.5 25t89 45.5t78.5 69.5t53.5 99.5t21 134t-21 134t-53.5 99.5t-78.5 69t-89 45t-92.5 25t-82.5 12t-64 2.5v-775z" />
<glyph unicode="&#x425;" horiz-adv-x="1366" d="M45 0l528 766l-495 727h231l373 -571l395 571h213l-502 -727l525 -766h-219l-416 610l-402 -610h-231z" />
<glyph unicode="&#x426;" horiz-adv-x="1517" d="M162 0v1493h192v-1325h764v1325h193v-1341h137v-428h-164v276h-1122z" />
<glyph unicode="&#x427;" horiz-adv-x="1327" d="M162 926v567h190v-604q0 -92 54.5 -140.5t142.5 -48.5h426v793h190v-1493h-190v532h-434q-188 0 -283.5 105t-95.5 289z" />
<glyph unicode="&#x428;" horiz-adv-x="1695" d="M162 0v1493h192v-1325h398v1325h192v-1325h397v1325h193v-1493h-1372z" />
<glyph unicode="&#x429;" horiz-adv-x="1740" d="M162 0v1493h192v-1325h398v1325h192v-1325h397v1325h193v-1341h137v-428h-164v276h-1345z" />
<glyph unicode="&#x42a;" horiz-adv-x="1837" d="M166 1325v168h663v-569h453q202 0 336.5 -132t134.5 -329q0 -203 -133.5 -333t-337.5 -130h-643v1325h-473zM829 168h435q131 0 215 83.5t84 209.5q0 131 -83 213t-216 82h-435v-588z" />
<glyph unicode="&#x42b;" horiz-adv-x="1785" d="M162 0v1493h190v-569h453q202 0 336.5 -132t134.5 -329q0 -203 -133.5 -333t-337.5 -130h-643zM352 168h434q131 0 215 83.5t84 209.5q0 131 -83 213t-216 82h-434v-588zM1432 0v1493h192v-1493h-192z" />
<glyph unicode="&#x42c;" horiz-adv-x="1366" d="M162 0v1493h190v-569h453q202 0 336.5 -132t134.5 -329q0 -203 -133.5 -333t-337.5 -130h-643zM352 168h434q131 0 215 83.5t84 209.5q0 131 -83 213t-216 82h-434v-588z" />
<glyph unicode="&#x42d;" horiz-adv-x="1478" d="M98 545h197q23 -149 67 -232q46 -92 137.5 -142t211.5 -50q212 0 341.5 150t143.5 409h-752v168h746q-25 235 -147.5 368.5t-315.5 133.5q-90 0 -169.5 -26t-125.5 -69q-41 -38 -66 -90t-42 -135h-195q44 246 187 367t389 121q304 0 473 -187q101 -110 154.5 -265 t53.5 -337q0 -185 -55.5 -339t-161.5 -263q-168 -174 -456 -174q-548 0 -615 592z" />
<glyph unicode="&#x42e;" horiz-adv-x="2113" d="M170 0v1493h190v-645h248q33 309 208 489.5t464 180.5q324 0 503 -214.5t179 -580.5q0 -184 -68.5 -347t-189.5 -265q-96 -81 -191.5 -119.5t-224.5 -38.5q-306 0 -487.5 197.5t-196.5 529.5h-242v-680h-192zM793 735q0 -282 127.5 -448t361.5 -166q232 0 361 165.5 t129 440.5q0 289 -127 456t-365 167q-232 0 -359.5 -166.5t-127.5 -448.5z" />
<glyph unicode="&#x42f;" horiz-adv-x="1437" d="M66 0l559 643q-105 0 -193.5 35t-147 93.5t-90.5 135t-32 160.5q0 181 114 301q116 125 326 125h674v-1493h-191v643h-227l-567 -643h-225zM352 1067q0 -111 70 -184q66 -72 199 -72h464v514h-464q-133 0 -199 -72q-70 -73 -70 -186z" />
<glyph unicode="&#x430;" d="M86 270q0 210 188 287q51 21 108.5 32t235.5 34q101 12 140 38t39 80v45q0 77 -62.5 118.5t-177.5 41.5q-120 0 -180.5 -46t-71.5 -144h-172q3 79 20 130.5t54 92.5q54 60 146.5 92.5t209.5 32.5q198 0 301 -75t103 -218v-631q0 -40 24 -62t68 -22q19 0 37 4v-129 q-71 -18 -117 -18q-83 0 -125 38t-51 120q-91 -83 -177.5 -120.5t-187.5 -37.5q-163 0 -257.5 85.5t-94.5 231.5zM264 274q0 -82 55.5 -127t155.5 -45q146 0 254 97q38 35 53 65.5t15 73.5v192q-42 -20 -89 -30t-186 -29q-137 -20 -197.5 -66t-60.5 -131z" />
<glyph unicode="&#x431;" d="M74 528q0 122 8.5 231t32.5 223.5t62 200t101.5 148.5t145.5 82l272 53q46 11 80.5 46t34.5 75h152q0 -33 -1 -51.5t-5 -47t-12.5 -45.5t-25 -39t-40.5 -37t-60.5 -30t-83.5 -26l-276 -60q-81 -20 -140.5 -99.5t-78.5 -190.5q89 143 317 143q232 0 359.5 -153t127.5 -431 q0 -264 -129.5 -415.5t-355.5 -151.5q-229 0 -357 152.5t-128 422.5zM252 528q0 -195 82 -306t225 -111q141 0 224 111t83 300q0 200 -81 312t-226 112q-142 0 -224.5 -112t-82.5 -306z" />
<glyph unicode="&#x432;" horiz-adv-x="1069" d="M143 0v1073h449q149 0 229 -74q82 -76 82 -196q0 -167 -141 -236q103 -40 149.5 -101.5t46.5 -158.5q0 -127 -84 -217t-233 -90h-498zM315 156h271q94 0 141 53q25 25 35 48t10 60q0 28 -0.5 37.5t-4.5 27t-13.5 28.5t-26.5 22q-62 41 -141 41h-271v-317zM315 629h201 q105 0 156 37q24 19 34 29t17.5 29t7.5 46q0 41 -13 63t-46 48q-50 39 -156 39h-201v-291z" />
<glyph unicode="&#x433;" horiz-adv-x="880" d="M143 0v1073h635v-155h-463v-918h-172z" />
<glyph unicode="&#x434;" horiz-adv-x="1232" d="M61 131h117q48 5 87.5 84.5t60 197.5t20.5 244v416h694v-942h131v-377h-143v246h-823v-246h-144v377zM416 156h452v762h-352v-261q0 -140 -24.5 -274t-75.5 -227z" />
<glyph unicode="&#x435;" d="M82 522q0 264 133.5 423t357.5 159q151 0 266.5 -75.5t168.5 -207.5q43 -111 43 -342h-791q2 -81 14.5 -132.5t42.5 -96.5q43 -67 109.5 -103t148.5 -36q209 0 281 215h172q-32 -175 -153.5 -274t-305.5 -99q-226 0 -356.5 152.5t-130.5 416.5zM264 618h602l2 13 q0 132 -85.5 223.5t-211.5 91.5q-129 0 -213 -89.5t-94 -238.5z" />
<glyph unicode="&#x436;" horiz-adv-x="1714" d="M90 0l561 561l-495 512h219l393 -411v411h170v-411l393 411h219l-495 -512l561 -561h-217l-461 463v-463h-170v463l-461 -463h-217z" />
<glyph unicode="&#x437;" horiz-adv-x="1024" d="M70 319h180q7 -56 17.5 -84.5t31.5 -52.5q68 -71 213 -71q111 0 176.5 46t65.5 122q0 66 -47 120t-132 54h-182v155h127q98 0 148.5 54.5t50.5 121.5q0 74 -61.5 118t-165.5 44q-97 0 -155 -44.5t-61 -127.5h-180q1 157 105.5 243.5t283.5 86.5q187 0 299.5 -89.5 t112.5 -238.5q0 -82 -31 -135.5t-102 -93.5q91 -40 133.5 -101t42.5 -153q0 -155 -120 -247.5t-322 -92.5q-211 0 -316.5 90t-111.5 276z" />
<glyph unicode="&#x438;" horiz-adv-x="1161" d="M143 0v1073h172v-846l482 846h221v-1073h-170v846l-481 -846h-224z" />
<glyph unicode="&#x439;" horiz-adv-x="1161" d="M143 0v1073h172v-846l482 846h221v-1073h-170v846l-481 -846h-224zM272 1432h121q15 -136 189 -136q83 0 131.5 35.5t54.5 100.5h121q-10 -136 -89 -206.5t-222 -70.5q-178 0 -263 117q-22 31 -32 66t-11 94z" />
<glyph unicode="&#x43a;" horiz-adv-x="1044" d="M143 0v1073h170v-434l435 434h196l-514 -512l561 -561h-217l-461 463v-463h-170z" />
<glyph unicode="&#x43b;" horiz-adv-x="1140" d="M143 -20v163q75 0 117.5 144t42.5 370v416h694v-1073h-172v918h-352v-261q0 -101 -9 -192t-32.5 -181.5t-59.5 -156.5t-95 -106.5t-134 -40.5z" />
<glyph unicode="&#x43c;" horiz-adv-x="1265" d="M143 0v1073h213l277 -667l276 667h213v-1073h-172v743l-266 -661h-102l-267 661v-743h-172z" />
<glyph unicode="&#x43d;" horiz-adv-x="1142" d="M143 0v1073h172v-440h512v440h172v-1073h-172v477h-512v-477h-172z" />
<glyph unicode="&#x43e;" d="M74 528q0 270 128.5 423t354.5 153q232 0 359.5 -153t127.5 -431q0 -264 -129.5 -415.5t-355.5 -151.5q-229 0 -357 152.5t-128 422.5zM252 528q0 -195 82 -306t225 -111q141 0 224 111t83 300q0 200 -81 312t-226 112q-142 0 -224.5 -112t-82.5 -306z" />
<glyph unicode="&#x43f;" horiz-adv-x="1140" d="M143 0v1073h854v-1073h-172v918h-510v-918h-172z" />
<glyph unicode="&#x440;" horiz-adv-x="1179" d="M111 -446v1519h157v-162q122 193 342 193q213 0 337 -158t124 -428q0 -256 -126 -410.5t-333 -154.5q-104 0 -182.5 38.5t-146.5 121.5v-559h-172zM283 528q0 -189 82 -302t217 -113q139 0 225 113t86 296q0 192 -85 307t-226 115q-135 0 -217 -113.5t-82 -302.5z" />
<glyph unicode="&#x441;" horiz-adv-x="1024" d="M63 518q0 267 130.5 426.5t347.5 159.5q112 0 204 -42t148 -118q61 -88 72 -231h-172q-15 112 -81 172.5t-173 60.5q-139 0 -218 -113.5t-79 -314.5q0 -191 80 -299t221 -108q219 0 262 258h172q-15 -197 -130.5 -306.5t-307.5 -109.5q-218 0 -347 153t-129 412z" />
<glyph unicode="&#x442;" horiz-adv-x="1015" d="M123 918v155h762v-155h-295v-918h-172v918h-295z" />
<glyph unicode="&#x443;" horiz-adv-x="1024" d="M41 1073h182l275 -835l297 835h184l-477 -1298q-43 -116 -117 -170q-70 -51 -160 -51q-63 0 -114 26v154q60 -13 90 -13q53 0 84.5 25.5t52.5 79.5l65 170z" />
<glyph unicode="&#x444;" horiz-adv-x="1867" d="M125 516q0 273 109 430.5t317 157.5q192 0 293 -193v469h170v-469q91 193 297 193q210 0 320 -155.5t110 -430.5q0 -261 -112 -413t-316 -152q-100 0 -164 36t-135 124v-559h-170v569q-63 -92 -128 -131t-173 -39q-208 0 -313 148t-105 415zM303 528q0 -195 67.5 -305 t204.5 -110q132 0 200.5 109.5t68.5 299.5q0 199 -68 310.5t-201 111.5q-136 0 -204 -111t-68 -305zM1014 528q0 -194 68 -304.5t200 -110.5q136 0 208.5 110.5t72.5 298.5q0 197 -71.5 309.5t-209.5 112.5q-132 0 -200 -111t-68 -305z" />
<glyph unicode="&#x445;" horiz-adv-x="1024" d="M35 0l379 547l-359 526h195l258 -389l258 389h192l-360 -518l371 -555h-199l-268 412l-273 -412h-194z" />
<glyph unicode="&#x446;" horiz-adv-x="1183" d="M143 0v1073h172v-917h510v917h172v-942h125v-377h-143v246h-836z" />
<glyph unicode="&#x447;" horiz-adv-x="1064" d="M143 684v389h172v-383q0 -72 37.5 -107.5t102.5 -35.5h295v526h172v-1073h-172v391h-289q-133 0 -225.5 77.5t-92.5 215.5z" />
<glyph unicode="&#x448;" horiz-adv-x="1417" d="M143 0v1073h172v-917h308v917h172v-917h307v917h172v-1073h-1131z" />
<glyph unicode="&#x449;" horiz-adv-x="1458" d="M143 0v1073h172v-917h308v917h172v-917h307v917h172v-942h123v-377h-144v246h-1110z" />
<glyph unicode="&#x44a;" horiz-adv-x="1503" d="M117 918v155h547v-375h331q152 0 247 -96.5t95 -259.5q0 -150 -96 -246t-246 -96h-503v918h-375zM664 156h254q71 0 119 14.5t72 41t33 56t9 68.5q0 109 -57 158t-176 49h-254v-387z" />
<glyph unicode="&#x44b;" horiz-adv-x="1413" d="M143 0v1073h172v-375h332q153 0 247.5 -96t94.5 -260q0 -150 -96 -246t-246 -96h-504zM315 156h254q71 0 119 14.5t72 41t33.5 56t9.5 68.5q0 109 -57.5 158t-176.5 49h-254v-387zM1100 0v1073h170v-1073h-170z" />
<glyph unicode="&#x44c;" horiz-adv-x="1130" d="M143 0v1073h172v-375h332q153 0 247.5 -96t94.5 -260q0 -150 -96 -246t-246 -96h-504zM315 156h254q71 0 119 14.5t72 41t33.5 56t9.5 68.5q0 109 -57.5 158t-176.5 49h-254v-387z" />
<glyph unicode="&#x44d;" horiz-adv-x="1024" d="M63 369h173q44 -258 262 -258q133 0 212.5 96t88.5 268h-465v158h459q-22 150 -97.5 231.5t-193.5 81.5q-107 0 -173 -60.5t-81 -172.5h-172q11 145 71 231q56 75 148.5 117.5t204.5 42.5q217 0 347 -159.5t130 -426.5q0 -260 -128.5 -412.5t-346.5 -152.5 q-192 0 -308 110t-131 306z" />
<glyph unicode="&#x44e;" horiz-adv-x="1552" d="M143 0v1073h172v-440h197q0 24 5 57t20 79t37 90.5t60 89.5t85.5 79t117.5 55t152 21q232 0 360 -153t128 -431q0 -264 -130 -415.5t-356 -151.5q-113 0 -202 38.5t-140 96t-84.5 131.5t-45 137t-11.5 121h-193v-477h-172zM684 528q0 -195 82 -306t225 -111 q141 0 224 111t83 300q0 200 -81 312t-226 112q-142 0 -224.5 -112t-82.5 -306z" />
<glyph unicode="&#x44f;" horiz-adv-x="1112" d="M29 0l420 453q-137 11 -221.5 89.5t-84.5 225.5q0 127 84 217q82 88 234 88h508v-1073h-172v446h-142l-415 -446h-211zM330 758q0 -28 0.5 -37.5t4.5 -27t13.5 -28.5t26.5 -22q62 -41 141 -41h281v318h-281q-93 0 -141 -54q-25 -25 -35 -48t-10 -60z" />
<glyph unicode="&#x450;" d="M82 522q0 264 133.5 423t357.5 159q151 0 266.5 -75.5t168.5 -207.5q43 -111 43 -342h-791q2 -81 14.5 -132.5t42.5 -96.5q43 -67 109.5 -103t148.5 -36q209 0 281 215h172q-32 -175 -153.5 -274t-305.5 -99q-226 0 -356.5 152.5t-130.5 416.5zM264 618h602l2 13 q0 132 -85.5 223.5t-211.5 91.5q-129 0 -213 -89.5t-94 -238.5zM283 1516h231l197 -304h-123z" />
<glyph unicode="&#x451;" d="M82 522q0 264 133.5 423t357.5 159q151 0 266.5 -75.5t168.5 -207.5q43 -111 43 -342h-791q2 -81 14.5 -132.5t42.5 -96.5q43 -67 109.5 -103t148.5 -36q209 0 281 215h172q-32 -175 -153.5 -274t-305.5 -99q-226 0 -356.5 152.5t-130.5 416.5zM264 618h602l2 13 q0 132 -85.5 223.5t-211.5 91.5q-129 0 -213 -89.5t-94 -238.5zM313 1255v211h213v-211h-213zM645 1255v211h213v-211h-213z" />
<glyph unicode="&#x452;" horiz-adv-x="1191" d="M31 1204v144h166v145h170v-145h389v-144h-389v-358q75 98 152.5 138t191.5 40q157 0 247.5 -79t90.5 -214v-731q0 -135 -90.5 -214t-247.5 -79h-54v150q87 0 152 49q70 50 70 162v596q0 111 -70 161q-65 49 -152 49q-132 0 -211 -99t-79 -263v-512h-170v1204h-166z" />
<glyph unicode="&#x453;" horiz-adv-x="880" d="M143 0v1073h605v-155h-433v-918h-172zM231 1155l197 303h231l-305 -303h-123z" />
<glyph unicode="&#x454;" horiz-adv-x="1024" d="M63 518q0 267 130.5 426.5t347.5 159.5q112 0 204 -42t148 -118q61 -88 72 -231h-172q-15 112 -81 172.5t-173 60.5q-118 0 -193.5 -81.5t-97.5 -231.5h457v-158h-463q9 -172 88.5 -268t212.5 -96q219 0 262 258h172q-15 -197 -130.5 -306.5t-307.5 -109.5 q-218 0 -347 153t-129 412z" />
<glyph unicode="&#x455;" horiz-adv-x="1024" d="M70 319h180q7 -56 17.5 -84.5t31.5 -52.5q68 -71 213 -71q112 0 181 46.5t69 121.5q0 58 -38.5 92.5t-127.5 56.5l-160 39q-190 46 -265 114.5t-75 194.5q0 149 112.5 238.5t299.5 89.5q186 0 286.5 -86t102.5 -244h-180q-3 85 -57.5 128.5t-157.5 43.5q-104 0 -166 -44 t-62 -118q0 -57 47 -92.5t152 -60.5l164 -39q160 -38 231.5 -108.5t71.5 -190.5q0 -155 -120 -247.5t-322 -92.5q-211 0 -316.5 90t-111.5 276z" />
<glyph unicode="&#x456;" horiz-adv-x="454" d="M135 1278v215h172v-215h-172zM137 0v1073h170v-1073h-170z" />
<glyph unicode="&#x457;" horiz-adv-x="569" d="M6 1239v211h213v-211h-213zM193 0v1073h172v-1073h-172zM338 1239v211h213v-211h-213z" />
<glyph unicode="&#x458;" horiz-adv-x="454" d="M-37 -295l41 -2q78 0 108.5 31t30.5 110v1229h170v-1296q0 -109 -74.5 -166t-218.5 -57q-27 0 -57 6v145zM143 1278v215h170v-215h-170z" />
<glyph unicode="&#x459;" horiz-adv-x="1810" d="M143 0v164q39 0 67.5 29t45.5 99t27 133t14 186.5t5 199.5t1 229v33h692v-375h232q224 0 333 -92.5t109 -263.5q0 -150 -96 -246t-246 -96h-502v918h-352q2 -60 0 -131t-3 -147t-11 -153t-23 -148t-38.5 -133t-59 -107.5t-83.5 -72t-112 -26.5zM995 156h254 q71 0 119 14.5t72 41t33.5 56t9.5 68.5q0 109 -57.5 158t-176.5 49h-254v-387z" />
<glyph unicode="&#x45a;" horiz-adv-x="1812" d="M143 0v1073h172v-440h512v440h170v-375h232q224 0 333 -92.5t109 -263.5q0 -150 -96 -246t-246 -96h-502v477h-512v-477h-172zM997 156h254q71 0 119 14.5t72 41t33.5 56t9.5 68.5q0 109 -57.5 158t-176.5 49h-254v-387z" />
<glyph unicode="&#x45b;" horiz-adv-x="1191" d="M31 1204v144h166v145h170v-145h389v-144h-389v-358q75 98 152.5 138t191.5 40q157 0 247.5 -79t90.5 -214v-731h-170v664q0 111 -70 161q-65 49 -152 49q-132 0 -211 -99t-79 -263v-512h-170v1204h-166z" />
<glyph unicode="&#x45c;" horiz-adv-x="1024" d="M119 0v1073h170v-455l454 455h220l-557 -532l622 -541h-211l-528 442v-442h-170zM326 1155l196 303h232l-305 -303h-123z" />
<glyph unicode="&#x45d;" d="M143 0v1073h172v-846l482 846h200v-1073h-170v846l-481 -846h-203zM356 1458h232l196 -303h-122z" />
<glyph unicode="&#x45e;" horiz-adv-x="1024" d="M41 1073h182l275 -835l297 835h184l-477 -1298q-25 -64 -51 -102.5t-66 -67.5q-70 -51 -160 -51q-63 0 -114 26v154q60 -13 90 -13q54 0 85.5 24t51.5 81l65 170zM201 1432h121q15 -136 188 -136q83 0 131.5 35.5t54.5 100.5h121q-10 -136 -89 -206.5t-222 -70.5 q-177 0 -262 117q-22 31 -32 66t-11 94z" />
<glyph unicode="&#x45f;" d="M143 0v1073h172v-917h512v917h172v-1073h-356v-246h-143v246h-357z" />
<glyph unicode="&#x48c;" horiz-adv-x="1366" d="M-20 1104v143h182v246h190v-246h189v-143h-189v-254h369q265 0 397 -108t158 -316q0 -180 -115 -301q-116 -125 -325 -125h-674v1104h-182zM352 168h465q133 0 199 72q69 72 69 184q0 114 -69 186q-66 72 -199 72h-465v-514z" />
<glyph unicode="&#x48d;" horiz-adv-x="1130" d="M16 782v144h127v147h172v-147h148v-144h-148v-153h242q230 0 336 -78t106 -244q0 -127 -84 -217t-233 -90h-539v782h-127zM315 156h312q94 0 141 53q45 45 45 92q0 37 -1 53t-11.5 40t-32.5 38q-62 41 -141 41h-312v-317z" />
<glyph unicode="&#x48e;" horiz-adv-x="1366" d="M186 0v1493h617q221 0 341 -113.5t120 -324.5q0 -102 -29.5 -176t-93.5 -134l119 -118l-103 -103l-139 142q-73 -33 -172 -33h-469v-633h-191zM377 801h397q48 0 96 10l-110 111l102 102l139 -139q64 67 64 178q0 123 -77 192.5t-214 69.5h-397v-524z" />
<glyph unicode="&#x48f;" d="M111 -446v1519h157v-162q122 193 342 193q213 0 337 -158t124 -428q0 -260 -127 -412l129 -129l-100 -102l-137 137q-95 -59 -224 -59q-104 0 -182.5 38.5t-146.5 121.5v-559h-172zM283 528q0 -189 82 -302t217 -113q67 0 125 28l-132 131l101 103l139 -139 q78 115 78 286q0 192 -85 307t-226 115q-135 0 -217 -113.5t-82 -302.5z" />
<glyph unicode="&#x490;" horiz-adv-x="1251" d="M184 0v1493h811v197h191v-365h-811v-1325h-191z" />
<glyph unicode="&#x491;" horiz-adv-x="880" d="M143 0v1073h432v215h173v-370h-433v-918h-172z" />
<glyph unicode="&#x492;" horiz-adv-x="1251" d="M8 866v144h154v483h1001v-168h-811v-315h217v-144h-217v-866h-190v866h-154z" />
<glyph unicode="&#x493;" horiz-adv-x="880" d="M16 528v144h127v401h635v-155h-463v-246h140v-144h-140v-528h-172v528h-127z" />
<glyph unicode="&#x494;" horiz-adv-x="1251" d="M184 0v1493h1002v-168h-811v-364h352q188 0 283.5 -105t95.5 -289v-530q0 -184 -95.5 -288.5t-283.5 -104.5h-106v168h98q88 0 142 48t54 140v604q0 92 -54 140.5t-142 48.5h-344v-793h-191z" />
<glyph unicode="&#x495;" horiz-adv-x="1003" d="M143 0v1073h605v-155h-433v-379q33 98 99.5 138t183.5 40q150 0 213 -75t63 -218v-424q0 -135 -90.5 -214t-246.5 -79h-54v150q87 0 152 49q70 50 70 162v288q0 116 -36.5 163.5t-123.5 47.5q-125 0 -177.5 -93t-52.5 -269v-205h-172z" />
<glyph unicode="&#x496;" horiz-adv-x="2095" d="M129 0l666 768l-588 725h246l487 -631v631h190v-631l488 631h246l-588 -725l534 -616h132v-428h-164v276h-62l-586 664v-664h-190v664l-586 -664h-225z" />
<glyph unicode="&#x497;" horiz-adv-x="1714" d="M29 0l622 541l-557 532h219l455 -455v455h170v-455l455 455h219l-557 -532l471 -410h151v-377h-143v246h-68l-528 442v-442h-170v442l-528 -442h-211z" />
<glyph unicode="&#x498;" horiz-adv-x="1366" d="M98 475h181q-3 -133 77 -229q105 -125 344 -125q184 0 275 63q48 34 77 90.5t29 116.5q0 95 -97.5 180.5t-235.5 85.5h-222v168h181q65 0 126.5 27.5t103.5 69.5t67.5 91.5t25.5 92.5q0 114 -91.5 183t-242.5 69q-178 0 -274 -78.5t-98 -224.5h-181q1 220 145 341.5 t402 121.5q246 0 388.5 -118t142.5 -321q0 -222 -215 -313q128 -47 197 -139t69 -217q0 -97 -44.5 -189.5t-119.5 -152.5q-128 -95 -340 -113q111 -69 111 -182q0 -117 -129 -166q-76 -27 -142 -27q-52 0 -155 21v92q55 -21 129 -21q72 0 109.5 28.5t37.5 82.5 q0 53 -26 91.5t-93 80.5q-288 24 -424 211q-45 62 -66 134.5t-22 174.5z" />
<glyph unicode="&#x499;" horiz-adv-x="1024" d="M70 319h180q7 -56 17.5 -84.5t31.5 -52.5q68 -71 213 -71q111 0 176.5 46t65.5 122q0 63 -60.5 118.5t-148.5 55.5h-152v155h127q98 0 148.5 54.5t50.5 121.5q0 74 -61.5 118t-165.5 44q-103 0 -158 -43.5t-58 -128.5h-180q2 158 102.5 244t286.5 86q187 0 299.5 -89.5 t112.5 -238.5q0 -82 -31 -135.5t-102 -93.5q91 -40 133.5 -101t42.5 -153q0 -139 -98 -229t-267 -107q111 -75 111 -184q0 -117 -129 -166q-76 -27 -141 -27q-53 0 -156 21v92q56 -21 129 -21q72 0 110 28.5t38 82.5q0 53 -26.5 91.5t-94.5 82.5q-169 15 -254.5 105 t-91.5 257z" />
<glyph unicode="&#x49a;" horiz-adv-x="1366" d="M162 0v1493h190v-627l625 627h227l-706 -707l624 -634h150v-428h-164v276h-90l-666 682v-682h-190z" />
<glyph unicode="&#x49b;" horiz-adv-x="1044" d="M143 0v1073h170v-434l435 434h196l-514 -512l430 -430h131v-377h-143v246h-74l-461 463v-463h-170z" />
<glyph unicode="&#x49c;" horiz-adv-x="1366" d="M162 0v1493h190v-645l99 86v280h143v-157l502 436h245l-747 -643v-168l766 -682h-238l-528 455v-129h-143v254l-99 84v-664h-190z" />
<glyph unicode="&#x49d;" horiz-adv-x="1024" d="M119 0v1073h170v-455l100 101v219h143v-76l211 211h220l-431 -411v-232l496 -430h-211l-285 238v-86h-143v206l-100 84v-442h-170z" />
<glyph unicode="&#x49e;" horiz-adv-x="1366" d="M-12 1133v143h174v217h190v-217h197v-143h-197v-285l744 645h245l-843 -725l850 -768h-226l-770 664v-664h-190v1133h-174z" />
<glyph unicode="&#x49f;" horiz-adv-x="1024" d="M-4 836v143h123v94h170v-94h145v-143h-145v-218l454 455h220l-557 -532l622 -541h-211l-528 442v-442h-170v836h-123z" />
<glyph unicode="&#x4a0;" horiz-adv-x="1843" d="M166 1325v168h663v-645l744 645h246l-844 -725l850 -768h-226l-770 664v-664h-190v1325h-473z" />
<glyph unicode="&#x4a1;" horiz-adv-x="1398" d="M117 918v155h547v-455l454 455h219l-557 -532l623 -541h-211l-528 442v-442h-170v918h-377z" />
<glyph unicode="&#x4a2;" horiz-adv-x="1478" d="M170 0v1493h190v-645h766v645h193v-1341h137v-428h-164v276h-166v680h-764v-680h-192z" />
<glyph unicode="&#x4a3;" d="M143 0v1073h172v-440h512v440h172v-942h123v-377h-143v246h-152v477h-512v-477h-172z" />
<glyph unicode="&#x4a4;" horiz-adv-x="2048" d="M170 0v1493h190v-645h766v645h856v-168h-663v-1325h-193v680h-764v-680h-192z" />
<glyph unicode="&#x4a5;" horiz-adv-x="1564" d="M143 0v1073h172v-440h512v440h605v-155h-433v-918h-172v477h-512v-477h-172z" />
<glyph unicode="&#x4a6;" horiz-adv-x="2172" d="M170 0v1493h1149v-532h352q188 0 283.5 -105t95.5 -289v-530q0 -184 -95.5 -288.5t-283.5 -104.5h-106v168h98q89 0 143 48t54 140v604q0 92 -54.5 140.5t-142.5 48.5h-344v-793h-193v1325h-764v-1325h-192z" />
<glyph unicode="&#x4a7;" horiz-adv-x="1691" d="M143 0v1073h854v-534q33 98 99.5 138t183.5 40q150 0 213 -75t63 -218v-424q0 -135 -90.5 -214t-246.5 -79h-54v150q87 0 152 49q69 49 69 162v288q0 116 -36 163.5t-123 47.5q-125 0 -177.5 -93t-52.5 -269v-205h-172v918h-510v-918h-172z" />
<glyph unicode="&#x4a8;" horiz-adv-x="1478" d="M98 729q0 181 54 336.5t155 265.5q169 187 473 187q246 0 389 -121t187 -367h-195q-17 83 -42 135t-66 90q-46 43 -125.5 69t-169.5 26q-217 0 -343 -166t-126 -453q0 -280 131 -445t354 -165q120 0 211 50t137 142q45 86 68 232h196q-67 -592 -614 -592q-289 0 -457 174 q-106 109 -161.5 263t-55.5 339z" />
<glyph unicode="&#x4a9;" horiz-adv-x="1024" d="M63 518q0 267 130.5 426.5t347.5 159.5q112 0 204 -42t148 -118q61 -88 72 -231h-172q-15 112 -81 172.5t-173 60.5q-139 0 -218 -113.5t-79 -314.5q0 -191 80 -299t221 -108q219 0 262 258h172q-15 -197 -130.5 -306.5t-307.5 -109.5q-218 0 -347 153t-129 412z" />
<glyph unicode="&#x4aa;" horiz-adv-x="1478" d="M98 729q0 181 54 336.5t155 265.5q169 187 473 187q246 0 389 -121t187 -367h-195q-17 83 -42 135t-66 90q-46 43 -125.5 69t-169.5 26q-217 0 -343 -166t-126 -453q0 -280 131 -445t354 -165q120 0 211 50t137 142q45 86 68 232h196q-64 -553 -542 -590 q108 -73 108 -182q0 -117 -129 -166q-76 -27 -141 -27q-53 0 -156 21v92q56 -21 129 -21q72 0 110 28.5t38 82.5q0 53 -26.5 91.5t-94.5 82.5q-224 21 -367 170q-106 109 -161.5 263t-55.5 339z" />
<glyph unicode="&#x4ab;" horiz-adv-x="1024" d="M63 518q0 267 130.5 426.5t347.5 159.5q112 0 204 -42t148 -118q61 -88 72 -231h-172q-15 112 -81 172.5t-173 60.5q-139 0 -218 -113.5t-79 -314.5q0 -191 80 -299t221 -108q219 0 262 258h172q-13 -176 -108 -283t-255 -129q113 -74 113 -184q0 -117 -129 -166 q-76 -27 -141 -27q-53 0 -156 21v92q55 -21 129 -21q72 0 110 28.5t38 82.5q0 55 -27 93.5t-98 82.5q-181 31 -285.5 179t-104.5 380z" />
<glyph unicode="&#x4ac;" horiz-adv-x="1251" d="M43 1325v168h1171v-168h-489v-1173h137v-428h-164v276h-163v1325h-492z" />
<glyph unicode="&#x4ad;" horiz-adv-x="1015" d="M123 918v155h762v-155h-295v-787h123v-377h-144v246h-151v918h-295z" />
<glyph unicode="&#x4ae;" horiz-adv-x="1366" d="M27 1493h235l438 -727l426 727h228l-561 -907v-586h-191v586z" />
<glyph unicode="&#x4af;" horiz-adv-x="1366" d="M109 1073h235l356 -717l344 717h228l-479 -897v-586h-191v586z" />
<glyph unicode="&#x4b0;" horiz-adv-x="1366" d="M27 1493h235l438 -727l426 727h228l-561 -907v-54h450v-143h-450v-389h-191v389h-450v143h450v54z" />
<glyph unicode="&#x4b1;" horiz-adv-x="1366" d="M109 1073h235l356 -717l344 717h228l-479 -897h450v-143h-450v-443h-191v443h-450v143h450z" />
<glyph unicode="&#x4b2;" horiz-adv-x="1366" d="M45 0l528 766l-495 727h231l383 -586l385 586h228l-504 -727l424 -614h104v-428h-164v276h-71l-408 623l-410 -623h-231z" />
<glyph unicode="&#x4b3;" horiz-adv-x="1024" d="M35 0l379 547l-359 526h195l258 -389l258 389h192l-360 -518l283 -424h88v-377h-144v246h-55l-268 412l-273 -412h-194z" />
<glyph unicode="&#x4b4;" horiz-adv-x="1929" d="M43 1325v168h1128v-168h-464v-1157h763v1325h193v-1341h188v-428h-163v276h-1174v1325h-471z" />
<glyph unicode="&#x4b5;" horiz-adv-x="1499" d="M123 918v155h721v-155h-275v-762h510v917h172v-942h166v-377h-143v246h-877v918h-274z" />
<glyph unicode="&#x4b6;" horiz-adv-x="1327" d="M162 926v567h190v-604q0 -92 54.5 -140.5t142.5 -48.5h426v793h190v-1341h138v-428h-164v276h-164v532h-434q-188 0 -283.5 105t-95.5 289z" />
<glyph unicode="&#x4b7;" horiz-adv-x="1064" d="M143 684v389h172v-383q0 -72 37.5 -107.5t102.5 -35.5h295v526h172v-942h125v-377h-144v246h-153v391h-289q-133 0 -225.5 77.5t-92.5 215.5z" />
<glyph unicode="&#x4b8;" horiz-adv-x="1327" d="M162 926v567h190v-604q0 -92 54.5 -140.5t142.5 -48.5h55v281h144v-281h227v793h190v-1493h-190v532h-227v-256h-144v256h-63q-188 0 -283.5 105t-95.5 289z" />
<glyph unicode="&#x4b9;" horiz-adv-x="1064" d="M143 684v389h172v-383q0 -72 37.5 -107.5t102.5 -35.5h16v211h143v-211h136v526h172v-1073h-172v391h-136v-190h-143v190h-10q-133 0 -225.5 77.5t-92.5 215.5z" />
<glyph unicode="&#x4ba;" horiz-adv-x="1327" d="M162 0v1493h190v-532h434q188 0 283.5 -105t95.5 -289v-567h-190v604q0 92 -54.5 140.5t-142.5 48.5h-426v-793h-190z" />
<glyph unicode="&#x4bb;" horiz-adv-x="1064" d="M143 0v1073h172v-391h289q133 0 225.5 -77.5t92.5 -215.5v-389h-172v383q0 72 -37.5 107.5t-102.5 35.5h-295v-526h-172z" />
<glyph unicode="&#x4bc;" horiz-adv-x="1898" d="M96 1200q0 159 79 254.5t208 95.5q67 0 123 -25t88 -69q38 -56 43 -139h-102q-9 67 -48 103t-104 36q-84 0 -131 -68t-47 -188q0 -116 47.5 -181t132.5 -65h152q48 238 196 389q169 175 457 175q611 0 614 -723l2 -9h-2h-196h-899q-2 -16 -2 -47q0 -287 126 -452.5 t343 -165.5q90 0 169 25.5t125 68.5q41 38 66.5 90t42.5 135h195q-44 -246 -187 -366.5t-389 -120.5q-305 0 -473 186q-101 110 -155 265.5t-54 336.5v45q-107 2 -190 38t-132 95t-73.5 130t-24.5 151zM731 954h854q-23 160 -45 203q-46 92 -137 142.5t-211 50.5 q-175 0 -295.5 -105t-165.5 -291z" />
<glyph unicode="&#x4bd;" horiz-adv-x="1466" d="M86 782q0 107 52 170.5t138 63.5q94 0 142 -64q22 -32 28 -92h-69q-6 45 -32.5 69.5t-68.5 24.5q-56 0 -87 -46t-31 -126q0 -77 31.5 -120.5t86.5 -43.5h138q25 224 155 355t332 131q151 0 266 -75.5t168 -207.5q43 -111 43 -342h-790q2 -81 14.5 -132.5t42.5 -96.5 q43 -67 109.5 -103t148.5 -36q209 0 281 215h172q-32 -175 -153.5 -274t-305.5 -99q-217 0 -346 140t-141 386q-84 1 -148.5 29t-101.5 73t-55.5 96t-18.5 105zM592 618h602l2 13q0 132 -85.5 223.5t-211.5 91.5q-129 0 -213 -89.5t-94 -238.5z" />
<glyph unicode="&#x4be;" horiz-adv-x="1898" d="M96 1200q0 159 79 254.5t208 95.5q67 0 123 -25t88 -69q38 -56 43 -139h-102q-9 67 -48 103t-104 36q-84 0 -131 -68t-47 -188q0 -116 47.5 -181t132.5 -65h152q48 238 196 389q169 175 457 175q611 0 614 -723l2 -9h-2h-196h-899q-2 -16 -2 -47q0 -287 126 -452.5 t343 -165.5q90 0 169 25.5t125 68.5q41 38 66.5 90t42.5 135h195q-41 -227 -165.5 -347.5t-336.5 -137.5q108 -73 108 -182q0 -117 -129 -166q-76 -27 -141 -27q-53 0 -156 21v92q56 -21 129 -21q72 0 110 28.5t38 82.5q0 53 -26.5 91.5t-94.5 82.5q-242 24 -385 182 q-101 110 -155 265.5t-54 336.5v45q-107 2 -190 38t-132 95t-73.5 130t-24.5 151zM731 954h854q-23 160 -45 203q-46 92 -137 142.5t-211 50.5q-175 0 -295.5 -105t-165.5 -291z" />
<glyph unicode="&#x4bf;" horiz-adv-x="1466" d="M86 782q0 107 52 170.5t138 63.5q94 0 142 -64q22 -32 28 -92h-69q-6 45 -32.5 69.5t-68.5 24.5q-56 0 -87 -46t-31 -126q0 -77 31.5 -120.5t86.5 -43.5h138q25 224 155 355t332 131q151 0 266 -75.5t168 -207.5q43 -111 43 -342h-790q2 -81 14.5 -132.5t42.5 -96.5 q43 -67 109.5 -103t148.5 -36q209 0 281 215h172q-29 -158 -131.5 -255t-259.5 -114q110 -72 110 -184q0 -117 -129 -166q-76 -27 -141 -27q-53 0 -156 21v92q55 -21 129 -21q72 0 110 28.5t38 82.5t-27.5 93.5t-99.5 84.5q-174 31 -276.5 166.5t-112.5 351.5 q-84 1 -148.5 29t-101.5 73t-55.5 96t-18.5 105zM592 618h602l2 13q0 132 -85.5 223.5t-211.5 91.5q-129 0 -213 -89.5t-94 -238.5z" />
<glyph unicode="&#x4c0;" horiz-adv-x="569" d="M205 0v1493h192v-1493h-192z" />
<glyph unicode="&#x4c1;" horiz-adv-x="2095" d="M129 0l666 768l-588 725h246l487 -631v631h190v-631l488 631h246l-588 -725l666 -768h-226l-586 664v-664h-190v664l-586 -664h-225zM727 1851h121q15 -135 188 -135q83 0 132 35.5t55 99.5h120q-10 -136 -89 -206t-222 -70q-177 0 -262 117q-22 32 -32 66t-11 93z" />
<glyph unicode="&#x4c2;" horiz-adv-x="1714" d="M29 0l622 541l-557 532h219l455 -455v455h170v-455l455 455h219l-557 -532l622 -541h-211l-528 442v-442h-170v442l-528 -442h-211zM545 1432h121q15 -136 188 -136q83 0 131.5 35.5t54.5 100.5h121q-10 -136 -89 -206.5t-222 -70.5q-177 0 -262 117q-22 31 -32 66 t-11 94z" />
<glyph unicode="&#x4c3;" horiz-adv-x="1366" d="M162 0v1493h190v-645l744 645h245l-843 -725h374q188 0 283.5 -104.5t95.5 -288.5v-338q0 -184 -95.5 -288.5t-283.5 -104.5h-106v168h98q89 0 143 48t54 140v412q0 92 -54 140t-143 48h-512v-600h-190z" />
<glyph unicode="&#x4c4;" horiz-adv-x="1024" d="M119 0v1073h170v-455l454 455h220l-557 -532l157 2q157 0 247.5 -79t90.5 -214v-250q0 -135 -90.5 -214t-247.5 -79h-53v150q87 0 152 49q69 49 69 162v114q0 113 -69 162q-65 49 -152 49h-221v-393h-170z" />
<glyph unicode="&#x4c7;" horiz-adv-x="1478" d="M170 0v1493h190v-645h766v645h193v-1456q0 -184 -96 -288.5t-285 -104.5h-107v168h99q88 0 142 48t54 140v680h-764v-680h-192z" />
<glyph unicode="&#x4c8;" d="M143 0v1073h172v-440h512v440h172v-1073q0 -135 -90.5 -214t-246.5 -79h-54v150q87 0 152 49q67 48 67 162v409h-512v-477h-172z" />
<glyph unicode="&#x4cb;" horiz-adv-x="1327" d="M162 926v567h190v-604q0 -92 54.5 -140.5t142.5 -48.5h426v793h190v-1493h-164v-276h-163v428h137v380h-434q-188 0 -283.5 105t-95.5 289z" />
<glyph unicode="&#x4cc;" horiz-adv-x="1064" d="M143 684v389h172v-383q0 -72 37.5 -107.5t102.5 -35.5h295v526h172v-1073h-154v-246h-143v377h125v260h-289q-133 0 -225.5 77.5t-92.5 215.5z" />
<glyph unicode="&#x4d0;" horiz-adv-x="1366" d="M35 0l532 1493h246l524 -1493h-213l-153 449h-576l-157 -449h-203zM379 1851h121q15 -135 188 -135q83 0 131.5 35t54.5 100h121q-10 -136 -89 -206t-222 -70q-177 0 -262 117q-22 32 -32 66t-11 93zM442 608h476l-230 680z" />
<glyph unicode="&#x4d1;" d="M86 270q0 210 188 287q51 21 108.5 32t235.5 34q101 12 140 38t39 80v45q0 77 -62.5 118.5t-177.5 41.5q-120 0 -180.5 -46t-71.5 -144h-172q3 79 20 130.5t54 92.5q54 60 146.5 92.5t209.5 32.5q198 0 301 -75t103 -218v-631q0 -40 24 -62t68 -22q19 0 37 4v-129 q-71 -18 -117 -18q-83 0 -125 38t-51 120q-91 -83 -177.5 -120.5t-187.5 -37.5q-163 0 -257.5 85.5t-94.5 231.5zM242 1432h120q15 -136 189 -136q83 0 131.5 35.5t54.5 100.5h121q-10 -136 -89 -206.5t-222 -70.5q-177 0 -262 117q-22 31 -32 66t-11 94zM264 274 q0 -82 55.5 -127t155.5 -45q146 0 254 97q38 35 53 65.5t15 73.5v192q-42 -20 -89 -30t-186 -29q-137 -20 -197.5 -66t-60.5 -131z" />
<glyph unicode="&#x4d2;" horiz-adv-x="1366" d="M35 0l532 1493h246l524 -1493h-213l-153 449h-576l-157 -449h-203zM414 1575v211h213v-211h-213zM442 608h476l-230 680zM745 1575v211h213v-211h-213z" />
<glyph unicode="&#x4d3;" d="M86 270q0 210 188 287q51 21 108.5 32t235.5 34q101 12 140 38t39 80v45q0 77 -62.5 118.5t-177.5 41.5q-120 0 -180.5 -46t-71.5 -144h-172q3 79 20 130.5t54 92.5q54 60 146.5 92.5t209.5 32.5q198 0 301 -75t103 -218v-631q0 -40 24 -62t68 -22q19 0 37 4v-129 q-71 -18 -117 -18q-83 0 -125 38t-51 120q-91 -83 -177.5 -120.5t-187.5 -37.5q-163 0 -257.5 85.5t-94.5 231.5zM264 274q0 -82 55.5 -127t155.5 -45q146 0 254 97q38 35 53 65.5t15 73.5v192q-42 -20 -89 -30t-186 -29q-137 -20 -197.5 -66t-60.5 -131zM279 1155v211h213 v-211h-213zM610 1155v211h213v-211h-213z" />
<glyph unicode="&#x4d4;" horiz-adv-x="2048" d="M23 0l612 1493h1274v-168h-760v-477h721v-168h-721v-512h797v-168h-988v438h-550l-175 -438h-210zM471 606h487v719h-204z" />
<glyph unicode="&#x4d5;" horiz-adv-x="1820" d="M70 270q0 208 190 287q101 44 342 64q104 9 141 34.5t37 85.5v45q0 78 -61.5 119t-179.5 41q-119 0 -179.5 -46t-70.5 -144h-172q3 80 19.5 131t53.5 92q54 60 146.5 92.5t206.5 32.5q263 0 358 -168q56 78 150 123t204 45q149 0 264.5 -76t168.5 -207q43 -111 43 -342 h-791q2 -81 14.5 -132.5t42.5 -96.5q43 -67 109.5 -103t148.5 -36q208 0 283 215h172q-32 -175 -153.5 -274t-303.5 -99q-118 0 -214 45t-150 125l-33 55q-115 -120 -218.5 -172.5t-223.5 -52.5q-157 0 -250.5 86t-93.5 231zM248 274q0 -80 55 -126t150 -46q123 0 227 78 q46 35 73 74t27 68v206q-42 -19 -89 -28.5t-185 -30.5q-138 -20 -198 -65t-60 -130zM944 618h602q0 146 -82 237t-213 91q-129 0 -213 -89.5t-94 -238.5z" />
<glyph unicode="&#x4d6;" horiz-adv-x="1366" d="M184 0v1493h1035v-168h-844v-477h813v-168h-813v-512h880v-168h-1071zM393 1851h121q15 -135 188 -135q83 0 132 35.5t55 99.5h121q-10 -136 -89.5 -206t-222.5 -70q-177 0 -262 117q-22 32 -32 66t-11 93z" />
<glyph unicode="&#x4d7;" d="M82 522q0 264 133.5 423t357.5 159q151 0 266.5 -75.5t168.5 -207.5q43 -111 43 -342h-791q2 -81 14.5 -132.5t42.5 -96.5q43 -67 109.5 -103t148.5 -36q209 0 281 215h172q-32 -175 -153.5 -274t-305.5 -99q-226 0 -356.5 152.5t-130.5 416.5zM264 618h602l2 13 q0 132 -85.5 223.5t-211.5 91.5q-129 0 -213 -89.5t-94 -238.5zM348 1432h121q15 -136 188 -136q83 0 132 35.5t55 100.5h121q-10 -136 -89.5 -206.5t-222.5 -70.5q-177 0 -262 117q-22 31 -32 66t-11 94z" />
<glyph unicode="&#x4d8;" horiz-adv-x="1478" d="M96 684h2h197h899q2 16 2 47q0 287 -126 453t-343 166q-90 0 -169.5 -26t-125.5 -69q-41 -38 -66 -90t-42 -135h-195q44 246 187 367t389 121q304 0 473 -187q101 -110 154.5 -265t53.5 -337q0 -185 -55.5 -339t-161.5 -263q-168 -174 -456 -174q-612 0 -615 723z M317 516q23 -160 45 -203q46 -92 137.5 -142t211.5 -50q175 0 295 104.5t165 290.5h-854z" />
<glyph unicode="&#x4d9;" d="M82 578h790q-2 81 -14.5 132.5t-42.5 96.5q-43 67 -109.5 103t-148.5 36q-209 0 -281 -215h-172q32 175 153.5 274t305.5 99q226 0 357 -152.5t131 -416.5t-134 -423t-358 -159q-151 0 -266 75.5t-168 207.5q-43 111 -43 342zM264 426q0 -132 85.5 -223.5t211.5 -91.5 q129 0 213 89t94 238h-602z" />
<glyph unicode="&#x4da;" horiz-adv-x="1478" d="M96 684h2h197h899q2 16 2 47q0 287 -126 453t-343 166q-90 0 -169.5 -26t-125.5 -69q-41 -38 -66 -90t-42 -135h-195q44 246 187 367t389 121q304 0 473 -187q101 -110 154.5 -265t53.5 -337q0 -185 -55.5 -339t-161.5 -263q-168 -174 -456 -174q-612 0 -615 723z M317 516q23 -160 45 -203q46 -92 137.5 -142t211.5 -50q175 0 295 104.5t165 290.5h-854zM432 1640v211h213v-211h-213zM764 1640v211h213v-211h-213z" />
<glyph unicode="&#x4db;" d="M82 578h790q-2 81 -14.5 132.5t-42.5 96.5q-43 67 -109.5 103t-148.5 36q-209 0 -281 -215h-172q32 175 153.5 274t305.5 99q226 0 357 -152.5t131 -416.5t-134 -423t-358 -159q-151 0 -266 75.5t-168 207.5q-43 111 -43 342zM264 426q0 -132 85.5 -223.5t211.5 -91.5 q129 0 213 89t94 238h-602zM291 1227v211h213v-211h-213zM623 1227v211h213v-211h-213z" />
<glyph unicode="&#x4dc;" horiz-adv-x="2095" d="M129 0l666 768l-588 725h246l487 -631v631h190v-631l488 631h246l-588 -725l666 -768h-226l-586 664v-664h-190v664l-586 -664h-225zM764 1575v211h213v-211h-213zM1096 1575v211h213v-211h-213z" />
<glyph unicode="&#x4dd;" horiz-adv-x="1714" d="M29 0l622 541l-557 532h219l455 -455v455h170v-455l455 455h219l-557 -532l622 -541h-211l-528 442v-442h-170v442l-528 -442h-211zM580 1155v211h213v-211h-213zM911 1155v211h213v-211h-213z" />
<glyph unicode="&#x4de;" horiz-adv-x="1366" d="M98 475h181q-3 -133 77 -229q105 -125 344 -125q184 0 275 63q48 34 77 90.5t29 116.5q0 95 -97.5 180.5t-235.5 85.5h-222v168h181q65 0 126.5 27.5t103.5 69.5t67.5 91.5t25.5 92.5q0 114 -91.5 183t-242.5 69q-178 0 -274 -78.5t-98 -224.5h-181q1 220 145 341.5 t402 121.5q246 0 388.5 -118t142.5 -321q0 -222 -215 -313q128 -47 197 -139t69 -217q0 -97 -44.5 -189.5t-119.5 -152.5q-149 -115 -420 -115q-346 0 -502 213q-45 62 -66 134.5t-22 174.5zM403 1575v211h213v-211h-213zM735 1575v211h213v-211h-213z" />
<glyph unicode="&#x4df;" horiz-adv-x="1024" d="M70 319h180q7 -56 17.5 -84.5t31.5 -52.5q68 -71 213 -71q111 0 176.5 46t65.5 122q0 63 -60.5 118.5t-148.5 55.5h-152v155h127q98 0 148.5 54.5t50.5 121.5q0 74 -61.5 118t-165.5 44q-103 0 -158 -43.5t-58 -128.5h-180q2 158 102.5 244t286.5 86q187 0 299.5 -89.5 t112.5 -238.5q0 -82 -31 -135.5t-102 -93.5q91 -40 133.5 -101t42.5 -153q0 -155 -120 -247.5t-322 -92.5q-211 0 -316.5 90t-111.5 276zM225 1155v211h213v-211h-213zM557 1155v211h213v-211h-213z" />
<glyph unicode="&#x4e0;" horiz-adv-x="1366" d="M98 475h181q-3 -133 77 -229q105 -125 344 -125q184 0 275 63q48 34 77 90.5t29 116.5q0 95 -97.5 180.5t-235.5 85.5h-222v168h181q65 0 126.5 27.5t103.5 69.5t67.5 91.5t25.5 92.5q0 114 -91.5 183t-242.5 69q-178 0 -274 -78.5t-98 -224.5h-181q1 220 145 341.5 t402 121.5q246 0 388.5 -118t142.5 -321q0 -222 -215 -313q128 -47 197 -139t69 -217q0 -97 -44.5 -189.5t-119.5 -152.5q-149 -115 -420 -115q-346 0 -502 213q-45 62 -66 134.5t-22 174.5z" />
<glyph unicode="&#x4e1;" horiz-adv-x="1024" d="M70 319h180q7 -56 17.5 -84.5t31.5 -52.5q68 -71 213 -71q111 0 176.5 46t65.5 122q0 63 -60.5 118.5t-148.5 55.5h-152v155h127q98 0 148.5 54.5t50.5 121.5q0 74 -61.5 118t-165.5 44q-103 0 -158 -43.5t-58 -128.5h-180q2 158 102.5 244t286.5 86q187 0 299.5 -89.5 t112.5 -238.5q0 -82 -31 -135.5t-102 -93.5q91 -40 133.5 -101t42.5 -153q0 -155 -120 -247.5t-322 -92.5q-211 0 -316.5 90t-111.5 276z" />
<glyph unicode="&#x4e2;" horiz-adv-x="1478" d="M156 0v1493h180v-1221l780 1221h207v-1493h-180v1210l-772 -1210h-215zM459 1575v143h561v-143h-561z" />
<glyph unicode="&#x4e3;" d="M143 0v1073h172v-846l482 846h200v-1073h-170v846l-481 -846h-203zM291 1155v143h561v-143h-561z" />
<glyph unicode="&#x4e4;" horiz-adv-x="1478" d="M156 0v1493h180v-1221l780 1221h207v-1493h-180v1210l-772 -1210h-215zM467 1575v211h213v-211h-213zM799 1575v211h213v-211h-213z" />
<glyph unicode="&#x4e5;" d="M143 0v1073h172v-846l482 846h200v-1073h-170v846l-481 -846h-203zM299 1155v211h213v-211h-213zM631 1155v211h213v-211h-213z" />
<glyph unicode="&#x4e6;" horiz-adv-x="1593" d="M78 735q0 231 90 409t253.5 276t375.5 98q328 0 525.5 -217t197.5 -578q0 -184 -68.5 -347t-189.5 -265q-187 -158 -463 -158q-159 0 -293.5 57t-228.5 158.5t-146.5 247.5t-52.5 319zM268 735q0 -276 146.5 -445t384.5 -169q236 0 383 168t147 438q0 283 -144.5 453 t-387.5 170q-237 0 -383 -169.5t-146 -445.5zM526 1575v211h213v-211h-213zM858 1575v211h213v-211h-213z" />
<glyph unicode="&#x4e7;" d="M74 528q0 270 128.5 423t354.5 153q232 0 359.5 -153t127.5 -431q0 -264 -129.5 -415.5t-355.5 -151.5q-229 0 -357 152.5t-128 422.5zM252 528q0 -195 82 -306t225 -111q141 0 224 111t83 300q0 200 -81 312t-226 112q-142 0 -224.5 -112t-82.5 -306zM287 1155v211h213 v-211h-213zM618 1155v211h213v-211h-213z" />
<glyph unicode="&#x4e8;" horiz-adv-x="1593" d="M78 735q0 231 90 409t253.5 276t375.5 98q328 0 525.5 -217t197.5 -578q0 -184 -68.5 -347t-189.5 -265q-187 -158 -463 -158q-159 0 -293.5 57t-228.5 158.5t-146.5 247.5t-52.5 319zM270 788h1057q-15 257 -158.5 409.5t-371.5 152.5q-224 0 -368.5 -154t-158.5 -408z M272 645q25 -239 167.5 -381.5t359.5 -142.5t360 143.5t166 380.5h-1053z" />
<glyph unicode="&#x4e9;" d="M74 528q0 270 128.5 423t354.5 153q232 0 359.5 -153t127.5 -431q0 -264 -129.5 -415.5t-355.5 -151.5q-229 0 -357 152.5t-128 422.5zM254 594h610q-15 167 -95 259.5t-210 92.5t-210.5 -93.5t-94.5 -258.5zM256 451q15 -160 95.5 -250t207.5 -90t207.5 90.5t95.5 249.5 h-606z" />
<glyph unicode="&#x4ea;" horiz-adv-x="1593" d="M78 735q0 231 90 409t253.5 276t375.5 98q328 0 525.5 -217t197.5 -578q0 -184 -68.5 -347t-189.5 -265q-187 -158 -463 -158q-159 0 -293.5 57t-228.5 158.5t-146.5 247.5t-52.5 319zM270 788h1057q-15 257 -158.5 409.5t-371.5 152.5q-224 0 -368.5 -154t-158.5 -408z M272 645q25 -239 167.5 -381.5t359.5 -142.5t360 143.5t166 380.5h-1053zM526 1575v211h213v-211h-213zM858 1575v211h213v-211h-213z" />
<glyph unicode="&#x4eb;" d="M74 528q0 270 128.5 423t354.5 153q232 0 359.5 -153t127.5 -431q0 -264 -129.5 -415.5t-355.5 -151.5q-229 0 -357 152.5t-128 422.5zM254 594h610q-15 167 -95 259.5t-210 92.5t-210.5 -93.5t-94.5 -258.5zM256 451q15 -160 95.5 -250t207.5 -90t207.5 90.5t95.5 249.5 h-606zM287 1155v211h213v-211h-213zM618 1155v211h213v-211h-213z" />
<glyph unicode="&#x4ec;" horiz-adv-x="1478" d="M98 545h197q23 -149 67 -232q46 -92 137.5 -142t211.5 -50q212 0 341.5 150t143.5 409h-752v168h746q-25 235 -147.5 368.5t-315.5 133.5q-90 0 -169.5 -26t-125.5 -69q-41 -38 -66 -90t-42 -135h-195q44 246 187 367t389 121q304 0 473 -187q101 -110 154.5 -265 t53.5 -337q0 -185 -55.5 -339t-161.5 -263q-168 -174 -456 -174q-548 0 -615 592zM582 1575v211h213v-211h-213zM913 1575v211h213v-211h-213z" />
<glyph unicode="&#x4ed;" horiz-adv-x="1024" d="M63 369h173q44 -258 262 -258q133 0 212.5 96t88.5 268h-465v158h459q-22 150 -97.5 231.5t-193.5 81.5q-107 0 -173 -60.5t-81 -172.5h-172q11 145 71 231q56 75 148.5 117.5t204.5 42.5q217 0 347 -159.5t130 -426.5q0 -260 -128.5 -412.5t-346.5 -152.5 q-192 0 -308 110t-131 306zM162 1155v211h213v-211h-213zM494 1155v211h213v-211h-213z" />
<glyph unicode="&#x4ee;" horiz-adv-x="1331" d="M53 1493h232l379 -776l376 776h228l-752 -1493h-231l264 500zM381 1575v143h561v-143h-561z" />
<glyph unicode="&#x4ef;" horiz-adv-x="1024" d="M41 1073h182l275 -835l297 835h184l-477 -1298q-25 -64 -51 -102.5t-66 -67.5q-70 -51 -160 -51q-63 0 -114 26v154q60 -13 90 -13q54 0 85.5 24t51.5 81l65 170zM229 1155v143h562v-143h-562z" />
<glyph unicode="&#x4f0;" horiz-adv-x="1331" d="M53 1493h232l379 -776l376 776h228l-752 -1493h-231l264 500zM389 1575v211h213v-211h-213zM721 1575v211h213v-211h-213z" />
<glyph unicode="&#x4f1;" horiz-adv-x="1024" d="M41 1073h182l275 -835l297 835h184l-477 -1298q-25 -64 -51 -102.5t-66 -67.5q-70 -51 -160 -51q-63 0 -114 26v154q60 -13 90 -13q54 0 85.5 24t51.5 81l65 170zM238 1155v211h213v-211h-213zM569 1155v211h213v-211h-213z" />
<glyph unicode="&#x4f2;" horiz-adv-x="1331" d="M53 1493h232l379 -776l376 776h228l-752 -1493h-231l264 500zM268 1575l197 307h231l-305 -307h-123zM625 1575l196 307h232l-305 -307h-123z" />
<glyph unicode="&#x4f3;" horiz-adv-x="1024" d="M41 1073h182l275 -835l297 835h184l-477 -1298q-25 -64 -51 -102.5t-66 -67.5q-70 -51 -160 -51q-63 0 -114 26v154q60 -13 90 -13q54 0 85.5 24t51.5 81l65 170zM119 1155l196 307h232l-305 -307h-123zM475 1155l197 307h231l-305 -307h-123z" />
<glyph unicode="&#x4f4;" horiz-adv-x="1327" d="M162 926v567h190v-604q0 -92 54.5 -140.5t142.5 -48.5h426v793h190v-1493h-190v532h-434q-188 0 -283.5 105t-95.5 289zM391 1640v211h213v-211h-213zM723 1640v211h213v-211h-213z" />
<glyph unicode="&#x4f5;" horiz-adv-x="1064" d="M143 684v389h172v-383q0 -72 37.5 -107.5t102.5 -35.5h295v526h172v-1073h-172v391h-289q-133 0 -225.5 77.5t-92.5 215.5zM260 1227v211h213v-211h-213zM592 1227v211h213v-211h-213z" />
<glyph unicode="&#x4f8;" horiz-adv-x="1814" d="M162 0v1493h190v-643h369q265 0 397 -108t158 -316q0 -180 -115 -301q-116 -125 -325 -125h-674zM352 168h465q133 0 199 72q69 72 69 184q0 114 -69 186q-66 72 -199 72h-465v-514zM631 1575v211h213v-211h-213zM963 1575v211h213v-211h-213zM1454 0v1493h193v-1493 h-193z" />
<glyph unicode="&#x4f9;" horiz-adv-x="1531" d="M143 0v1073h172v-444h242q228 0 335 -79.5t107 -242.5q0 -127 -84 -217t-233 -90h-539zM315 156h312q94 0 141 53q25 25 35 45t10 47q0 37 -1 53t-11.5 40t-32.5 38q-62 41 -141 41h-312v-317zM475 1155v211h213v-211h-213zM807 1155v211h213v-211h-213zM1184 0v1073h170 v-1073h-170z" />
<glyph unicode="&#xe3f;" horiz-adv-x="1366" d="M162 0v1493h461v170h110v-170h35q207 0 324.5 -106t117.5 -273q0 -230 -206 -326q143 -56 207.5 -141.5t64.5 -220.5q0 -187 -120.5 -306.5t-319.5 -119.5h-103v-170h-110v170h-461zM352 168h271v514h-271v-514zM352 850h271v475h-271v-475zM733 168h84q130 0 199 71.5 t69 184.5q0 114 -69 186t-199 72h-84v-514zM733 850q149 3 218 62.5t69 174.5t-69 175t-218 63v-475z" />
<glyph unicode="&#x1e0c;" horiz-adv-x="1478" d="M182 0v1493h576q284 0 446 -198.5t162 -546.5q0 -349 -162.5 -548.5t-445.5 -199.5h-576zM373 168h352q221 0 336 147t115 430q0 285 -115 432.5t-336 147.5h-352v-1157zM618 -162h213v-213h-213v213z" />
<glyph unicode="&#x1e0d;" d="M53 547q0 256 125.5 406.5t335.5 150.5q220 0 330 -166v555h170v-1493h-152v158q-69 -99 -150 -144t-192 -45q-217 0 -342 153.5t-125 424.5zM231 537q0 -186 86 -297t228 -111q136 0 217.5 109t81.5 294q0 187 -82 299.5t-219 112.5q-141 0 -226.5 -110.5t-85.5 -296.5z M463 -162h213v-213h-213v213z" />
<glyph unicode="&#x1e0e;" horiz-adv-x="1478" d="M182 0v1493h576q284 0 446 -198.5t162 -546.5q0 -349 -162.5 -548.5t-445.5 -199.5h-576zM373 168h352q221 0 336 147t115 430q0 285 -115 432.5t-336 147.5h-352v-1157zM442 -197h562v-143h-562v143z" />
<glyph unicode="&#x1e0f;" d="M53 547q0 256 125.5 406.5t335.5 150.5q220 0 330 -166v555h170v-1493h-152v158q-69 -99 -150 -144t-192 -45q-217 0 -342 153.5t-125 424.5zM231 537q0 -186 86 -297t228 -111q136 0 217.5 109t81.5 294q0 187 -82 299.5t-219 112.5q-141 0 -226.5 -110.5t-85.5 -296.5z M287 -197h561v-143h-561v143z" />
<glyph unicode="&#x1e24;" horiz-adv-x="1478" d="M170 0v1493h190v-645h768v645h191v-1493h-191v680h-768v-680h-190zM633 -162h213v-213h-213v213z" />
<glyph unicode="&#x1e25;" d="M143 0v1493h170v-567q75 98 152.5 138t191.5 40q157 0 247.5 -79t90.5 -214v-811h-170v743q0 101 -62.5 156t-158.5 55q-132 0 -211.5 -99t-79.5 -263v-592h-170zM463 -162h213v-213h-213v213z" />
<glyph unicode="&#x1e26;" horiz-adv-x="1478" d="M170 0v1493h190v-645h768v645h191v-1493h-191v680h-768v-680h-190zM481 1636v209h187v-209h-187zM813 1636v209h186v-209h-186z" />
<glyph unicode="&#x1e27;" d="M143 0v1493h170v-567q75 98 152.5 138t191.5 40q157 0 247.5 -79t90.5 -214v-811h-170v743q0 101 -62.5 156t-158.5 55q-132 0 -211.5 -99t-79.5 -263v-592h-170zM311 1636v209h187v-209h-187zM643 1636v209h186v-209h-186z" />
<glyph unicode="&#x1e2a;" horiz-adv-x="1478" d="M170 0v1493h190v-645h768v645h191v-1493h-191v680h-768v-680h-190zM369 -143h145q9 -59 62 -81t163 -22q106 0 162 23.5t62 79.5h145q-12 -123 -107 -186.5t-266 -63.5q-165 0 -264 61.5t-102 188.5z" />
<glyph unicode="&#x1e2b;" d="M143 0v1493h170v-567q75 98 152.5 138t191.5 40q157 0 247.5 -79t90.5 -214v-811h-170v743q0 101 -62.5 156t-158.5 55q-132 0 -211.5 -99t-79.5 -263v-592h-170zM199 -143h145q9 -59 62 -81t163 -22q106 0 162 23.5t62 79.5h145q-12 -123 -107 -186.5t-266 -63.5 q-165 0 -264 61.5t-102 188.5z" />
<glyph unicode="&#x1e36;" d="M164 0v1493h190v-1325h738v-168h-928zM522 -162h213v-213h-213v213z" />
<glyph unicode="&#x1e37;" horiz-adv-x="454" d="M121 -162h213v-213h-213v213zM139 0v1493h170v-1493h-170z" />
<glyph unicode="&#x1e38;" d="M-25 1669v143h562v-143h-562zM164 0v1493h190v-1325h738v-168h-928zM522 -162h213v-213h-213v213z" />
<glyph unicode="&#x1e39;" horiz-adv-x="454" d="M-59 1669v143h561v-143h-561zM121 -162h213v-213h-213v213zM139 0v1493h170v-1493h-170z" />
<glyph unicode="&#x1e42;" horiz-adv-x="1705" d="M154 0v1493h264l442 -1300l434 1300h265v-1493h-181v1251l-420 -1251h-200l-424 1251v-1251h-180zM748 -162h213v-213h-213v213z" />
<glyph unicode="&#x1e43;" horiz-adv-x="1705" d="M145 0v1073h156v-151q69 97 146 139.5t184 42.5q104 0 173 -39t116 -125q75 91 148.5 127.5t180.5 36.5q150 0 228.5 -77t78.5 -222v-805h-170v739q0 102 -51.5 158.5t-144.5 56.5q-105 0 -179.5 -81.5t-74.5 -198.5v-674h-170v739q0 103 -52 159t-147 56 q-104 0 -178 -81.5t-74 -198.5v-674h-170zM748 -162h213v-213h-213v213z" />
<glyph unicode="&#x1e44;" horiz-adv-x="1478" d="M156 0v1493h206l781 -1221v1221h180v-1493h-215l-772 1210v-1210h-180zM635 1634v213h213v-213h-213z" />
<glyph unicode="&#x1e45;" d="M143 0v1073h158v-180q71 113 153.5 162t202.5 49q155 0 247.5 -79.5t92.5 -213.5v-811h-170v743q0 97 -60 154t-161 57q-131 0 -212 -99t-81 -263v-592h-170zM463 1235v213h213v-213h-213z" />
<glyph unicode="&#x1e46;" horiz-adv-x="1478" d="M156 0v1493h206l781 -1221v1221h180v-1493h-215l-772 1210v-1210h-180zM633 -162h213v-213h-213v213z" />
<glyph unicode="&#x1e47;" d="M143 0v1073h158v-180q71 113 153.5 162t202.5 49q155 0 247.5 -79.5t92.5 -213.5v-811h-170v743q0 97 -60 154t-161 57q-131 0 -212 -99t-81 -263v-592h-170zM463 -162h213v-213h-213v213z" />
<glyph unicode="&#x1e58;" horiz-adv-x="1478" d="M190 0v1493h689q220 0 337 -103t117 -296q0 -128 -55 -212t-180 -145q121 -52 160 -128t42 -261q1 -149 19 -206.5t72 -94.5v-47h-232q-46 104 -43 244l2 133q1 137 -59 201.5t-187 64.5h-491v-643h-191zM381 811h461q152 0 222.5 62t70.5 194q0 130 -68.5 194t-224.5 64 h-461v-514zM635 1634v213h213v-213h-213z" />
<glyph unicode="&#x1e59;" horiz-adv-x="681" d="M143 0v1073h156v-194q74 120 142 172.5t151 52.5q22 0 65 -6v-174q-192 -3 -268 -90.5t-76 -276.5v-557h-170zM207 1235v213h213v-213h-213z" />
<glyph unicode="&#x1e5a;" horiz-adv-x="1478" d="M190 0v1493h689q220 0 337 -103t117 -296q0 -128 -55 -212t-180 -145q121 -52 160 -128t42 -261q1 -149 19 -206.5t72 -94.5v-47h-232q-46 104 -43 244l2 133q1 137 -59 201.5t-187 64.5h-491v-643h-191zM381 811h461q152 0 222.5 62t70.5 194q0 130 -68.5 194t-224.5 64 h-461v-514zM633 -162h213v-213h-213v213z" />
<glyph unicode="&#x1e5b;" horiz-adv-x="681" d="M123 -162h213v-213h-213v213zM143 0v1073h156v-194q74 120 142 172.5t151 52.5q22 0 65 -6v-174q-192 -3 -268 -90.5t-76 -276.5v-557h-170z" />
<glyph unicode="&#x1e5c;" horiz-adv-x="1478" d="M190 0v1493h689q220 0 337 -103t117 -296q0 -128 -55 -212t-180 -145q121 -52 160 -128t42 -261q1 -149 19 -206.5t72 -94.5v-47h-232q-46 104 -43 244l2 133q1 137 -59 201.5t-187 64.5h-491v-643h-191zM381 811h461q152 0 222.5 62t70.5 194q0 130 -68.5 194t-224.5 64 h-461v-514zM457 1669v143h561v-143h-561zM633 -162h213v-213h-213v213z" />
<glyph unicode="&#x1e5d;" horiz-adv-x="681" d="M29 1300v144h561v-144h-561zM123 -162h213v-213h-213v213zM143 0v1073h156v-194q74 120 142 172.5t151 52.5q22 0 65 -6v-174q-192 -3 -268 -90.5t-76 -276.5v-557h-170z" />
<glyph unicode="&#x1e62;" horiz-adv-x="1366" d="M98 485h181q0 -164 107 -259t314 -95q190 0 285.5 67.5t95.5 192.5q0 88 -66.5 146.5t-207.5 95.5l-371 98q-293 76 -293 348q0 204 143.5 327.5t387.5 123.5q258 0 402.5 -122t144.5 -341h-181q0 146 -96.5 224.5t-275.5 78.5q-149 0 -241.5 -74.5t-92.5 -189.5 q0 -86 55.5 -136t190.5 -85l374 -101q152 -41 235 -138.5t83 -235.5q0 -204 -152.5 -325.5t-431.5 -121.5q-179 0 -309.5 56t-205.5 175t-75 291zM578 -162h213v-213h-213v213z" />
<glyph unicode="&#x1e63;" horiz-adv-x="1024" d="M70 328h180q16 -117 77.5 -159t184.5 -42q114 0 182 43t68 117q0 57 -37.5 88t-128.5 53l-160 39q-190 46 -265 114.5t-75 194.5q0 149 112.5 238.5t299.5 89.5q186 0 286.5 -86t102.5 -244h-180q-3 85 -57.5 128.5t-157.5 43.5q-104 0 -166 -44t-62 -118q0 -57 47 -92.5 t152 -60.5l164 -39q162 -39 232.5 -105.5t70.5 -185.5q0 -154 -119 -243t-323 -89q-212 0 -317 87t-111 272zM406 -162h212v-213h-212v213z" />
<glyph unicode="&#x1e6c;" horiz-adv-x="1251" d="M43 1325v168h1171v-168h-489v-1325h-190v1325h-492zM524 -162h213v-213h-213v213z" />
<glyph unicode="&#x1e6d;" horiz-adv-x="569" d="M29 934v139h145v295h170v-295h176v-139h-176v-703q0 -57 19 -76.5t75 -19.5q51 0 82 8v-143q-80 -14 -139 -14q-100 0 -153.5 44t-53.5 126v778h-145zM178 -162h213v-213h-213v213z" />
<glyph unicode="&#x1e6e;" horiz-adv-x="1251" d="M43 1325v168h1171v-168h-489v-1325h-190v1325h-492zM348 -197h561v-143h-561v143z" />
<glyph unicode="&#x1e6f;" horiz-adv-x="569" d="M2 -197h561v-143h-561v143zM29 934v139h145v295h170v-295h176v-139h-176v-703q0 -57 19 -76.5t75 -19.5q51 0 82 8v-143q-80 -14 -139 -14q-100 0 -153.5 44t-53.5 126v778h-145z" />
<glyph unicode="&#x1e80;" horiz-adv-x="1933" d="M45 1493h213l281 -1212l331 1212h205l340 -1212l275 1212h213l-379 -1493h-209l-344 1227l-334 -1227h-209zM526 1876h279l235 -272h-147z" />
<glyph unicode="&#x1e81;" horiz-adv-x="1478" d="M12 1073h189l219 -835l205 835h209l210 -835l213 835h193l-315 -1073h-195l-217 842l-207 -842h-192zM373 1493h231l197 -303h-123z" />
<glyph unicode="&#x1e82;" horiz-adv-x="1933" d="M45 1493h213l281 -1212l331 1212h205l340 -1212l275 1212h213l-379 -1493h-209l-344 1227l-334 -1227h-209zM893 1604l235 272h279l-367 -272h-147z" />
<glyph unicode="&#x1e83;" horiz-adv-x="1478" d="M12 1073h189l219 -835l205 835h209l210 -835l213 835h193l-315 -1073h-195l-217 842l-207 -842h-192zM678 1190l196 303h232l-305 -303h-123z" />
<glyph unicode="&#x1e84;" horiz-adv-x="1933" d="M45 1493h213l281 -1212l331 1212h205l340 -1212l275 1212h213l-379 -1493h-209l-344 1227l-334 -1227h-209zM709 1636v209h186v-209h-186zM1040 1636v209h187v-209h-187z" />
<glyph unicode="&#x1e85;" horiz-adv-x="1478" d="M12 1073h189l219 -835l205 835h209l210 -835l213 835h193l-315 -1073h-195l-217 842l-207 -842h-192zM479 1237v209h187v-209h-187zM811 1237v209h186v-209h-186z" />
<glyph unicode="&#x1e92;" horiz-adv-x="1251" d="M57 0v168l897 1157h-839v168h1075v-172l-893 -1153h897v-168h-1137zM547 -162h213v-213h-213v213z" />
<glyph unicode="&#x1e93;" horiz-adv-x="1024" d="M63 0v154l642 770h-599v149h801v-151l-637 -772h666v-150h-873zM406 -162h212v-213h-212v213z" />
<glyph unicode="&#x1e97;" horiz-adv-x="569" d="M0 1511v209h186v-209h-186zM29 934v139h145v295h170v-295h176v-139h-176v-703q0 -57 19 -76.5t75 -19.5q51 0 82 8v-143q-80 -14 -139 -14q-100 0 -153.5 44t-53.5 126v778h-145zM332 1511v209h186v-209h-186z" />
<glyph unicode="&#x1ea0;" horiz-adv-x="1366" d="M35 0l532 1493h246l524 -1493h-213l-153 449h-576l-157 -449h-203zM442 608h476l-230 680zM578 -162h213v-213h-213v213z" />
<glyph unicode="&#x1ea1;" d="M86 279q0 201 188 278q51 21 108.5 32t235.5 34q101 12 140 38t39 80v45q0 77 -62.5 118.5t-177.5 41.5q-120 0 -180.5 -46t-71.5 -144h-172q14 348 430 348q198 0 301 -75t103 -218v-598q0 -40 24 -62t68 -22q19 0 37 4v-129q-71 -18 -117 -18q-63 0 -113 40t-63 101 q-70 -75 -166 -116.5t-199 -41.5q-164 0 -258 82t-94 228zM264 283q0 -164 211 -164q130 0 226 70.5t96 181.5v159q-42 -20 -89 -30t-186 -29q-139 -21 -198.5 -63t-59.5 -125zM457 -162h213v-213h-213v213z" />
<glyph unicode="&#x1ea2;" horiz-adv-x="1366" d="M35 0l532 1493h246l524 -1493h-213l-153 449h-576l-157 -449h-203zM442 608h476l-230 680zM459 1806q0 116 60 176t177 60q104 0 165 -48t61 -128q0 -49 -22 -83t-81 -77q-47 -36 -59 -49.5t-12 -30.5v-61h-127v67q0 48 23 78.5t85 71.5v-2q66 51 66 86q0 28 -29 45.5 t-76 17.5q-71 0 -92 -35v2q-14 -22 -14 -90h-125z" />
<glyph unicode="&#x1ea3;" d="M86 279q0 201 188 278q51 21 108.5 32t235.5 34q101 12 140 38t39 80v45q0 77 -62.5 118.5t-177.5 41.5q-120 0 -180.5 -46t-71.5 -144h-172q14 348 430 348q198 0 301 -75t103 -218v-598q0 -40 24 -62t68 -22q19 0 37 4v-129q-71 -18 -117 -18q-63 0 -113 40t-63 101 q-70 -75 -166 -116.5t-199 -41.5q-164 0 -258 82t-94 228zM264 283q0 -164 211 -164q130 0 226 70.5t96 181.5v159q-42 -20 -89 -30t-186 -29q-139 -21 -198.5 -63t-59.5 -125zM332 1386q0 116 60 176t177 60q104 0 165 -48t61 -128q0 -49 -22 -83t-81 -77 q-47 -36 -59 -49.5t-12 -30.5v-61h-127v67q0 48 23 78.5t85 71.5v-2q66 51 66 86q0 28 -29 45.5t-76 17.5q-71 0 -92 -34v2q-14 -22 -14 -91h-125z" />
<glyph unicode="&#x1ea4;" horiz-adv-x="1366" d="M35 0l532 1493h246l524 -1493h-213l-153 449h-576l-157 -449h-203zM340 1604l235 276h234l235 -276h-153l-199 176l-194 -176h-158zM442 608h476l-230 680zM616 1921l236 272h278l-366 -272h-148z" />
<glyph unicode="&#x1ea5;" d="M86 279q0 201 188 278q51 21 108.5 32t235.5 34q101 12 140 38t39 80v45q0 77 -62.5 118.5t-177.5 41.5q-120 0 -180.5 -46t-71.5 -144h-172q14 348 430 348q198 0 301 -75t103 -218v-598q0 -40 24 -62t68 -22q19 0 37 4v-129q-71 -18 -117 -18q-63 0 -113 40t-63 101 q-70 -75 -166 -116.5t-199 -41.5q-164 0 -258 82t-94 228zM213 1184l236 276h233l236 -276h-154l-199 176l-194 -176h-158zM264 283q0 -164 211 -164q130 0 226 70.5t96 181.5v159q-42 -20 -89 -30t-186 -29q-139 -21 -198.5 -63t-59.5 -125zM489 1501l236 273h279 l-367 -273h-148z" />
<glyph unicode="&#x1ea6;" horiz-adv-x="1366" d="M35 0l532 1493h246l524 -1493h-213l-153 449h-576l-157 -449h-203zM250 2193h278l236 -272h-148zM340 1604l235 276h234l235 -276h-153l-199 176l-194 -176h-158zM442 608h476l-230 680z" />
<glyph unicode="&#x1ea7;" d="M86 279q0 201 188 278q51 21 108.5 32t235.5 34q101 12 140 38t39 80v45q0 77 -62.5 118.5t-177.5 41.5q-120 0 -180.5 -46t-71.5 -144h-172q14 348 430 348q198 0 301 -75t103 -218v-598q0 -40 24 -62t68 -22q19 0 37 4v-129q-71 -18 -117 -18q-63 0 -113 40t-63 101 q-70 -75 -166 -116.5t-199 -41.5q-164 0 -258 82t-94 228zM123 1774h278l236 -273h-148zM213 1184l236 276h233l236 -276h-154l-199 176l-194 -176h-158zM264 283q0 -164 211 -164q130 0 226 70.5t96 181.5v159q-42 -20 -89 -30t-186 -29q-139 -21 -198.5 -63t-59.5 -125z " />
<glyph unicode="&#x1ea8;" horiz-adv-x="1366" d="M35 0l532 1493h246l524 -1493h-213l-153 449h-576l-157 -449h-203zM340 1604l235 276h234l235 -276h-153l-199 176l-194 -176h-158zM442 608h476l-230 680zM582 2140q0 103 60 157t177 54q103 0 164 -43.5t61 -114.5q0 -44 -21.5 -74.5t-80.5 -70.5q-46 -31 -59 -44 t-13 -28v-55h-127v61q0 43 23 70.5t86 65.5v-2q66 45 66 77q0 25 -29 41.5t-76 16.5q-69 0 -92 -33v2q-14 -20 -14 -80h-125z" />
<glyph unicode="&#x1ea9;" d="M86 279q0 201 188 278q51 21 108.5 32t235.5 34q101 12 140 38t39 80v45q0 77 -62.5 118.5t-177.5 41.5q-120 0 -180.5 -46t-71.5 -144h-172q14 348 430 348q198 0 301 -75t103 -218v-598q0 -40 24 -62t68 -22q19 0 37 4v-129q-71 -18 -117 -18q-63 0 -113 40t-63 101 q-70 -75 -166 -116.5t-199 -41.5q-164 0 -258 82t-94 228zM213 1184l236 276h233l236 -276h-154l-199 176l-194 -176h-158zM264 283q0 -164 211 -164q130 0 226 70.5t96 181.5v159q-42 -20 -89 -30t-186 -29q-139 -21 -198.5 -63t-59.5 -125zM455 1720q0 103 60 157t177 54 q104 0 165 -43t61 -114q0 -44 -22 -75t-81 -71q-46 -31 -59 -44t-13 -28v-55h-127v62q0 42 23 69t86 66v-2q66 45 66 78q0 25 -29 41t-76 16q-69 0 -92 -33v2q-14 -20 -14 -80h-125z" />
<glyph unicode="&#x1eaa;" horiz-adv-x="1366" d="M35 0l532 1493h246l524 -1493h-213l-153 449h-576l-157 -449h-203zM340 1604l235 276h234l235 -276h-153l-199 176l-194 -176h-158zM360 1944q17 101 63 155.5t114 54.5q32 0 56 -6.5t87 -31.5q82 -37 129 -37q52 0 76 75h119q-30 -212 -183 -212q-29 0 -58.5 9 t-115.5 42q-71 26 -100 26q-23 0 -41 -20t-27 -55h-119zM442 608h476l-230 680z" />
<glyph unicode="&#x1eab;" d="M86 279q0 201 188 278q51 21 108.5 32t235.5 34q101 12 140 38t39 80v45q0 77 -62.5 118.5t-177.5 41.5q-120 0 -180.5 -46t-71.5 -144h-172q14 348 430 348q198 0 301 -75t103 -218v-598q0 -40 24 -62t68 -22q19 0 37 4v-129q-71 -18 -117 -18q-63 0 -113 40t-63 101 q-70 -75 -166 -116.5t-199 -41.5q-164 0 -258 82t-94 228zM213 1184l236 276h233l236 -276h-154l-199 176l-194 -176h-158zM233 1524q17 101 63 156t114 55q31 0 55 -6.5t88 -32.5q82 -37 129 -37q52 0 76 76h119q-30 -213 -183 -213q-29 0 -58.5 9t-115.5 42 q-71 26 -100 26q-23 0 -41 -20t-27 -55h-119zM264 283q0 -164 211 -164q130 0 226 70.5t96 181.5v159q-42 -20 -89 -30t-186 -29q-139 -21 -198.5 -63t-59.5 -125z" />
<glyph unicode="&#x1eac;" horiz-adv-x="1366" d="M35 0l532 1493h246l524 -1493h-213l-153 449h-576l-157 -449h-203zM338 1604l235 276h234l235 -276h-153l-199 176l-194 -176h-158zM442 608h476l-230 680zM578 -162h213v-213h-213v213z" />
<glyph unicode="&#x1ead;" d="M86 279q0 201 188 278q51 21 108.5 32t235.5 34q101 12 140 38t39 80v45q0 77 -62.5 118.5t-177.5 41.5q-120 0 -180.5 -46t-71.5 -144h-172q14 348 430 348q198 0 301 -75t103 -218v-598q0 -40 24 -62t68 -22q19 0 37 4v-129q-71 -18 -117 -18q-63 0 -113 40t-63 101 q-70 -75 -166 -116.5t-199 -41.5q-164 0 -258 82t-94 228zM264 283q0 -164 211 -164q130 0 226 70.5t96 181.5v159q-42 -20 -89 -30t-186 -29q-139 -21 -198.5 -63t-59.5 -125zM268 1188l197 307h194l197 -307h-129l-166 196l-162 -196h-131zM457 -162h213v-213h-213v213z " />
<glyph unicode="&#x1eae;" horiz-adv-x="1366" d="M35 0l532 1493h246l524 -1493h-213l-153 449h-576l-157 -449h-203zM322 1866h145q9 -59 62 -81t163 -22q105 0 161 23.5t62 79.5h146q-12 -123 -107 -186.5t-266 -63.5q-165 0 -264 61.5t-102 188.5zM442 608h476l-230 680zM616 1935l236 273h278l-366 -273h-148z" />
<glyph unicode="&#x1eaf;" d="M86 279q0 201 188 278q51 21 108.5 32t235.5 34q101 12 140 38t39 80v45q0 77 -62.5 118.5t-177.5 41.5q-120 0 -180.5 -46t-71.5 -144h-172q14 348 430 348q198 0 301 -75t103 -218v-598q0 -40 24 -62t68 -22q19 0 37 4v-129q-71 -18 -117 -18q-63 0 -113 40t-63 101 q-70 -75 -166 -116.5t-199 -41.5q-164 0 -258 82t-94 228zM195 1446h145q9 -59 62 -81t163 -22q105 0 161 23.5t62 79.5h146q-12 -123 -107 -186.5t-266 -63.5q-165 0 -264 61.5t-102 188.5zM264 283q0 -164 211 -164q130 0 226 70.5t96 181.5v159q-42 -20 -89 -30t-186 -29 q-139 -21 -198.5 -63t-59.5 -125zM489 1516l236 272h279l-367 -272h-148z" />
<glyph unicode="&#x1eb0;" horiz-adv-x="1366" d="M35 0l532 1493h246l524 -1493h-213l-153 449h-576l-157 -449h-203zM250 2208h278l236 -273h-148zM322 1866h145q9 -59 62 -81t163 -22q105 0 161 23.5t62 79.5h146q-12 -123 -107 -186.5t-266 -63.5q-165 0 -264 61.5t-102 188.5zM442 608h476l-230 680z" />
<glyph unicode="&#x1eb1;" d="M86 279q0 201 188 278q51 21 108.5 32t235.5 34q101 12 140 38t39 80v45q0 77 -62.5 118.5t-177.5 41.5q-120 0 -180.5 -46t-71.5 -144h-172q14 348 430 348q198 0 301 -75t103 -218v-598q0 -40 24 -62t68 -22q19 0 37 4v-129q-71 -18 -117 -18q-63 0 -113 40t-63 101 q-70 -75 -166 -116.5t-199 -41.5q-164 0 -258 82t-94 228zM123 1788h278l236 -272h-148zM195 1446h145q9 -59 62 -81t163 -22q105 0 161 23.5t62 79.5h146q-12 -123 -107 -186.5t-266 -63.5q-165 0 -264 61.5t-102 188.5zM264 283q0 -164 211 -164q130 0 226 70.5t96 181.5 v159q-42 -20 -89 -30t-186 -29q-139 -21 -198.5 -63t-59.5 -125z" />
<glyph unicode="&#x1eb2;" horiz-adv-x="1366" d="M35 0l532 1493h246l524 -1493h-213l-153 449h-576l-157 -449h-203zM322 1866h145q9 -59 62 -81t163 -22q105 0 161 23.5t62 79.5h146q-12 -123 -107 -186.5t-266 -63.5q-165 0 -264 61.5t-102 188.5zM442 608h476l-230 680zM461 2064q0 103 60 157t177 54q104 0 165 -43 t61 -114q0 -44 -22 -75t-81 -71q-46 -31 -58.5 -43.5t-12.5 -27.5v-56h-127v62q0 43 22.5 70t85.5 65v-2q66 45 66 78q0 25 -29 41t-76 16q-69 0 -92 -33v2q-14 -20 -14 -80h-125z" />
<glyph unicode="&#x1eb3;" d="M86 279q0 201 188 278q51 21 108.5 32t235.5 34q101 12 140 38t39 80v45q0 77 -62.5 118.5t-177.5 41.5q-120 0 -180.5 -46t-71.5 -144h-172q14 348 430 348q198 0 301 -75t103 -218v-598q0 -40 24 -62t68 -22q19 0 37 4v-129q-71 -18 -117 -18q-63 0 -113 40t-63 101 q-70 -75 -166 -116.5t-199 -41.5q-164 0 -258 82t-94 228zM195 1446h145q9 -59 62 -81t163 -22q105 0 161 23.5t62 79.5h146q-12 -123 -107 -186.5t-266 -63.5q-165 0 -264 61.5t-102 188.5zM264 283q0 -164 211 -164q130 0 226 70.5t96 181.5v159q-42 -20 -89 -30t-186 -29 q-139 -21 -198.5 -63t-59.5 -125zM334 1645q0 103 60 156.5t177 53.5q104 0 165 -43t61 -114q0 -44 -22 -75t-81 -71q-46 -31 -58.5 -43.5t-12.5 -27.5v-56h-127v62q0 43 22.5 70t85.5 65v-2q66 45 66 78q0 25 -29 41t-76 16q-69 0 -92 -33v2q-14 -20 -14 -79h-125z" />
<glyph unicode="&#x1eb4;" horiz-adv-x="1366" d="M35 0l532 1493h246l524 -1493h-213l-153 449h-576l-157 -449h-203zM322 1866h145q9 -59 62 -81t163 -22q105 0 161 23.5t62 79.5h146q-12 -123 -107 -186.5t-266 -63.5q-165 0 -264 61.5t-102 188.5zM360 1960q17 101 63 156t114 55q31 0 55 -6.5t88 -32.5 q82 -37 129 -37q52 0 76 76h119q-30 -213 -183 -213q-29 0 -58.5 9t-115.5 42q-73 27 -100 27q-23 0 -41 -20t-27 -56h-119zM442 608h476l-230 680z" />
<glyph unicode="&#x1eb5;" d="M86 279q0 201 188 278q51 21 108.5 32t235.5 34q101 12 140 38t39 80v45q0 77 -62.5 118.5t-177.5 41.5q-120 0 -180.5 -46t-71.5 -144h-172q14 348 430 348q198 0 301 -75t103 -218v-598q0 -40 24 -62t68 -22q19 0 37 4v-129q-71 -18 -117 -18q-63 0 -113 40t-63 101 q-70 -75 -166 -116.5t-199 -41.5q-164 0 -258 82t-94 228zM195 1446h145q9 -59 62 -81t163 -22q105 0 161 23.5t62 79.5h146q-12 -123 -107 -186.5t-266 -63.5q-165 0 -264 61.5t-102 188.5zM233 1540q17 101 63 156t114 55q31 0 55 -6.5t88 -32.5q82 -37 129 -37 q52 0 76 76h119q-30 -213 -183 -213q-29 0 -58.5 9t-115.5 42q-74 27 -100 27q-23 0 -41 -20t-27 -56h-119zM264 283q0 -164 211 -164q130 0 226 70.5t96 181.5v159q-42 -20 -89 -30t-186 -29q-139 -21 -198.5 -63t-59.5 -125z" />
<glyph unicode="&#x1eb6;" horiz-adv-x="1366" d="M35 0l532 1493h246l524 -1493h-213l-153 449h-576l-157 -449h-203zM319 1866h146q9 -59 62 -81t163 -22q105 0 161 23.5t62 79.5h146q-12 -123 -107 -186.5t-266 -63.5q-165 0 -264.5 61.5t-102.5 188.5zM442 608h476l-230 680zM578 -162h213v-213h-213v213z" />
<glyph unicode="&#x1eb7;" d="M86 279q0 201 188 278q51 21 108.5 32t235.5 34q101 12 140 38t39 80v45q0 77 -62.5 118.5t-177.5 41.5q-120 0 -180.5 -46t-71.5 -144h-172q14 348 430 348q198 0 301 -75t103 -218v-598q0 -40 24 -62t68 -22q19 0 37 4v-129q-71 -18 -117 -18q-63 0 -113 40t-63 101 q-70 -75 -166 -116.5t-199 -41.5q-164 0 -258 82t-94 228zM246 1481h110q25 -61 80 -98t121 -37t121 37t80 98h110q0 -118 -92 -197.5t-219 -79.5t-219 79.5t-92 197.5zM264 283q0 -164 211 -164q130 0 226 70.5t96 181.5v159q-42 -20 -89 -30t-186 -29q-139 -21 -198.5 -63 t-59.5 -125zM457 -162h213v-213h-213v213z" />
<glyph unicode="&#x1eb8;" horiz-adv-x="1366" d="M184 0v1493h1035v-168h-844v-477h813v-168h-813v-512h880v-168h-1071zM578 -162h213v-213h-213v213z" />
<glyph unicode="&#x1eb9;" d="M82 530q0 264 133 419t358 155q151 0 266.5 -75.5t168.5 -207.5q43 -111 43 -334h-791q3 -178 89 -269t226 -91q215 0 281 199h172q-33 -164 -154.5 -260.5t-304.5 -96.5q-227 0 -357 149t-130 412zM264 627h602l2 12q0 127 -86 217t-211 90q-128 0 -212 -88t-95 -231z M467 -162h213v-213h-213v213z" />
<glyph unicode="&#x1eba;" horiz-adv-x="1366" d="M184 0v1493h1035v-168h-844v-477h813v-168h-813v-512h880v-168h-1071zM471 1806q0 116 60.5 176t177.5 60q104 0 164.5 -48t60.5 -128q0 -49 -22 -83t-81 -77q-47 -36 -59 -49.5t-12 -30.5v-61h-127v67q0 48 23 78.5t85 71.5v-2q66 51 66 86q0 28 -29 45.5t-76 17.5 q-71 0 -92 -35v2q-14 -22 -14 -90h-125z" />
<glyph unicode="&#x1ebb;" d="M82 530q0 264 133 419t358 155q151 0 266.5 -75.5t168.5 -207.5q43 -111 43 -334h-791q3 -178 89 -269t226 -91q215 0 281 199h172q-33 -164 -154.5 -260.5t-304.5 -96.5q-227 0 -357 149t-130 412zM264 627h602l2 12q0 127 -86 217t-211 90q-128 0 -212 -88t-95 -231z M342 1386q0 116 60.5 176t177.5 60q104 0 164.5 -48t60.5 -128q0 -49 -22 -83t-81 -77q-47 -36 -59 -49.5t-12 -30.5v-61h-127v67q0 48 23 78.5t85 71.5v-2q66 51 66 86q0 28 -29 45.5t-76 17.5q-71 0 -92 -34v2q-14 -22 -14 -91h-125z" />
<glyph unicode="&#x1ebc;" horiz-adv-x="1366" d="M184 0v1493h1035v-168h-844v-477h813v-168h-813v-512h880v-168h-1071zM373 1636q17 101 63 156t113 55q31 0 55 -6.5t88 -32.5q80 -36 129 -36q52 0 76 75h119q-30 -213 -182 -213q-28 0 -58 9t-117 43q-71 26 -100 26q-48 0 -67 -76h-119z" />
<glyph unicode="&#x1ebd;" d="M82 530q0 264 133 419t358 155q151 0 266.5 -75.5t168.5 -207.5q43 -111 43 -334h-791q3 -178 89 -269t226 -91q215 0 281 199h172q-33 -164 -154.5 -260.5t-304.5 -96.5q-227 0 -357 149t-130 412zM242 1237q17 101 63 156t113 55q31 0 55 -6.5t88 -32.5q82 -37 129 -37 q52 0 76 76h119q-30 -213 -183 -213q-29 0 -58.5 9t-115.5 42q-73 27 -100 27q-23 0 -41 -20t-27 -56h-118zM264 627h602l2 12q0 127 -86 217t-211 90q-128 0 -212 -88t-95 -231z" />
<glyph unicode="&#x1ebe;" horiz-adv-x="1366" d="M184 0v1493h1035v-168h-844v-477h813v-168h-813v-512h880v-168h-1071zM352 1604l236 276h233l236 -276h-154l-198 176l-195 -176h-158zM629 1921l235 272h279l-367 -272h-147z" />
<glyph unicode="&#x1ebf;" d="M82 530q0 264 133 419t358 155q151 0 266.5 -75.5t168.5 -207.5q43 -111 43 -334h-791q3 -178 89 -269t226 -91q215 0 281 199h172q-33 -164 -154.5 -260.5t-304.5 -96.5q-227 0 -357 149t-130 412zM223 1184l236 276h233l236 -276h-154l-199 176l-194 -176h-158z M264 627h602l2 12q0 127 -86 217t-211 90q-128 0 -212 -88t-95 -231zM500 1501l235 273h279l-367 -273h-147z" />
<glyph unicode="&#x1ec0;" horiz-adv-x="1366" d="M184 0v1493h1035v-168h-844v-477h813v-168h-813v-512h880v-168h-1071zM262 2193h279l235 -272h-147zM352 1604l236 276h233l236 -276h-154l-198 176l-195 -176h-158z" />
<glyph unicode="&#x1ec1;" d="M82 530q0 264 133 419t358 155q151 0 266.5 -75.5t168.5 -207.5q43 -111 43 -334h-791q3 -178 89 -269t226 -91q215 0 281 199h172q-33 -164 -154.5 -260.5t-304.5 -96.5q-227 0 -357 149t-130 412zM133 1774h279l235 -273h-147zM223 1184l236 276h233l236 -276h-154 l-199 176l-194 -176h-158zM264 627h602l2 12q0 127 -86 217t-211 90q-128 0 -212 -88t-95 -231z" />
<glyph unicode="&#x1ec2;" horiz-adv-x="1366" d="M184 0v1493h1035v-168h-844v-477h813v-168h-813v-512h880v-168h-1071zM352 1604l236 276h233l236 -276h-154l-198 176l-195 -176h-158zM594 2140q0 103 60 157t177 54q103 0 164.5 -43.5t61.5 -114.5q0 -44 -22 -74.5t-81 -70.5q-45 -30 -58 -43.5t-13 -28.5v-55h-127v61 q0 43 23 70.5t85 65.5v-2q66 45 66 77q0 25 -29 41.5t-76 16.5q-69 0 -92 -33v2q-14 -20 -14 -80h-125z" />
<glyph unicode="&#x1ec3;" d="M82 530q0 264 133 419t358 155q151 0 266.5 -75.5t168.5 -207.5q43 -111 43 -334h-791q3 -178 89 -269t226 -91q215 0 281 199h172q-33 -164 -154.5 -260.5t-304.5 -96.5q-227 0 -357 149t-130 412zM223 1184l236 276h233l236 -276h-154l-199 176l-194 -176h-158z M264 627h602l2 12q0 127 -86 217t-211 90q-128 0 -212 -88t-95 -231zM465 1720q0 103 60 157t177 54q104 0 165 -43t61 -114q0 -44 -22 -75t-81 -71q-45 -30 -58 -43.5t-13 -28.5v-55h-127v62q0 43 22.5 70t85.5 65v-2q66 45 66 78q0 25 -29 41t-76 16q-69 0 -92 -33v2 q-14 -20 -14 -80h-125z" />
<glyph unicode="&#x1ec4;" horiz-adv-x="1366" d="M184 0v1493h1035v-168h-844v-477h813v-168h-813v-512h880v-168h-1071zM352 1604l236 276h233l236 -276h-154l-198 176l-195 -176h-158zM373 1944q17 101 62.5 155.5t113.5 54.5q32 0 56 -6.5t87 -31.5q82 -37 129 -37q52 0 76 75h119q-30 -212 -182 -212q-29 0 -59.5 9 t-115.5 42q-71 26 -100 26q-48 0 -67 -75h-119z" />
<glyph unicode="&#x1ec5;" d="M82 530q0 264 133 419t358 155q151 0 266.5 -75.5t168.5 -207.5q43 -111 43 -334h-791q3 -178 89 -269t226 -91q215 0 281 199h172q-33 -164 -154.5 -260.5t-304.5 -96.5q-227 0 -357 149t-130 412zM223 1184l236 276h233l236 -276h-154l-199 176l-194 -176h-158z M244 1524q17 101 63 156t113 55q31 0 55 -6.5t88 -32.5q82 -37 129 -37q52 0 76 76h119q-30 -213 -182 -213q-29 0 -59.5 9t-115.5 42q-71 26 -100 26q-23 0 -41 -20t-27 -55h-118zM264 627h602l2 12q0 127 -86 217t-211 90q-128 0 -212 -88t-95 -231z" />
<glyph unicode="&#x1ec6;" horiz-adv-x="1366" d="M184 0v1493h1035v-168h-844v-477h813v-168h-813v-512h880v-168h-1071zM350 1604l236 276h233l236 -276h-154l-199 176l-194 -176h-158zM578 -162h213v-213h-213v213z" />
<glyph unicode="&#x1ec7;" d="M82 530q0 264 133 419t358 155q151 0 266.5 -75.5t168.5 -207.5q43 -111 43 -334h-791q3 -178 89 -269t226 -91q215 0 281 199h172q-33 -164 -154.5 -260.5t-304.5 -96.5q-227 0 -357 149t-130 412zM264 627h602l2 12q0 127 -86 217t-211 90q-128 0 -212 -88t-95 -231z M279 1188l196 307h195l196 -307h-129l-166 196l-161 -196h-131zM467 -162h213v-213h-213v213z" />
<glyph unicode="&#x1ec8;" horiz-adv-x="569" d="M70 1806q0 116 60 176t177 60q104 0 164.5 -48t60.5 -128q0 -49 -21.5 -83t-80.5 -77q-47 -36 -59.5 -49.5t-12.5 -30.5v-61h-127v67q0 48 23 78t86 72v-2q66 51 66 86q0 28 -29 45.5t-76 17.5q-71 0 -92 -35v2q-14 -22 -14 -90h-125zM205 0v1493h190v-1493h-190z" />
<glyph unicode="&#x1ec9;" horiz-adv-x="569" d="M55 1386q0 116 60.5 176t177.5 60q104 0 164.5 -48t60.5 -128q0 -49 -21.5 -83t-80.5 -77q-47 -36 -59.5 -49.5t-12.5 -30.5v-61h-127v67q0 48 23 78t86 72v-2q65 51 65 86q0 28 -28.5 45.5t-75.5 17.5q-71 0 -92 -34v2q-15 -24 -15 -91h-125zM201 0v1073h170v-1073h-170 z" />
<glyph unicode="&#x1eca;" horiz-adv-x="569" d="M195 -162h213v-213h-213v213zM205 0v1493h190v-1493h-190z" />
<glyph unicode="&#x1ecb;" horiz-adv-x="454" d="M121 -162h213v-213h-213v213zM123 1235v213h213v-213h-213zM143 0v1073h170v-1073h-170z" />
<glyph unicode="&#x1ecc;" horiz-adv-x="1593" d="M78 735q0 231 90 412t254 282t375 101q216 0 380.5 -101t253.5 -284t89 -422q0 -218 -88 -390.5t-253 -271t-380 -98.5q-160 0 -294 55.5t-228 155t-146.5 244t-52.5 317.5zM268 735q0 -275 146 -439.5t385 -164.5q237 0 383.5 163.5t146.5 432.5q0 284 -145 459.5 t-387 175.5q-155 0 -276 -79.5t-187 -222t-66 -325.5zM690 -162h213v-213h-213v213z" />
<glyph unicode="&#x1ecd;" d="M74 537q0 269 128 418t355 149q233 0 360 -149.5t127 -426.5q0 -263 -129 -411t-356 -148q-229 0 -357 149.5t-128 418.5zM252 537q0 -194 82 -302t225 -108q142 0 224.5 107.5t82.5 295.5q0 199 -81 307.5t-226 108.5q-143 0 -225 -108t-82 -301zM463 -162h213v-213 h-213v213z" />
<glyph unicode="&#x1ece;" horiz-adv-x="1593" d="M78 735q0 231 90 412t254 282t375 101q216 0 380.5 -101t253.5 -284t89 -422q0 -218 -88 -390.5t-253 -271t-380 -98.5q-160 0 -294 55.5t-228 155t-146.5 244t-52.5 317.5zM268 735q0 -275 146 -439.5t385 -164.5q237 0 383.5 163.5t146.5 432.5q0 284 -145 459.5 t-387 175.5q-155 0 -276 -79.5t-187 -222t-66 -325.5zM565 1806q0 116 60.5 176t177.5 60q104 0 164.5 -48t60.5 -128q0 -49 -21.5 -83t-80.5 -77q-47 -36 -59.5 -49.5t-12.5 -30.5v-61h-127v67q0 48 23 78t86 72v-2q65 51 65 86q0 28 -28.5 45.5t-75.5 17.5q-71 0 -92 -35 v2q-15 -24 -15 -90h-125z" />
<glyph unicode="&#x1ecf;" d="M74 537q0 269 128 418t355 149q233 0 360 -149.5t127 -426.5q0 -263 -129 -411t-356 -148q-229 0 -357 149.5t-128 418.5zM252 537q0 -194 82 -302t225 -108q142 0 224.5 107.5t82.5 295.5q0 199 -81 307.5t-226 108.5q-143 0 -225 -108t-82 -301zM338 1386q0 116 60 176 t177 60q104 0 165 -48t61 -128q0 -49 -22 -83t-81 -77q-47 -36 -59 -49.5t-12 -30.5v-61h-127v67q0 48 23 78.5t85 71.5v-2q66 51 66 86q0 28 -29 45.5t-76 17.5q-71 0 -92 -34v2q-14 -22 -14 -91h-125z" />
<glyph unicode="&#x1ed0;" horiz-adv-x="1593" d="M78 735q0 231 90 412t254 282t375 101q216 0 380.5 -101t253.5 -284t89 -422q0 -218 -88 -390.5t-253 -271t-380 -98.5q-160 0 -294 55.5t-228 155t-146.5 244t-52.5 317.5zM268 735q0 -275 146 -439.5t385 -164.5q237 0 383.5 163.5t146.5 432.5q0 284 -145 459.5 t-387 175.5q-155 0 -276 -79.5t-187 -222t-66 -325.5zM446 1604l236 276h233l236 -276h-154l-198 176l-195 -176h-158zM723 1921l235 272h279l-367 -272h-147z" />
<glyph unicode="&#x1ed1;" d="M74 537q0 269 128 418t355 149q233 0 360 -149.5t127 -426.5q0 -263 -129 -411t-356 -148q-229 0 -357 149.5t-128 418.5zM219 1184l236 276h233l236 -276h-154l-199 176l-194 -176h-158zM252 537q0 -194 82 -302t225 -108q142 0 224.5 107.5t82.5 295.5q0 199 -81 307.5 t-226 108.5q-143 0 -225 -108t-82 -301zM496 1501l235 273h279l-367 -273h-147z" />
<glyph unicode="&#x1ed2;" horiz-adv-x="1593" d="M78 735q0 231 90 412t254 282t375 101q216 0 380.5 -101t253.5 -284t89 -422q0 -218 -88 -390.5t-253 -271t-380 -98.5q-160 0 -294 55.5t-228 155t-146.5 244t-52.5 317.5zM268 735q0 -275 146 -439.5t385 -164.5q237 0 383.5 163.5t146.5 432.5q0 284 -145 459.5 t-387 175.5q-155 0 -276 -79.5t-187 -222t-66 -325.5zM356 2193h279l235 -272h-147zM446 1604l236 276h233l236 -276h-154l-198 176l-195 -176h-158z" />
<glyph unicode="&#x1ed3;" d="M74 537q0 269 128 418t355 149q233 0 360 -149.5t127 -426.5q0 -263 -129 -411t-356 -148q-229 0 -357 149.5t-128 418.5zM129 1774h279l235 -273h-147zM219 1184l236 276h233l236 -276h-154l-199 176l-194 -176h-158zM252 537q0 -194 82 -302t225 -108 q142 0 224.5 107.5t82.5 295.5q0 199 -81 307.5t-226 108.5q-143 0 -225 -108t-82 -301z" />
<glyph unicode="&#x1ed4;" horiz-adv-x="1593" d="M78 735q0 231 90 412t254 282t375 101q216 0 380.5 -101t253.5 -284t89 -422q0 -218 -88 -390.5t-253 -271t-380 -98.5q-160 0 -294 55.5t-228 155t-146.5 244t-52.5 317.5zM268 735q0 -275 146 -439.5t385 -164.5q237 0 383.5 163.5t146.5 432.5q0 284 -145 459.5 t-387 175.5q-155 0 -276 -79.5t-187 -222t-66 -325.5zM446 1604l236 276h233l236 -276h-154l-198 176l-195 -176h-158zM688 2140q0 103 60.5 157t177.5 54q103 0 164 -43.5t61 -114.5q0 -44 -21.5 -74.5t-80.5 -70.5q-46 -31 -59 -44t-13 -28v-55h-127v61q0 43 23 70.5 t85 65.5v-2q66 45 66 77q0 25 -28.5 41.5t-75.5 16.5q-70 0 -93 -33v2q-14 -20 -14 -80h-125z" />
<glyph unicode="&#x1ed5;" d="M74 537q0 269 128 418t355 149q233 0 360 -149.5t127 -426.5q0 -263 -129 -411t-356 -148q-229 0 -357 149.5t-128 418.5zM219 1184l236 276h233l236 -276h-154l-199 176l-194 -176h-158zM252 537q0 -194 82 -302t225 -108q142 0 224.5 107.5t82.5 295.5q0 199 -81 307.5 t-226 108.5q-143 0 -225 -108t-82 -301zM461 1720q0 103 60 157t177 54q104 0 165 -43t61 -114q0 -44 -22 -75t-81 -71q-45 -30 -58 -43.5t-13 -28.5v-55h-127v62q0 43 22.5 70t85.5 65v-2q66 45 66 78q0 25 -29 41t-76 16q-69 0 -92 -33v2q-14 -20 -14 -80h-125z" />
<glyph unicode="&#x1ed6;" horiz-adv-x="1593" d="M78 735q0 231 90 412t254 282t375 101q216 0 380.5 -101t253.5 -284t89 -422q0 -218 -88 -390.5t-253 -271t-380 -98.5q-160 0 -294 55.5t-228 155t-146.5 244t-52.5 317.5zM268 735q0 -275 146 -439.5t385 -164.5q237 0 383.5 163.5t146.5 432.5q0 284 -145 459.5 t-387 175.5q-155 0 -276 -79.5t-187 -222t-66 -325.5zM446 1604l236 276h233l236 -276h-154l-198 176l-195 -176h-158zM467 1944q17 101 62.5 155.5t113.5 54.5q32 0 56 -6.5t87 -31.5q82 -37 129 -37q52 0 76 75h119q-30 -212 -182 -212q-29 0 -58.5 9t-115.5 42 q-71 26 -101 26q-48 0 -67 -75h-119z" />
<glyph unicode="&#x1ed7;" d="M74 537q0 269 128 418t355 149q233 0 360 -149.5t127 -426.5q0 -263 -129 -411t-356 -148q-229 0 -357 149.5t-128 418.5zM219 1184l236 276h233l236 -276h-154l-199 176l-194 -176h-158zM240 1524q17 101 63 156t113 55q31 0 55 -6.5t88 -32.5q82 -37 129 -37 q52 0 76 76h119q-30 -213 -183 -213q-29 0 -58.5 9t-115.5 42q-71 26 -100 26q-23 0 -41 -20t-27 -55h-118zM252 537q0 -194 82 -302t225 -108q142 0 224.5 107.5t82.5 295.5q0 199 -81 307.5t-226 108.5q-143 0 -225 -108t-82 -301z" />
<glyph unicode="&#x1ed8;" horiz-adv-x="1593" d="M78 735q0 231 90 412t254 282t375 101q216 0 380.5 -101t253.5 -284t89 -422q0 -218 -88 -390.5t-253 -271t-380 -98.5q-160 0 -294 55.5t-228 155t-146.5 244t-52.5 317.5zM268 735q0 -275 146 -439.5t385 -164.5q237 0 383.5 163.5t146.5 432.5q0 284 -145 459.5 t-387 175.5q-155 0 -276 -79.5t-187 -222t-66 -325.5zM444 1604l236 276h233l236 -276h-154l-198 176l-195 -176h-158zM690 -162h213v-213h-213v213z" />
<glyph unicode="&#x1ed9;" d="M74 537q0 269 128 418t355 149q233 0 360 -149.5t127 -426.5q0 -263 -129 -411t-356 -148q-229 0 -357 149.5t-128 418.5zM252 537q0 -194 82 -302t225 -108q142 0 224.5 107.5t82.5 295.5q0 199 -81 307.5t-226 108.5q-143 0 -225 -108t-82 -301zM274 1188l197 307h195 l196 -307h-129l-166 196l-161 -196h-132zM463 -162h213v-213h-213v213z" />
<glyph unicode="&#x1eda;" horiz-adv-x="1593" d="M78 743q0 349 198.5 562t520.5 213q164 0 298.5 -57.5t229.5 -164.5q92 77 92 197h-98v213h190v-207q0 -175 -131 -270q142 -207 142 -498q0 -183 -68 -342t-190 -262q-187 -158 -463 -158q-323 0 -522 212.5t-199 561.5zM268 743q0 -275 146 -440.5t385 -165.5 q237 0 383.5 164.5t146.5 433.5q0 282 -144.5 448.5t-387.5 166.5q-237 0 -383 -166t-146 -441zM725 1604l236 272h278l-367 -272h-147z" />
<glyph unicode="&#x1edb;" horiz-adv-x="1169" d="M74 537q0 269 128 418t355 149q281 0 408 -225q88 77 88 194h-99v213h191v-207q0 -96 -41.5 -166t-104.5 -112q45 -124 45 -273q0 -263 -129 -411t-356 -148q-229 0 -357 149.5t-128 418.5zM252 537q0 -194 82 -302t225 -108q142 0 224.5 107.5t82.5 295.5 q0 199 -81 307.5t-226 108.5q-143 0 -225 -108t-82 -301zM498 1190l196 303h232l-305 -303h-123z" />
<glyph unicode="&#x1edc;" horiz-adv-x="1593" d="M78 743q0 349 198.5 562t520.5 213q164 0 298.5 -57.5t229.5 -164.5q92 77 92 197h-98v213h190v-207q0 -175 -131 -270q142 -207 142 -498q0 -183 -68 -342t-190 -262q-187 -158 -463 -158q-323 0 -522 212.5t-199 561.5zM268 743q0 -275 146 -440.5t385 -165.5 q237 0 383.5 164.5t146.5 433.5q0 282 -144.5 448.5t-387.5 166.5q-237 0 -383 -166t-146 -441zM358 1876h279l235 -272h-147z" />
<glyph unicode="&#x1edd;" horiz-adv-x="1169" d="M74 537q0 269 128 418t355 149q281 0 408 -225q88 77 88 194h-99v213h191v-207q0 -96 -41.5 -166t-104.5 -112q45 -124 45 -273q0 -263 -129 -411t-356 -148q-229 0 -357 149.5t-128 418.5zM193 1493h231l197 -303h-123zM252 537q0 -194 82 -302t225 -108 q142 0 224.5 107.5t82.5 295.5q0 199 -81 307.5t-226 108.5q-143 0 -225 -108t-82 -301z" />
<glyph unicode="&#x1ede;" horiz-adv-x="1593" d="M78 743q0 349 198.5 562t520.5 213q164 0 298.5 -57.5t229.5 -164.5q92 77 92 197h-98v213h190v-207q0 -175 -131 -270q142 -207 142 -498q0 -183 -68 -342t-190 -262q-187 -158 -463 -158q-323 0 -522 212.5t-199 561.5zM268 743q0 -275 146 -440.5t385 -165.5 q237 0 383.5 164.5t146.5 433.5q0 282 -144.5 448.5t-387.5 166.5q-237 0 -383 -166t-146 -441zM567 1806q0 116 60.5 176t177.5 60q104 0 164.5 -48t60.5 -128q0 -49 -21.5 -83t-80.5 -77q-47 -36 -59.5 -49.5t-12.5 -30.5v-61h-127v67q0 48 23 78t86 72v-2q65 51 65 86 q0 28 -28.5 45.5t-75.5 17.5q-71 0 -92 -35v2q-15 -24 -15 -90h-125z" />
</font>
</defs>
</svg>
