<?xml version="1.0" standalone="no"?>
<!DOCTYPE svg PUBLIC "-//W3C//DTD SVG 1.1//EN" "http://www.w3.org/Graphics/SVG/1.1/DTD/svg11.dtd" >
<svg xmlns="http://www.w3.org/2000/svg">
<metadata></metadata>
<defs>
<font id="texgyreheroscnbold" horiz-adv-x="933" >
<font-face units-per-em="2048" ascent="1624" descent="-424" />
<missing-glyph horiz-adv-x="466" />
<glyph unicode="IJ" horiz-adv-x="1415" d="M117 0v1470h252v-1470h-252zM522 555h236q0 -87 4 -143.5t13 -97t27 -62t42 -30.5t61 -9q78 0 110 47.5t32 165.5v1044h251v-1044q0 -233 -96.5 -348t-292.5 -115q-245 0 -331 180q-32 63 -44 151.5t-12 260.5z" />
<glyph unicode="ij" d="M117 0v1090h233v-1090h-233zM119 1266v235h233v-235h-233zM471 -209h43q37 0 53.5 23t16.5 77v1199h233v-1205q0 -183 -62 -253t-223 -70h-61v229zM586 1266v235h233v-235h-233z" />
<glyph unicode="fk" horiz-adv-x="1492" d="M16 885v205h129v88q0 161 67 236t208 75q56 0 110 -4v-232h-67q-55 0 -69.5 -21t-14.5 -99v-43h156v-205h-156v-885h-234v885h-129zM676 0v1470h233v-794l295 414h289l-315 -422l325 -668h-282l-213 467l-99 -123v-344h-233z" />
<glyph unicode="ff" horiz-adv-x="1081" d="M16 885v205h129v88q0 161 67 236t208 75q56 0 110 -4v-232h-67q-55 0 -69.5 -21t-14.5 -99v-43h297v88q0 161 66.5 236t207.5 75q57 0 111 -4v-232h-68q-55 0 -69.5 -21t-14.5 -99v-43h156v-205h-156v-885h-233v885h-297v-885h-234v885h-129z" />
<glyph unicode="fi" horiz-adv-x="1026" d="M16 885v205h129v88q0 161 67 236t208 75q56 0 110 -4v-232h-67q-55 0 -69.5 -21t-14.5 -99v-43h156v-205h-156v-885h-234v885h-129zM676 0v1090h233v-1090h-233zM678 1266v235h233v-235h-233z" />
<glyph unicode="fl" horiz-adv-x="1026" d="M16 885v205h129v88q0 161 67 236t208 75q56 0 110 -4v-232h-67q-55 0 -69.5 -21t-14.5 -99v-43h156v-205h-156v-885h-234v885h-129zM676 0v1470h233v-1470h-233z" />
<glyph unicode="ffi" horiz-adv-x="1556" d="M16 885v205h129v88q0 161 67 236t208 75q56 0 110 -4v-232h-67q-55 0 -69.5 -21t-14.5 -99v-43h297v88q0 161 66.5 236t207.5 75q57 0 111 -4v-232h-68q-55 0 -69.5 -21t-14.5 -99v-43h156v-205h-156v-885h-233v885h-297v-885h-234v885h-129zM1206 0v1090h234v-1090h-234 zM1208 1266v235h234v-235h-234z" />
<glyph unicode="ffl" horiz-adv-x="1556" d="M16 885v205h129v88q0 161 67 236t208 75q56 0 110 -4v-232h-67q-55 0 -69.5 -21t-14.5 -99v-43h297v88q0 161 66.5 236t207.5 75q57 0 111 -4v-232h-68q-55 0 -69.5 -21t-14.5 -99v-43h156v-205h-156v-885h-233v885h-297v-885h-234v885h-129zM1206 0v1470h234v-1470h-234 z" />
<glyph unicode=" "  horiz-adv-x="466" />
<glyph unicode="&#x09;" horiz-adv-x="466" />
<glyph unicode="&#xa0;" horiz-adv-x="466" />
<glyph unicode="!" horiz-adv-x="559" d="M152 1096v374h258v-374l-68 -688h-123zM158 0v291h245v-291h-245z" />
<glyph unicode="&#x22;" horiz-adv-x="796" d="M164 915v555h164v-555h-164zM467 915v555h164v-555h-164z" />
<glyph unicode="#" d="M31 408l20 184h162l29 246h-162l20 184h162l47 408h158l-47 -408h164l45 408h157l-45 -408h162l-20 -184h-162l-29 -246h162l-20 -184h-162l-47 -408h-158l47 408h-164l-45 -408h-158l46 408h-162zM371 592h164l28 246h-164z" />
<glyph unicode="$" d="M51 440h219q0 -128 35 -182.5t123 -75.5v430q-198 67 -275 160t-77 258q0 184 89 296.5t263 127.5v133h78v-133q354 -42 354 -428h-217q0 113 -34 162t-103 49v-383q118 -47 189 -89t113 -95t56.5 -111.5t14.5 -146.5q0 -189 -94 -307.5t-279 -139.5v-201h-78v201 q-204 22 -290.5 131.5t-86.5 343.5zM287 1069q0 -74 34 -118.5t107 -67.5v354q-68 -8 -104.5 -51.5t-36.5 -116.5zM506 182q72 9 109.5 59.5t37.5 135.5q0 75 -34.5 122.5t-112.5 78.5v-396z" />
<glyph unicode="%" horiz-adv-x="1492" d="M47 1065q0 198 64.5 293.5t197.5 95.5q256 0 256 -387t-258 -387q-260 0 -260 385zM215 1057q0 -131 19.5 -182.5t70.5 -51.5q52 0 72 53t20 191q0 137 -19.5 190.5t-70.5 53.5q-54 0 -73 -53t-19 -201zM346 -39l668 1493h125l-668 -1493h-125zM928 360q0 198 64.5 294 t197.5 96q256 0 256 -388q0 -387 -258 -387q-260 0 -260 385zM1096 354q0 -132 19.5 -183.5t70.5 -51.5q52 0 72 53t20 193q0 137 -19.5 189t-70.5 52q-54 0 -73 -52.5t-19 -199.5z" />
<glyph unicode="&#x26;" horiz-adv-x="1212" d="M90 389q0 128 56 228t176 190l26 18q-110 157 -110 310q0 145 89 240t224 95q132 0 217.5 -94.5t85.5 -240.5q0 -108 -48 -193t-151 -162l170 -258q53 104 64 242h209q-12 -144 -42 -239t-98 -203l220 -322h-285l-82 125q-75 -88 -153.5 -126t-182.5 -38 q-170 0 -277.5 119.5t-107.5 308.5zM326 408q0 -88 49 -146.5t123 -58.5q51 0 95 23.5t97 78.5l-221 338q-89 -80 -116 -124t-27 -111zM453 1137q0 -39 19.5 -80t68.5 -107q61 51 84.5 91t23.5 92q0 54 -27 86t-71 32q-43 0 -70.5 -31.5t-27.5 -82.5z" />
<glyph unicode="'" horiz-adv-x="399" d="M117 915v555h166v-555h-166z" />
<glyph unicode="(" horiz-adv-x="559" d="M59 539q0 244 66 465.5t229 498.5h172q-126 -271 -175.5 -484t-49.5 -482q0 -265 50 -478.5t175 -482.5h-172q-159 268 -227 490t-68 473z" />
<glyph unicode=")" horiz-adv-x="559" d="M33 -424q125 266 175 481.5t50 483.5q0 262 -49.5 473.5t-175.5 488.5h172q161 -275 228 -494t67 -470q0 -245 -67 -468.5t-228 -494.5h-172z" />
<glyph unicode="*" horiz-adv-x="653" d="M45 1147l39 149l172 -69v243h141v-243l170 69l41 -149l-176 -66l115 -198l-105 -90l-114 186l-117 -186l-105 90l113 198z" />
<glyph unicode="+" horiz-adv-x="980" d="M117 424v176h286v287h177v-287h284v-176h-284v-285h-177v285h-286z" />
<glyph unicode="," horiz-adv-x="466" d="M106 0v301h252v-260q0 -162 -64 -259.5t-188 -125.5v108q72 29 103 81t39 155h-142z" />
<glyph unicode="-" horiz-adv-x="559" d="M45 440v267h469v-267h-469z" />
<glyph unicode="." horiz-adv-x="466" d="M106 0v301h252v-301h-252z" />
<glyph unicode="/" horiz-adv-x="466" d="M-55 -39l381 1548h196l-381 -1548h-196z" />
<glyph unicode="0" d="M53 702q0 394 103 573t317 179q408 0 408 -745q0 -385 -103 -566.5t-311 -181.5q-209 0 -311.5 183t-102.5 558zM295 688q0 -187 17 -294.5t54 -155.5t101 -48q97 0 134.5 113.5t37.5 405.5q0 195 -16.5 306t-53 160.5t-100.5 49.5q-68 0 -105 -49t-53 -163t-16 -325z " />
<glyph unicode="1" d="M117 1001v201h33q135 0 209 64t83 188h193v-1454h-234v1001h-284z" />
<glyph unicode="2" d="M43 0q5 115 22 192t62.5 156t115 152t191.5 178q103 94 145 165.5t42 155.5q0 96 -46.5 154.5t-121.5 58.5q-88 0 -128 -63.5t-40 -208.5h-228q0 261 103 387.5t289 126.5q181 0 294 -127t113 -330q0 -220 -141 -376q-23 -26 -49 -49.5t-144 -125.5q-102 -89 -132 -121 t-50 -73h518v-252h-815z" />
<glyph unicode="3" d="M45 446h231v-18q1 -114 45.5 -176t124.5 -62t129.5 65t49.5 171q0 114 -60.5 162t-206.5 49v205h37q101 0 150 46.5t49 143.5q0 89 -40.5 141t-109.5 52q-156 0 -159 -238h-219q21 467 387 467q170 0 273 -108.5t103 -288.5q0 -101 -35 -170.5t-110 -116.5 q182 -80 182 -340q0 -209 -114 -339t-297 -130q-393 0 -410 485z" />
<glyph unicode="4" d="M45 322v245l438 887h267v-911h133v-221h-133v-322h-234v322h-471zM219 543h303v633z" />
<glyph unicode="5" d="M45 389h236q21 -199 163 -199q82 0 131.5 74.5t49.5 196.5q0 121 -49 191.5t-132 70.5q-52 0 -88.5 -25.5t-64.5 -79.5l-209 13l82 799h655v-242h-485l-43 -316q55 44 101.5 62t107.5 18q161 0 263.5 -130.5t102.5 -336.5q0 -236 -116 -380t-308 -144 q-171 0 -276.5 110.5t-120.5 317.5z" />
<glyph unicode="6" d="M51 698q0 381 111.5 568.5t318.5 187.5q161 0 249.5 -86.5t117.5 -282.5h-234q-15 140 -135 140q-94 0 -139 -94.5t-59 -317.5q44 69 96 98t129 29q164 0 265 -127.5t101 -333.5q0 -231 -110.5 -374.5t-288.5 -143.5q-422 0 -422 737zM287 461q0 -119 51.5 -195 t132.5 -76q77 0 121.5 73.5t44.5 199.5q0 112 -47 180t-125 68q-82 0 -130 -67.5t-48 -182.5z" />
<glyph unicode="7" d="M45 1178v252h842v-220q-201 -271 -307.5 -567.5t-128.5 -642.5h-242q19 316 127 615.5t299 562.5h-590z" />
<glyph unicode="8" d="M53 416q0 128 43 211t140 145q-78 52 -112 118.5t-34 166.5q0 178 103.5 287.5t271.5 109.5q166 0 270.5 -106.5t104.5 -276.5q0 -100 -33 -169t-105 -120q99 -66 139 -143t40 -201q0 -214 -115.5 -345.5t-302.5 -131.5q-188 0 -299 123t-111 332zM295 422 q0 -106 47 -169t125 -63q76 0 124 64.5t48 167.5q0 100 -48 162.5t-124 62.5q-80 0 -126 -60.5t-46 -164.5zM315 1049q0 -79 44 -132t110 -53t105.5 49t39.5 131q0 80 -39 130.5t-102 50.5q-72 0 -115 -48t-43 -128z" />
<glyph unicode="9" d="M51 946q0 234 109.5 371t296.5 137q420 0 420 -729q0 -363 -112 -563.5t-325 -200.5q-149 0 -246.5 97.5t-117.5 277.5h231q13 -76 45.5 -111t89.5 -35q60 0 100.5 36.5t67.5 130.5t33 249q-41 -69 -95 -99t-134 -30q-163 0 -263 129t-100 340zM287 971 q0 -129 43.5 -196.5t126.5 -67.5t130.5 67t47.5 184q0 120 -47 190.5t-127 70.5q-83 0 -128.5 -64.5t-45.5 -183.5z" />
<glyph unicode=":" horiz-adv-x="559" d="M154 0v301h252v-301h-252zM154 748v301h252v-301h-252z" />
<glyph unicode=";" horiz-adv-x="559" d="M154 0v301h252v-260q0 -162 -69.5 -264.5t-182.5 -120.5v108q72 29 102.5 81t38.5 155h-141zM154 748v301h252v-301h-252z" />
<glyph unicode="&#x3c;" horiz-adv-x="980" d="M168 453v118l580 652v-267l-396 -444l396 -444v-267z" />
<glyph unicode="=" horiz-adv-x="980" d="M117 240v176h747v-176h-747zM117 608v176h747v-176h-747z" />
<glyph unicode="&#x3e;" horiz-adv-x="980" d="M168 68l395 444l-395 444v267l580 -652v-118l-580 -652v267z" />
<glyph unicode="?" horiz-adv-x="1026" d="M100 1010q0 232 110.5 355.5t297.5 123.5q192 0 309 -117t117 -309q0 -119 -43 -201t-160 -186q-63 -56 -83 -102.5t-21 -147.5h-221q0 164 32.5 242.5t139.5 173.5q58 52 81 98t23 109q0 92 -44.5 145t-121.5 53t-127.5 -61.5t-50.5 -143.5v-32h-238zM399 0v291h246 v-291h-246z" />
<glyph unicode="@" horiz-adv-x="1638" d="M199 733q0 159 51 303t137.5 247.5t207 164.5t253.5 61q122 0 231.5 -49.5t188 -134.5t124.5 -203.5t46 -251.5q0 -157 -64 -294.5t-163.5 -216t-204.5 -78.5q-40 0 -64.5 29.5t-28.5 84.5q-90 -114 -180 -114q-110 0 -189 107.5t-79 258.5q0 203 105.5 349.5 t252.5 146.5q69 0 116 -31t87 -102l23 108h147l-98 -522q-11 -54 -11 -88q0 -39 27 -39q75 0 130.5 107.5t55.5 254.5q0 230 -125 372.5t-327 142.5q-212 0 -346.5 -172t-134.5 -443q0 -267 139 -436.5t360 -169.5q102 0 186 39.5t167 126.5h149q-110 -178 -234 -254 t-278 -76q-137 0 -259 60t-209 163t-138 246t-51 303zM645 664q0 -80 36.5 -129.5t94.5 -49.5q80 0 140.5 85.5t60.5 197.5q0 76 -38 126t-95 50q-80 0 -139.5 -84t-59.5 -196z" />
<glyph unicode="A" horiz-adv-x="1212" d="M33 0l430 1470h291l426 -1470h-275l-78 303h-444l-84 -303h-266zM451 555h307l-152 590z" />
<glyph unicode="B" horiz-adv-x="1212" d="M127 0v1470h586q173 0 272.5 -102.5t99.5 -280.5q0 -109 -34.5 -178t-112.5 -116q99 -54 142.5 -139.5t43.5 -211.5q0 -186 -104 -311q-63 -75 -144.5 -103t-238.5 -28h-510zM369 252h309q95 0 144.5 53.5t49.5 155.5q0 88 -48 136t-134 48h-321v-393zM369 895h295 q87 0 133.5 43.5t46.5 124.5q0 80 -45.5 118t-141.5 38h-288v-324z" />
<glyph unicode="C" horiz-adv-x="1212" d="M74 731q0 359 150.5 568.5t408.5 209.5q209 0 349.5 -138.5t166.5 -381.5h-252q-31 132 -92 193t-166 61q-146 0 -227.5 -135.5t-81.5 -378.5q0 -235 80 -368.5t221 -133.5q105 0 169 65t97 212h252q-104 -543 -522 -543q-257 0 -405 206t-148 564z" />
<glyph unicode="D" horiz-adv-x="1212" d="M127 0v1470h532q233 0 362.5 -185t129.5 -519q0 -164 -32 -302.5t-94 -242.5t-158 -162.5t-218 -58.5h-522zM373 252h245q131 0 204 133.5t73 372.5q0 227 -67.5 344t-213.5 117h-241v-967z" />
<glyph unicode="E" horiz-adv-x="1120" d="M127 0v1470h887v-260h-641v-309h590v-260h-590v-381h669v-260h-915z" />
<glyph unicode="F" horiz-adv-x="1026" d="M127 0v1470h858v-260h-606v-331h530v-261h-530v-618h-252z" />
<glyph unicode="G" horiz-adv-x="1306" d="M74 725q0 359 160 571.5t430 212.5q215 0 356.5 -129.5t173.5 -365.5h-254q-19 107 -94.5 175t-175.5 68q-157 0 -248.5 -143t-91.5 -389q0 -239 89.5 -371.5t250.5 -132.5q112 0 188 74t117 248h-283v250h506v-793h-168l-26 184q-89 -125 -172 -174t-205 -49 q-163 0 -289 95t-195 269t-69 400z" />
<glyph unicode="H" horiz-adv-x="1212" d="M119 0v1470h252v-557h471v557h252v-1470h-252v662h-471v-662h-252z" />
<glyph unicode="I" horiz-adv-x="466" d="M106 0v1470h252v-1470h-252z" />
<glyph unicode="J" d="M37 555h235q0 -143 12.5 -214t43 -99.5t92.5 -28.5q78 0 109.5 47.5t31.5 165.5v1044h252v-1044q0 -233 -96.5 -348t-292.5 -115q-246 0 -332 180q-32 62 -43.5 150t-11.5 262z" />
<glyph unicode="K" horiz-adv-x="1212" d="M145 0v1470h252v-598l461 598h326l-492 -602l520 -868h-323l-375 645l-117 -147v-498h-252z" />
<glyph unicode="L" horiz-adv-x="1026" d="M127 0v1470h252v-1204h600v-266h-852z" />
<glyph unicode="M" horiz-adv-x="1398" d="M117 0v1470h366l222 -1167l217 1167h362v-1470h-233v1247l-230 -1247h-248l-223 1247v-1247h-233z" />
<glyph unicode="N" horiz-adv-x="1212" d="M117 0v1470h264l483 -1032v1032h234v-1470h-250l-498 1055v-1055h-233z" />
<glyph unicode="O" horiz-adv-x="1306" d="M74 733q0 367 159 571.5t429 204.5q255 0 413 -207t158 -567q0 -362 -158.5 -568t-421.5 -206q-266 0 -422.5 207t-156.5 565zM326 739q0 -243 86.5 -380.5t240.5 -137.5t241 138t87 382q0 232 -88.5 370t-235.5 138q-155 0 -243 -136t-88 -374z" />
<glyph unicode="P" horiz-adv-x="1120" d="M127 0v1470h551q170 0 272.5 -124.5t102.5 -331.5q0 -218 -105 -350t-280 -132h-289v-532h-252zM379 784h233q189 0 189 224q0 114 -51 162.5t-170 48.5h-201v-435z" />
<glyph unicode="Q" horiz-adv-x="1306" d="M74 735q0 361 157.5 567.5t421.5 206.5q263 0 421.5 -206t158.5 -570q0 -163 -29.5 -283.5t-97.5 -238.5l131 -152l-133 -165l-141 165q-148 -98 -312 -98q-262 0 -419.5 206t-157.5 568zM326 743q0 -245 86.5 -383.5t238.5 -138.5q69 0 137 39l-120 139l129 166 l129 -145q55 138 55 315q0 238 -88 376t-240 138q-151 0 -239 -137t-88 -369z" />
<glyph unicode="R" horiz-adv-x="1212" d="M127 0v1470h608q173 0 277 -113.5t104 -303.5q0 -122 -46 -213t-140 -135q68 -37 98.5 -80.5t42.5 -123t12 -239.5q0 -125 9.5 -165.5t44.5 -57.5v-39h-279q-29 135 -29 295q0 58 -3.5 100t-8.5 72.5t-18 49.5t-25.5 31t-37 17t-45 6.5t-58.5 1.5h-260v-573h-246z M373 823h297q100 0 147 48t47 149q0 95 -45.5 147t-130.5 52h-315v-396z" />
<glyph unicode="S" horiz-adv-x="1120" d="M66 453h241q8 -122 72 -181t190 -59q117 0 181.5 49.5t64.5 138.5q0 72 -46 111t-173 76l-129 37q-97 28 -164 58.5t-110.5 65t-67 81t-32.5 97t-9 122.5q0 215 122 337.5t337 122.5q217 0 339.5 -122.5t135.5 -352.5h-242q-13 117 -70.5 170t-170.5 53 q-100 0 -158 -47.5t-58 -130.5q0 -63 29 -98t98 -55l295 -88q169 -51 242.5 -144t73.5 -256q0 -221 -131.5 -349t-358.5 -128q-233 0 -363.5 125t-137.5 367z" />
<glyph unicode="T" horiz-adv-x="1026" d="M23 1210v260h981v-260h-365v-1210h-252v1210h-364z" />
<glyph unicode="U" horiz-adv-x="1212" d="M121 496v974h256v-954q0 -141 59 -218t168 -77q114 0 174 72t60 209v968h256v-956q0 -270 -125.5 -411.5t-364.5 -141.5q-230 0 -356.5 140t-126.5 395z" />
<glyph unicode="V" horiz-adv-x="1120" d="M33 1470h270l260 -1122l262 1122h262l-409 -1470h-240z" />
<glyph unicode="W" horiz-adv-x="1585" d="M27 1470h268q106 -556 140 -744.5t54 -342.5l168 1087h269l180 -1087l199 1087h256l-340 -1470h-242l-188 1157l-138 -866l-51 -291h-233z" />
<glyph unicode="X" horiz-adv-x="1120" d="M23 0l389 752l-367 718h299l215 -475l221 475h291l-369 -706l394 -764h-308l-229 502l-242 -502h-294z" />
<glyph unicode="Y" horiz-adv-x="1120" d="M25 1470h297l249 -639l240 639h285l-404 -919v-551h-252v555z" />
<glyph unicode="Z" horiz-adv-x="1026" d="M41 0v260l625 950h-609v260h924v-241l-633 -969h637v-260h-944z" />
<glyph unicode="[" horiz-adv-x="559" d="M106 -401v1880h412v-199h-207v-1483h207v-198h-412z" />
<glyph unicode="\" horiz-adv-x="466" d="M-55 1509h196l381 -1548h-196z" />
<glyph unicode="]" horiz-adv-x="559" d="M41 -203h207v1483h-207v199h412v-1880h-412v198z" />
<glyph unicode="^" horiz-adv-x="980" d="M104 662l304 768h165l304 -768h-185l-203 538l-202 -538h-183z" />
<glyph unicode="_" d="M0 -154h934v-102h-934v102z" />
<glyph unicode="`" horiz-adv-x="559" d="M-51 1532h258l158 -299h-170z" />
<glyph unicode="a" d="M49 291q0 143 68 233t194 113l211 39q82 14 82 90q0 123 -145 123q-75 0 -110 -34.5t-46 -117.5h-225q22 207 113 294t278 87q173 0 269 -83t96 -232v-590q0 -80 11 -117.5t40 -52.5v-43h-252q-16 61 -23 129q-69 -87 -132 -122.5t-150 -35.5q-129 0 -204 86t-75 234z M285 309q0 -62 30 -97.5t82 -35.5q86 0 146.5 63t60.5 152v139q-23 -21 -55.5 -33t-104.5 -26q-88 -19 -123.5 -55t-35.5 -107z" />
<glyph unicode="b" horiz-adv-x="1026" d="M102 0v1470h234v-528q53 94 113.5 135t146.5 41q169 0 272 -154t103 -407q0 -267 -102.5 -426.5t-274.5 -159.5q-178 0 -262 172v-143h-230zM328 535q0 -157 53 -242.5t151 -85.5q89 0 143 91t54 243q0 153 -53 240t-146 87q-98 0 -150 -85t-52 -248z" />
<glyph unicode="c" d="M57 530q0 277 112 432.5t312 155.5q172 0 276 -106t124 -312h-238q-17 93 -52.5 135t-98.5 42q-95 0 -144 -85t-49 -249q0 -336 178 -336q67 0 111.5 52t52.5 138h238q-26 -207 -131.5 -316.5t-278.5 -109.5q-198 0 -305 145t-107 414z" />
<glyph unicode="d" horiz-adv-x="1026" d="M57 557q0 253 103 407t272 154q86 0 146 -40.5t114 -135.5v528h234v-1470h-230v143q-84 -172 -262 -172q-172 0 -274.5 159.5t-102.5 426.5zM299 541q0 -154 53 -244t144 -90q98 0 151 84.5t53 240.5q0 160 -51 248t-145 88q-97 0 -151 -86t-54 -241z" />
<glyph unicode="e" d="M39 549q0 267 113 418t311 151q204 0 314 -156t110 -446v-51h-613q10 -136 59.5 -199t145.5 -63q121 0 156 119h242q-52 -180 -151 -265.5t-251 -85.5q-209 0 -322.5 150.5t-113.5 427.5zM281 653h364q-24 230 -184 230q-78 0 -121.5 -55.5t-58.5 -174.5z" />
<glyph unicode="f" horiz-adv-x="559" d="M16 885v205h129v88q0 161 67 236t208 75q56 0 110 -4v-232h-67q-55 0 -69.5 -21t-14.5 -99v-43h156v-205h-156v-885h-234v885h-129z" />
<glyph unicode="g" horiz-adv-x="1026" d="M68 555q0 255 101.5 409t270.5 154q93 0 154.5 -46t107.5 -150v168h226v-1033q0 -139 -28.5 -236.5t-85.5 -155t-135.5 -83.5t-186.5 -26q-177 0 -279.5 77.5t-126.5 249.5h256q11 -58 46.5 -83t109.5 -25q103 0 148.5 58.5t45.5 189.5v141q-46 -95 -99 -132.5 t-142 -37.5q-177 0 -280 151t-103 410zM309 547q0 -146 50 -228.5t139 -82.5q94 0 145 81.5t51 229.5q0 143 -54 232t-142 89t-138.5 -86t-50.5 -235z" />
<glyph unicode="h" horiz-adv-x="1026" d="M109 0v1470h233v-530q72 178 268 178q140 0 224 -99t84 -265v-754h-234v662q0 114 -36 164.5t-116 50.5q-88 0 -139 -67.5t-51 -184.5v-625h-233z" />
<glyph unicode="i" horiz-adv-x="466" d="M117 0v1090h233v-1090h-233zM119 1266v235h233v-235h-233z" />
<glyph unicode="j" horiz-adv-x="466" d="M4 -209h43q37 0 53.5 23t16.5 77v1199h233v-1205q0 -183 -61.5 -253t-222.5 -70h-62v229zM119 1266v235h233v-235h-233z" />
<glyph unicode="k" d="M117 0v1470h233v-794l295 414h289l-316 -422l326 -668h-282l-213 467l-99 -123v-344h-233z" />
<glyph unicode="l" horiz-adv-x="466" d="M117 0v1470h233v-1470h-233z" />
<glyph unicode="m" horiz-adv-x="1492" d="M106 0v1090h226v-166q41 101 104 147.5t158 46.5q85 0 136.5 -37t105.5 -137q52 95 109 134.5t140 39.5q135 0 218 -100.5t83 -263.5v-754h-233v662q0 215 -133 215q-76 0 -117 -58t-41 -166v-653h-233v655q0 123 -31.5 172.5t-108.5 49.5q-149 0 -149 -213v-664h-234z " />
<glyph unicode="n" horiz-adv-x="1026" d="M109 0v1090h225v-166q47 101 113 147.5t161 46.5q141 0 225.5 -98.5t84.5 -265.5v-754h-234v662q0 114 -36 164.5t-116 50.5q-88 0 -139 -67.5t-51 -184.5v-625h-233z" />
<glyph unicode="o" horiz-adv-x="1026" d="M57 543q0 264 125 419.5t338 155.5q204 0 327.5 -157.5t123.5 -417.5q0 -259 -125 -415.5t-332 -156.5t-332 156.5t-125 415.5zM299 545q0 -161 55.5 -246.5t159.5 -85.5t159.5 85.5t55.5 246.5q0 160 -55 246t-158 86q-106 0 -161.5 -84.5t-55.5 -247.5z" />
<glyph unicode="p" horiz-adv-x="1026" d="M104 -424v1514h226v-164q51 103 112 147.5t152 44.5q170 0 273.5 -154t103.5 -407q0 -268 -103 -427t-276 -159q-91 0 -149.5 40t-104.5 134v-569h-234zM330 532q0 -157 52 -241t150 -84q91 0 144 91t53 245q0 152 -53.5 238.5t-147.5 86.5q-198 0 -198 -336z" />
<glyph unicode="q" horiz-adv-x="1026" d="M57 535q0 261 108 422t281 161q90 0 150 -46t106 -150v168h226v-1514h-234v565q-44 -91 -104 -130.5t-152 -39.5q-172 0 -276.5 155t-104.5 409zM299 528q0 -155 51 -235t148 -80q96 0 148 85t52 241q0 152 -54 240.5t-146 88.5q-95 0 -147 -89t-52 -251z" />
<glyph unicode="r" horiz-adv-x="653" d="M106 0v1090h226v-195q53 125 107.5 174t140.5 49q20 0 47 -4v-291q-32 4 -60 4q-115 0 -171 -64t-56 -196v-567h-234z" />
<glyph unicode="s" d="M51 348h242q3 -82 49 -120t141 -38q71 0 112.5 30.5t41.5 82.5q0 42 -47.5 71.5t-147.5 49.5q-186 35 -272 115t-86 217q0 168 99 265t272 97q177 0 272 -81.5t119 -278.5h-232q-12 79 -47 110t-112 31q-142 0 -142 -102q0 -44 45.5 -72t147.5 -47q192 -37 279 -120.5 t87 -217.5q0 -172 -106 -270.5t-291 -98.5q-188 0 -296.5 88t-127.5 289z" />
<glyph unicode="t" horiz-adv-x="559" d="M16 885v205h121v294h234v-294h147v-205h-147v-592q0 -57 17 -72.5t79 -15.5q24 0 51 4v-217q-80 -4 -112 -4h-31q-129 0 -183.5 53t-54.5 182v662h-121z" />
<glyph unicode="u" horiz-adv-x="1026" d="M111 373v717h233v-676q0 -98 38.5 -149.5t113.5 -51.5q87 0 136.5 66t49.5 182v629h233v-1090h-225v160q-46 -97 -113 -143t-165 -46q-145 0 -223 105t-78 297z" />
<glyph unicode="v" d="M23 1090h262l186 -811l191 811h249l-321 -1090h-248z" />
<glyph unicode="w" horiz-adv-x="1306" d="M16 1090h250l142 -793l129 793h235l137 -793l142 793h241l-258 -1090h-241l-142 805l-141 -805h-242z" />
<glyph unicode="x" d="M25 0l305 555l-293 535h285l151 -318l150 318h276l-295 -535l305 -555h-291l-155 328l-154 -328h-284z" />
<glyph unicode="y" d="M16 1090h263l192 -811l184 811h250l-307 -1072q-52 -183 -81.5 -263t-57.5 -117q-31 -41 -77 -58.5t-124 -17.5l-113 4v229q32 -4 50 -4q75 0 104.5 32t46.5 132z" />
<glyph unicode="z" horiz-adv-x="839" d="M33 0v223l461 637h-428v230h725v-236l-453 -618h469v-236h-774z" />
<glyph unicode="{" horiz-adv-x="653" d="M80 444v189q75 6 116.5 46t41.5 109v410q0 121 67 201t168 80h139v-181h-75q-50 0 -72.5 -32.5t-22.5 -102.5v-401q0 -84 -52.5 -144.5t-147.5 -78.5q94 -18 147 -80t53 -144v-401q0 -70 22.5 -102.5t72.5 -32.5h75v-180h-139q-101 0 -168 79.5t-67 200.5v410 q0 69 -41 109t-117 46z" />
<glyph unicode="|" horiz-adv-x="471" d="M147 -401v1880h177v-1880h-177z" />
<glyph unicode="}" horiz-adv-x="653" d="M41 -221h76q49 0 71.5 32t22.5 103v401q0 82 53.5 144t147.5 80q-95 18 -148 79t-53 144v401q0 71 -22.5 103t-71.5 32h-76v181h139q101 0 168.5 -80.5t67.5 -200.5v-410q0 -69 41 -109t116 -46v-189q-76 -6 -116.5 -46t-40.5 -109v-410q0 -120 -67.5 -200t-168.5 -80 h-139v180z" />
<glyph unicode="~" horiz-adv-x="980" d="M102 496q53 106 102 149t118 43q38 0 162 -52t165 -52q40 0 65 16t50 57l115 -110q-53 -106 -102 -149.5t-118 -43.5q-37 0 -162 52.5t-165 52.5t-65 -16.5t-50 -59.5z" />
<glyph unicode="&#xa1;" horiz-adv-x="559" d="M150 -6l67 688h123l68 -688v-375h-258v375zM156 799v291h245v-291h-245z" />
<glyph unicode="&#xa2;" d="M57 526q0 283 112 437.5t316 154.5q35 0 76 -6l41 174h86l-45 -201q217 -96 238 -385h-238q-18 98 -57 140l-148 -625q16 -8 41 -8q66 0 111 52.5t51 137.5h238q-26 -207 -131.5 -316.5t-278.5 -109.5q-47 0 -84 9l-51 -222h-88l57 246q-127 67 -186.5 193.5t-59.5 328.5 zM299 543q0 -104 14 -167t49 -112l144 613h-21q-89 0 -137.5 -86.5t-48.5 -247.5z" />
<glyph unicode="&#xa3;" d="M47 657v123h98q-42 109 -55.5 163.5t-13.5 113.5q0 181 113 297t288 116q186 0 291 -118t115 -355h-219q-14 104 -39 158t-56.5 70t-85.5 16q-77 0 -124.5 -52.5t-47.5 -137.5q0 -33 13.5 -78t68.5 -193h240v-123h-201q8 -63 8 -110q0 -98 -39.5 -171.5t-140.5 -174.5 q72 34 115.5 46.5t89.5 12.5q33 0 114 -25.5t93 -25.5q72 0 168 74l69 -224q-129 -92 -250 -92q-79 0 -208 53q-73 29 -121 29q-34 0 -65.5 -12.5t-119.5 -59.5l-92 199q80 56 133.5 141.5t53.5 157.5q0 81 -37 182h-156z" />
<glyph unicode="&#xa4;" d="M90 545q0 109 57 200l-28 27l125 125l26 -29q92 58 201 58t201 -58l26 29l125 -125l-28 -27q57 -91 57 -200q0 -110 -57 -201l28 -27l-125 -124l-26 28q-91 -57 -201 -57t-201 57l-26 -28l-125 124l28 27q-57 91 -57 201zM266 545q0 -85 60 -145t145 -60t145 60t60 145 t-60 145t-145 60t-145 -60t-60 -145z" />
<glyph unicode="&#xa5;" d="M-14 1430h252l239 -603l232 603h239l-252 -601h226v-122h-279l-63 -152h342v-123h-344v-432h-211v432h-340v123h340l-68 152h-272v122h219z" />
<glyph unicode="&#xa6;" horiz-adv-x="471" d="M147 350h177v-751h-177v751zM147 727v752h177v-752h-177z" />
<glyph unicode="&#xa7;" d="M57 602q0 94 35 157t121 126q-86 108 -86 239q0 158 96.5 261.5t245.5 103.5q307 0 336 -375h-213q-8 80 -39.5 118t-89.5 38q-54 0 -88.5 -33t-34.5 -84q0 -64 63 -104l273 -166q201 -125 201 -314q0 -90 -42.5 -167.5t-117.5 -127.5q55 -60 79.5 -123t24.5 -145 q0 -169 -102.5 -276t-263.5 -107q-154 0 -245 99.5t-104 283.5h222q9 -85 43.5 -124.5t99.5 -39.5q57 0 91 40t34 106q0 43 -21.5 73t-76.5 64l-258 160q-99 62 -141 134.5t-42 182.5zM256 659q0 -68 78 -120l262 -172q72 52 72 131q0 76 -95 135l-245 151q-32 -17 -52 -51 t-20 -74z" />
<glyph unicode="&#xa8;" horiz-adv-x="559" d="M12 1266v235h197v-235h-197zM350 1266v235h197v-235h-197z" />
<glyph unicode="&#xa9;" horiz-adv-x="1236" d="M41 674q0 186 71 348t205 263t301 101q126 0 235.5 -59t183.5 -157.5t116.5 -227.5t42.5 -268t-42.5 -268t-116.5 -227.5t-183.5 -158t-235.5 -59.5q-167 0 -301 101t-205 263.5t-71 348.5zM156 674q0 -156 55 -291.5t162.5 -221t244.5 -85.5q104 0 192 50t146.5 133 t91.5 191t33 224t-33 224t-91.5 191t-146.5 133t-192 50q-137 0 -244.5 -85.5t-162.5 -221t-55 -291.5zM299 672q0 191 89.5 303t240.5 112q128 0 212.5 -79t94.5 -215h-168q-15 67 -47 99t-88 32q-78 0 -120 -66.5t-42 -185.5q0 -115 41.5 -180.5t116.5 -65.5q56 0 89 33.5 t50 109.5h170q-59 -307 -311 -307q-152 0 -240 110t-88 300z" />
<glyph unicode="&#xaa;" horiz-adv-x="620" d="M37 1012q0 85 46.5 142.5t125.5 70.5l139 22q29 5 41 15t12 32q0 68 -94 68q-49 0 -71.5 -18t-30.5 -64h-148q15 123 74 176t180 53q114 0 176 -49.5t62 -140.5v-354q0 -87 35 -101v-26h-164q-8 27 -14 77q-44 -52 -85.5 -73t-99.5 -21q-85 0 -134.5 51.5t-49.5 139.5z M53 565v164h508v-164h-508zM195 1024q0 -35 18.5 -55.5t52.5 -20.5q57 0 96 37t39 90v82q-16 -12 -54 -22.5t-69.5 -19t-57 -31.5t-25.5 -60z" />
<glyph unicode="&#xab;" d="M147 451v245l281 295v-237l-168 -181l168 -180v-237zM506 451v245l280 295v-237l-168 -181l168 -180v-237z" />
<glyph unicode="&#xac;" horiz-adv-x="980" d="M117 608v176h747v-456h-176v280h-571z" />
<glyph unicode="&#xad;" horiz-adv-x="559" d="M45 440v267h469v-267h-469z" />
<glyph unicode="&#xae;" horiz-adv-x="1236" d="M41 674q0 186 71 348t205 263t301 101q126 0 235.5 -59t183.5 -157.5t116.5 -227.5t42.5 -268t-42.5 -268t-116.5 -227.5t-183.5 -158t-235.5 -59.5q-167 0 -301 101t-205 263.5t-71 348.5zM156 674q0 -156 55 -291.5t162.5 -221t244.5 -85.5q104 0 192 50t146.5 133 t91.5 191t33 224t-33 224t-91.5 191t-146.5 133t-192 50q-137 0 -244.5 -85.5t-162.5 -221t-55 -291.5zM319 283v784h359q104 0 166.5 -62.5t62.5 -166.5q0 -124 -90 -179q43 -27 57.5 -71.5t14.5 -157.5q0 -65 4 -81.5t25 -22.5v-43h-181q-20 82 -20 166q0 62 -9.5 89 t-27.5 33.5t-62 6.5h-133v-295h-166zM485 733h156q50 0 73 21t23 67q0 43 -22.5 66.5t-63.5 23.5h-166v-178z" />
<glyph unicode="&#xaf;" horiz-adv-x="559" d="M-10 1309v149h579v-149h-579z" />
<glyph unicode="&#xb0;" horiz-adv-x="671" d="M96 1165q0 121 71 207t171 86q97 0 167 -86.5t70 -206.5q0 -121 -70.5 -207t-168.5 -86q-99 0 -169.5 86t-70.5 207zM190 1165q0 -72 43 -124t103 -52t102.5 52t42.5 124q0 71 -42.5 123.5t-100.5 52.5q-62 0 -105 -51.5t-43 -124.5z" />
<glyph unicode="&#xb1;" horiz-adv-x="980" d="M117 0v176h747v-176h-747zM117 600v176h286v287h177v-287h284v-176h-284v-266h-177v266h-286z" />
<glyph unicode="&#xb2;" horiz-adv-x="559" d="M14 580q7 135 56 214.5t192 192.5q69 59 95 104.5t26 108.5q0 49 -30 84t-72 35q-55 0 -80.5 -41t-30.5 -135h-147q12 336 256 336q117 0 190.5 -83.5t73.5 -215.5q0 -109 -36.5 -168.5t-164.5 -159.5q-92 -72 -111 -104h314v-168h-531z" />
<glyph unicode="&#xb3;" horiz-adv-x="559" d="M14 870h150q2 -83 28.5 -122t81.5 -39q109 0 109 145q0 71 -36.5 99t-129.5 28v131h25q66 0 94.5 25t28.5 82q0 52 -24 79t-69 27q-99 0 -102 -127h-141q3 141 69 211t183 70q110 0 176.5 -65.5t66.5 -174.5q0 -120 -96 -174q119 -49 119 -209q0 -132 -75 -216.5 t-193 -84.5q-123 0 -189 72.5t-76 242.5z" />
<glyph unicode="&#xb4;" horiz-adv-x="559" d="M195 1233l157 299h258l-245 -299h-170z" />
<glyph unicode="&#xb5;" horiz-adv-x="1026" d="M111 -424v1514h233v-676q0 -98 38.5 -149.5t113.5 -51.5q87 0 136.5 66t49.5 182v629h233v-1090h-225v160q-88 -189 -223 -189q-75 0 -123 54v-449h-233z" />
<glyph unicode="&#xb6;" d="M-14 1071q0 184 101 273.5t308 89.5h510v-1825h-188v1651h-170v-1651h-189v1102q-191 9 -281.5 100t-90.5 260z" />
<glyph unicode="&#xb7;" horiz-adv-x="466" d="M106 512q0 52 37 89.5t90 37.5t90 -37.5t37 -89.5t-37 -89.5t-90 -37.5t-90 37.5t-37 89.5z" />
<glyph unicode="&#xb8;" horiz-adv-x="559" d="M10 -440l37 98q90 -33 127 -33q38 0 59 28t21 64q0 31 -19 52.5t-47 21.5q-19 0 -65 -16l-35 41l92 188h99l-56 -121h41q65 0 106.5 -44.5t41.5 -114.5q0 -92 -59.5 -154t-153.5 -62q-43 0 -81.5 10.5t-107.5 41.5z" />
<glyph unicode="&#xb9;" horiz-adv-x="559" d="M43 1176v127h23q176 0 188 151h143v-874h-170v596h-184z" />
<glyph unicode="&#xba;" horiz-adv-x="612" d="M10 1165q0 155 83 249.5t218 94.5q129 0 211 -96.5t82 -247.5q0 -152 -82.5 -248t-214.5 -96t-214.5 95t-82.5 249zM55 565v164h502v-164h-502zM174 1165q0 -87 37 -141.5t96 -54.5t96 54.5t37 141.5q0 86 -37 141.5t-94 55.5q-61 0 -98 -54.5t-37 -142.5z" />
<glyph unicode="&#xbb;" d="M147 156v237l168 180l-168 181v237l281 -295v-245zM506 156v237l168 180l-168 181v237l280 -295v-245z" />
<glyph unicode="&#xbc;" horiz-adv-x="1400" d="M43 1176v127h23q176 0 188 151h143v-874h-170v596h-184zM227 -51l719 1505h131l-717 -1505h-133zM735 184v150l285 534h182v-544h84v-140h-84v-184h-160v184h-307zM856 322h197v380z" />
<glyph unicode="&#xbd;" horiz-adv-x="1400" d="M43 1176v127h23q176 0 188 151h143v-874h-170v596h-184zM227 -51l719 1505h131l-717 -1505h-133zM805 0q6 135 54.5 215t191.5 193q69 58 94.5 104t25.5 109q0 49 -29.5 83.5t-72.5 34.5q-54 0 -79.5 -42t-28.5 -134h-148q3 169 69.5 252.5t184.5 83.5q117 0 190.5 -83.5 t73.5 -215.5q0 -108 -37 -169t-164 -159q-84 -67 -110 -104h313v-168h-528z" />
<glyph unicode="&#xbe;" horiz-adv-x="1400" d="M27 870h151l-2 -22q0 -63 31 -101t82 -38q53 0 80.5 37.5t27.5 107.5q0 71 -36.5 99t-131.5 28v131h25q66 0 94.5 25t28.5 82q0 106 -92 106q-100 0 -103 -127h-143q15 281 252 281q110 0 178 -66.5t68 -173.5q0 -120 -97 -174q121 -49 121 -209q0 -134 -75 -217.5 t-195 -83.5q-121 0 -189 73t-75 242zM301 -51l719 1505h131l-717 -1505h-133zM791 184v150l284 534h182v-544h84v-140h-84v-184h-159v184h-307zM909 324h193v370z" />
<glyph unicode="&#xbf;" horiz-adv-x="1026" d="M92 27q0 119 43 201t160 186q63 56 83 102.5t21 147.5h222q0 -164 -32.5 -242.5t-139.5 -173.5q-59 -53 -82 -98.5t-23 -108.5q0 -92 44.5 -145.5t121.5 -53.5t127.5 61.5t50.5 143.5v33h238q0 -232 -110.5 -355.5t-297.5 -123.5q-192 0 -309 117t-117 309zM381 799v291 h246v-291h-246z" />
<glyph unicode="&#xc0;" horiz-adv-x="1212" d="M33 0l430 1470h291l426 -1470h-275l-78 303h-444l-84 -303h-266zM274 1872h269l147 -258h-160zM451 555h307l-152 590z" />
<glyph unicode="&#xc1;" horiz-adv-x="1212" d="M33 0l430 1470h291l426 -1470h-275l-78 303h-444l-84 -303h-266zM451 555h307l-152 590zM528 1614l148 258h268l-256 -258h-160z" />
<glyph unicode="&#xc2;" horiz-adv-x="1212" d="M33 0l430 1470h291l426 -1470h-275l-78 303h-444l-84 -303h-266zM291 1614l211 258h211l211 -258h-191l-127 127l-125 -127h-190zM451 555h307l-152 590z" />
<glyph unicode="&#xc3;" horiz-adv-x="1212" d="M33 0l430 1470h291l426 -1470h-275l-78 303h-444l-84 -303h-266zM301 1614q22 129 71.5 190.5t131.5 61.5q13 0 113.5 -37t111.5 -37q32 0 50.5 19.5t29.5 62.5h109q-40 -246 -181 -246q-23 0 -127.5 37t-124.5 37q-58 0 -77 -88h-107zM451 555h307l-152 590z" />
<glyph unicode="&#xc4;" horiz-adv-x="1212" d="M33 0l430 1470h291l426 -1470h-275l-78 303h-444l-84 -303h-266zM342 1626v236h197v-236h-197zM451 555h307l-152 590zM680 1626v236h197v-236h-197z" />
<glyph unicode="&#xc5;" horiz-adv-x="1212" d="M33 0l430 1470h291l426 -1470h-275l-78 303h-444l-84 -303h-266zM397 1786q0 71 64 124.5t149 53.5t149 -54.5t64 -127.5q0 -72 -63.5 -126t-149.5 -54t-149.5 54.5t-63.5 129.5zM451 555h307l-152 590zM504 1784q0 -37 31 -62.5t75 -25.5t75.5 25.5t31.5 60.5 q0 37 -31.5 62.5t-75.5 25.5q-43 0 -74.5 -25.5t-31.5 -60.5z" />
<glyph unicode="&#xc6;" horiz-adv-x="1679" d="M8 0l441 1470h1140v-260h-622v-309h561v-260h-561v-381h635v-260h-881v313h-361l-88 -313h-264zM426 555h295v655h-109z" />
<glyph unicode="&#xc7;" horiz-adv-x="1212" d="M74 731q0 359 150.5 568.5t408.5 209.5q209 0 349.5 -138.5t166.5 -381.5h-252q-31 132 -92 193t-166 61q-146 0 -227.5 -135.5t-81.5 -378.5q0 -235 80 -368.5t221 -133.5q105 0 169 65t97 212h252q-99 -516 -479 -541l-37 -80h41q65 0 106 -44.5t41 -114.5 q0 -92 -59.5 -154t-153.5 -62q-43 0 -81 10.5t-107 41.5l37 98q90 -33 127 -33q38 0 59 28t21 64q0 31 -19 52.5t-47 21.5q-20 0 -66 -16l-34 41l71 147q-231 23 -363 227t-132 541z" />
<glyph unicode="&#xc8;" horiz-adv-x="1120" d="M127 0v1470h887v-260h-641v-309h590v-260h-590v-381h669v-260h-915zM238 1872h268l147 -258h-159z" />
<glyph unicode="&#xc9;" horiz-adv-x="1120" d="M127 0v1470h887v-260h-641v-309h590v-260h-590v-381h669v-260h-915zM492 1614l147 258h268l-256 -258h-159z" />
<glyph unicode="&#xca;" horiz-adv-x="1120" d="M127 0v1470h887v-260h-641v-309h590v-260h-590v-381h669v-260h-915zM254 1614l211 258h211l211 -258h-191l-127 127l-125 -127h-190z" />
<glyph unicode="&#xcb;" horiz-adv-x="1120" d="M127 0v1470h887v-260h-641v-309h590v-260h-590v-381h669v-260h-915zM305 1626v236h197v-236h-197zM643 1626v236h197v-236h-197z" />
<glyph unicode="&#xcc;" horiz-adv-x="466" d="M-57 1872h268l147 -258h-159zM106 0v1470h252v-1470h-252z" />
<glyph unicode="&#xcd;" horiz-adv-x="466" d="M106 0v1470h252v-1470h-252zM109 1614l147 258h268l-256 -258h-159z" />
<glyph unicode="&#xce;" horiz-adv-x="466" d="M-84 1614l211 258h211l211 -258h-191l-127 127l-125 -127h-190zM106 0v1470h252v-1470h-252z" />
<glyph unicode="&#xcf;" horiz-adv-x="466" d="M-33 1626v236h197v-236h-197zM106 0v1470h252v-1470h-252zM305 1626v236h197v-236h-197z" />
<glyph unicode="&#xd0;" horiz-adv-x="1212" d="M-8 649v252h135v569h532q233 0 362.5 -184.5t129.5 -517.5q0 -222 -54.5 -392.5t-169.5 -273t-278 -102.5h-522v649h-135zM373 252h248q129 0 201.5 133t72.5 371q0 235 -69 349t-210 114h-243v-318h280v-252h-280v-397z" />
<glyph unicode="&#xd1;" horiz-adv-x="1212" d="M117 0v1470h264l483 -1032v1032h234v-1470h-250l-498 1055v-1055h-233zM301 1614q22 129 71.5 190.5t131.5 61.5q13 0 113.5 -37t111.5 -37q32 0 50.5 19.5t29.5 62.5h109q-40 -246 -181 -246q-23 0 -127.5 37t-124.5 37q-58 0 -77 -88h-107z" />
<glyph unicode="&#xd2;" horiz-adv-x="1306" d="M74 733q0 367 159 571.5t429 204.5q255 0 413 -207t158 -567q0 -362 -158.5 -568t-421.5 -206q-266 0 -422.5 207t-156.5 565zM326 739q0 -243 86.5 -380.5t240.5 -137.5t241 138t87 382q0 232 -88.5 370t-235.5 138q-155 0 -243 -136t-88 -374zM328 1872h268l147 -258 h-159z" />
<glyph unicode="&#xd3;" horiz-adv-x="1306" d="M74 733q0 367 159 571.5t429 204.5q255 0 413 -207t158 -567q0 -362 -158.5 -568t-421.5 -206q-266 0 -422.5 207t-156.5 565zM326 739q0 -243 86.5 -380.5t240.5 -137.5t241 138t87 382q0 232 -88.5 370t-235.5 138q-155 0 -243 -136t-88 -374zM582 1614l147 258h268 l-256 -258h-159z" />
<glyph unicode="&#xd4;" horiz-adv-x="1306" d="M74 733q0 367 159 571.5t429 204.5q255 0 413 -207t158 -567q0 -362 -158.5 -568t-421.5 -206q-266 0 -422.5 207t-156.5 565zM326 739q0 -243 86.5 -380.5t240.5 -137.5t241 138t87 382q0 232 -88.5 370t-235.5 138q-155 0 -243 -136t-88 -374zM344 1614l211 258h211 l211 -258h-191l-127 127l-124 -127h-191z" />
<glyph unicode="&#xd5;" horiz-adv-x="1306" d="M74 733q0 367 159 571.5t429 204.5q255 0 413 -207t158 -567q0 -362 -158.5 -568t-421.5 -206q-266 0 -422.5 207t-156.5 565zM326 739q0 -243 86.5 -380.5t240.5 -137.5t241 138t87 382q0 232 -88.5 370t-235.5 138q-155 0 -243 -136t-88 -374zM354 1614 q22 129 71.5 190.5t131.5 61.5q13 0 113.5 -37t111.5 -37q32 0 50.5 19.5t29.5 62.5h109q-41 -246 -180 -246q-23 0 -127.5 37t-124.5 37q-59 0 -78 -88h-107z" />
<glyph unicode="&#xd6;" horiz-adv-x="1306" d="M74 733q0 367 159 571.5t429 204.5q255 0 413 -207t158 -567q0 -362 -158.5 -568t-421.5 -206q-266 0 -422.5 207t-156.5 565zM326 739q0 -243 86.5 -380.5t240.5 -137.5t241 138t87 382q0 232 -88.5 370t-235.5 138q-155 0 -243 -136t-88 -374zM395 1626v236h197v-236 h-197zM733 1626v236h197v-236h-197z" />
<glyph unicode="&#xd7;" horiz-adv-x="980" d="M164 311l203 203l-203 201l125 125l203 -203l200 203l125 -125l-201 -201l201 -203l-125 -125l-200 203l-203 -203z" />
<glyph unicode="&#xd8;" horiz-adv-x="1306" d="M55 23l144 190q-66 115 -95.5 235.5t-29.5 282.5q0 364 157 571t420 207q112 0 204 -39t187 -127l138 183l69 -78l-141 -188q67 -117 96 -237.5t29 -283.5q0 -365 -158 -571.5t-422 -206.5q-114 0 -206.5 39.5t-182.5 128.5l-139 -184zM326 733q0 -164 45 -287l510 682 q-52 64 -106 92.5t-122 28.5q-152 0 -239.5 -138.5t-87.5 -377.5zM424 344q51 -64 105.5 -93.5t123.5 -29.5q152 0 240 138t88 376q0 173 -47 291z" />
<glyph unicode="&#xd9;" horiz-adv-x="1212" d="M121 496v974h256v-954q0 -141 59 -218t168 -77q114 0 174 72t60 209v968h256v-956q0 -270 -125.5 -411.5t-364.5 -141.5q-230 0 -356.5 140t-126.5 395zM274 1872h269l147 -258h-160z" />
<glyph unicode="&#xda;" horiz-adv-x="1212" d="M121 496v974h256v-954q0 -141 59 -218t168 -77q114 0 174 72t60 209v968h256v-956q0 -270 -125.5 -411.5t-364.5 -141.5q-230 0 -356.5 140t-126.5 395zM528 1614l148 258h268l-256 -258h-160z" />
<glyph unicode="&#xdb;" horiz-adv-x="1212" d="M121 496v974h256v-954q0 -141 59 -218t168 -77q114 0 174 72t60 209v968h256v-956q0 -270 -125.5 -411.5t-364.5 -141.5q-230 0 -356.5 140t-126.5 395zM291 1614l211 258h211l211 -258h-191l-127 127l-125 -127h-190z" />
<glyph unicode="&#xdc;" horiz-adv-x="1212" d="M121 496v974h256v-954q0 -141 59 -218t168 -77q114 0 174 72t60 209v968h256v-956q0 -270 -125.5 -411.5t-364.5 -141.5q-230 0 -356.5 140t-126.5 395zM342 1626v236h197v-236h-197zM680 1626v236h197v-236h-197z" />
<glyph unicode="&#xdd;" horiz-adv-x="1120" d="M25 1470h297l249 -639l240 639h285l-404 -919v-551h-252v555zM487 1614l148 258h268l-256 -258h-160z" />
<glyph unicode="&#xde;" horiz-adv-x="1120" d="M127 0v1470h252v-200h299q170 0 272.5 -126t102.5 -337q0 -218 -105 -349.5t-280 -131.5h-289v-326h-252zM379 578h233q96 0 142.5 55t46.5 170q0 114 -52 164.5t-169 50.5h-201v-440z" />
<glyph unicode="&#xdf;" horiz-adv-x="1026" d="M117 0v1104q0 181 106.5 287t288.5 106q185 0 289 -103t104 -286t-123 -266q104 -65 147.5 -148t43.5 -221q0 -230 -110 -366t-296 -136q-29 0 -98 13v225h8q8 -2 41 -2q107 0 163 64t56 188q0 129 -56.5 184.5t-199.5 67.5v198q108 5 148.5 42.5t40.5 133.5 q0 88 -43 135.5t-121 47.5q-72 0 -114 -49t-42 -134v-1085h-233z" />
<glyph unicode="&#xe0;" d="M49 291q0 143 68 233t194 113l211 39q82 14 82 90q0 123 -145 123q-75 0 -110 -34.5t-46 -117.5h-225q22 207 113 294t278 87q173 0 269 -83t96 -232v-590q0 -80 11 -117.5t40 -52.5v-43h-252q-16 61 -23 129q-69 -87 -132 -122.5t-150 -35.5q-129 0 -204 86t-75 234z M139 1532h258l158 -299h-170zM285 309q0 -62 30 -97.5t82 -35.5q86 0 146.5 63t60.5 152v139q-23 -21 -55.5 -33t-104.5 -26q-88 -19 -123.5 -55t-35.5 -107z" />
<glyph unicode="&#xe1;" d="M49 291q0 143 68 233t194 113l211 39q82 14 82 90q0 123 -145 123q-75 0 -110 -34.5t-46 -117.5h-225q22 207 113 294t278 87q173 0 269 -83t96 -232v-590q0 -80 11 -117.5t40 -52.5v-43h-252q-16 61 -23 129q-69 -87 -132 -122.5t-150 -35.5q-129 0 -204 86t-75 234z M285 309q0 -62 30 -97.5t82 -35.5q86 0 146.5 63t60.5 152v139q-23 -21 -55.5 -33t-104.5 -26q-88 -19 -123.5 -55t-35.5 -107zM383 1233l158 299h258l-246 -299h-170z" />
<glyph unicode="&#xe2;" d="M49 291q0 143 68 233t194 113l211 39q82 14 82 90q0 123 -145 123q-75 0 -110 -34.5t-46 -117.5h-225q22 207 113 294t278 87q173 0 269 -83t96 -232v-590q0 -80 11 -117.5t40 -52.5v-43h-252q-16 61 -23 129q-69 -87 -132 -122.5t-150 -35.5q-129 0 -204 86t-75 234z M172 1233l190 299h211l191 -299h-191l-106 168l-105 -168h-190zM285 309q0 -62 30 -97.5t82 -35.5q86 0 146.5 63t60.5 152v139q-23 -21 -55.5 -33t-104.5 -26q-88 -19 -123.5 -55t-35.5 -107z" />
<glyph unicode="&#xe3;" d="M49 291q0 143 68 233t194 113l211 39q82 14 82 90q0 123 -145 123q-75 0 -110 -34.5t-46 -117.5h-225q22 207 113 294t278 87q173 0 269 -83t96 -232v-590q0 -80 11 -117.5t40 -52.5v-43h-252q-16 61 -23 129q-69 -87 -132 -122.5t-150 -35.5q-129 0 -204 86t-75 234z M160 1253q22 129 71 190.5t131 61.5q13 0 114 -36.5t112 -36.5q32 0 50.5 19t29.5 62h108q-40 -245 -180 -245q-23 0 -127.5 36.5t-124.5 36.5q-59 0 -78 -88h-106zM285 309q0 -62 30 -97.5t82 -35.5q86 0 146.5 63t60.5 152v139q-23 -21 -55.5 -33t-104.5 -26 q-88 -19 -123.5 -55t-35.5 -107z" />
<glyph unicode="&#xe4;" d="M49 291q0 143 68 233t194 113l211 39q82 14 82 90q0 123 -145 123q-75 0 -110 -34.5t-46 -117.5h-225q22 207 113 294t278 87q173 0 269 -83t96 -232v-590q0 -80 11 -117.5t40 -52.5v-43h-252q-16 61 -23 129q-69 -87 -132 -122.5t-150 -35.5q-129 0 -204 86t-75 234z M201 1266v235h196v-235h-196zM285 309q0 -62 30 -97.5t82 -35.5q86 0 146.5 63t60.5 152v139q-23 -21 -55.5 -33t-104.5 -26q-88 -19 -123.5 -55t-35.5 -107zM539 1266v235h196v-235h-196z" />
<glyph unicode="&#xe5;" d="M49 291q0 143 68 233t194 113l211 39q82 14 82 90q0 123 -145 123q-75 0 -110 -34.5t-46 -117.5h-225q22 207 113 294t278 87q173 0 269 -83t96 -232v-590q0 -80 11 -117.5t40 -52.5v-43h-252q-16 61 -23 129q-69 -87 -132 -122.5t-150 -35.5q-129 0 -204 86t-75 234z M256 1386q0 71 64 125t149 54t149 -55t64 -128q0 -72 -63.5 -126t-149.5 -54t-149.5 54.5t-63.5 129.5zM285 309q0 -62 30 -97.5t82 -35.5q86 0 146.5 63t60.5 152v139q-23 -21 -55.5 -33t-104.5 -26q-88 -19 -123.5 -55t-35.5 -107zM362 1384q0 -37 31.5 -62.5t75.5 -25.5 t75 25.5t31 60.5q0 37 -31 62.5t-75 25.5q-43 0 -75 -25.5t-32 -60.5z" />
<glyph unicode="&#xe6;" horiz-adv-x="1492" d="M49 301q0 126 60 209t167 106l220 46q78 15 99 33t21 71q0 65 -36.5 94t-118.5 29q-75 0 -111 -37t-39 -117h-229q19 198 114.5 290.5t276.5 92.5q91 0 157.5 -28t129.5 -93q70 67 130 94t140 27q194 0 303 -158.5t109 -443.5v-51h-613q10 -136 59.5 -199t145.5 -63 q121 0 156 119h242q-52 -181 -152 -266t-254 -85q-117 0 -187.5 39t-133.5 137q-104 -176 -338 -176q-153 0 -235.5 85.5t-82.5 244.5zM285 309q0 -63 33 -98t92 -35q79 0 140.5 63.5t61.5 145.5v135q-20 -22 -55 -34t-119 -27q-89 -17 -121 -48.5t-32 -101.5zM836 653h364 q-24 230 -184 230q-78 0 -121.5 -55.5t-58.5 -174.5z" />
<glyph unicode="&#xe7;" d="M57 530q0 277 112 432.5t312 155.5q172 0 276 -106t124 -312h-238q-17 93 -52.5 135t-98.5 42q-95 0 -144 -85t-49 -249q0 -336 178 -336q67 0 111.5 52t52.5 138h238q-25 -195 -119.5 -303.5t-249.5 -120.5l-41 -90h41q65 0 106 -44.5t41 -114.5q0 -92 -59.5 -154 t-153.5 -62q-43 0 -81 10.5t-107 41.5l37 98q90 -33 127 -33q38 0 59 28t21 64q0 31 -19 52.5t-47 21.5q-19 0 -65 -16l-35 41l78 159q-171 20 -263 163.5t-92 391.5z" />
<glyph unicode="&#xe8;" d="M39 549q0 267 113 418t311 151q204 0 314 -156t110 -446v-51h-613q10 -136 59.5 -199t145.5 -63q121 0 156 119h242q-52 -180 -151 -265.5t-251 -85.5q-209 0 -322.5 150.5t-113.5 427.5zM137 1532h258l158 -299h-170zM281 653h364q-24 230 -184 230q-78 0 -121.5 -55.5 t-58.5 -174.5z" />
<glyph unicode="&#xe9;" d="M39 549q0 267 113 418t311 151q204 0 314 -156t110 -446v-51h-613q10 -136 59.5 -199t145.5 -63q121 0 156 119h242q-52 -180 -151 -265.5t-251 -85.5q-209 0 -322.5 150.5t-113.5 427.5zM281 653h364q-24 230 -184 230q-78 0 -121.5 -55.5t-58.5 -174.5zM381 1233 l158 299h258l-246 -299h-170z" />
<glyph unicode="&#xea;" d="M39 549q0 267 113 418t311 151q204 0 314 -156t110 -446v-51h-613q10 -136 59.5 -199t145.5 -63q121 0 156 119h242q-52 -180 -151 -265.5t-251 -85.5q-209 0 -322.5 150.5t-113.5 427.5zM170 1233l190 299h211l191 -299h-191l-106 168l-105 -168h-190zM281 653h364 q-24 230 -184 230q-78 0 -121.5 -55.5t-58.5 -174.5z" />
<glyph unicode="&#xeb;" d="M39 549q0 267 113 418t311 151q204 0 314 -156t110 -446v-51h-613q10 -136 59.5 -199t145.5 -63q121 0 156 119h242q-52 -180 -151 -265.5t-251 -85.5q-209 0 -322.5 150.5t-113.5 427.5zM199 1266v235h196v-235h-196zM281 653h364q-24 230 -184 230q-78 0 -121.5 -55.5 t-58.5 -174.5zM537 1266v235h196v-235h-196z" />
<glyph unicode="&#xec;" horiz-adv-x="466" d="M-66 1532h259l157 -299h-170zM117 0v1090h233v-1090h-233z" />
<glyph unicode="&#xed;" horiz-adv-x="466" d="M117 0v1090h233v-1090h-233zM117 1233l157 299h258l-245 -299h-170z" />
<glyph unicode="&#xee;" horiz-adv-x="466" d="M-63 1233l190 299h211l190 -299h-190l-107 168l-104 -168h-190zM117 0v1090h233v-1090h-233z" />
<glyph unicode="&#xef;" horiz-adv-x="466" d="M-35 1266v235h197v-235h-197zM117 0v1090h233v-1090h-233zM303 1266v235h197v-235h-197z" />
<glyph unicode="&#xf0;" horiz-adv-x="1026" d="M57 532q0 235 114.5 387t291.5 152q74 0 126 -29.5t101 -99.5q-31 80 -69 139.5t-103 128.5l-180 -96l-107 107l183 96q-72 63 -123 92l182 100q69 -37 131 -90l172 90l105 -106l-170 -90q138 -175 199 -345.5t61 -371.5q0 -284 -125 -454.5t-334 -170.5 q-204 0 -329.5 154t-125.5 407zM299 516q0 -138 59.5 -220.5t157.5 -82.5t155.5 86.5t57.5 232.5q0 132 -58.5 214.5t-152.5 82.5q-100 0 -159.5 -85t-59.5 -228z" />
<glyph unicode="&#xf1;" horiz-adv-x="1026" d="M109 0v1090h225v-166q47 101 113 147.5t161 46.5q141 0 225.5 -98.5t84.5 -265.5v-754h-234v662q0 114 -36 164.5t-116 50.5q-88 0 -139 -67.5t-51 -184.5v-625h-233zM205 1253q22 129 71.5 190.5t131.5 61.5q13 0 113.5 -36.5t111.5 -36.5q32 0 50.5 19t29.5 62h108 q-40 -245 -180 -245q-23 0 -127.5 36.5t-124.5 36.5q-59 0 -78 -88h-106z" />
<glyph unicode="&#xf2;" horiz-adv-x="1026" d="M57 543q0 264 125 419.5t338 155.5q204 0 327.5 -157.5t123.5 -417.5q0 -259 -125 -415.5t-332 -156.5t-332 156.5t-125 415.5zM182 1532h258l158 -299h-170zM299 545q0 -161 55.5 -246.5t159.5 -85.5t159.5 85.5t55.5 246.5q0 160 -55 246t-158 86q-106 0 -161.5 -84.5 t-55.5 -247.5z" />
<glyph unicode="&#xf3;" horiz-adv-x="1026" d="M57 543q0 264 125 419.5t338 155.5q204 0 327.5 -157.5t123.5 -417.5q0 -259 -125 -415.5t-332 -156.5t-332 156.5t-125 415.5zM299 545q0 -161 55.5 -246.5t159.5 -85.5t159.5 85.5t55.5 246.5q0 160 -55 246t-158 86q-106 0 -161.5 -84.5t-55.5 -247.5zM428 1233 l158 299h258l-246 -299h-170z" />
<glyph unicode="&#xf4;" horiz-adv-x="1026" d="M57 543q0 264 125 419.5t338 155.5q204 0 327.5 -157.5t123.5 -417.5q0 -259 -125 -415.5t-332 -156.5t-332 156.5t-125 415.5zM217 1233l191 299h210l191 -299h-191l-106 168l-104 -168h-191zM299 545q0 -161 55.5 -246.5t159.5 -85.5t159.5 85.5t55.5 246.5 q0 160 -55 246t-158 86q-106 0 -161.5 -84.5t-55.5 -247.5z" />
<glyph unicode="&#xf5;" horiz-adv-x="1026" d="M57 543q0 264 125 419.5t338 155.5q204 0 327.5 -157.5t123.5 -417.5q0 -259 -125 -415.5t-332 -156.5t-332 156.5t-125 415.5zM205 1253q22 129 71.5 190.5t131.5 61.5q13 0 113.5 -36.5t111.5 -36.5q32 0 50.5 19t29.5 62h108q-40 -245 -180 -245q-23 0 -127.5 36.5 t-124.5 36.5q-59 0 -78 -88h-106zM299 545q0 -161 55.5 -246.5t159.5 -85.5t159.5 85.5t55.5 246.5q0 160 -55 246t-158 86q-106 0 -161.5 -84.5t-55.5 -247.5z" />
<glyph unicode="&#xf6;" horiz-adv-x="1026" d="M57 543q0 264 125 419.5t338 155.5q204 0 327.5 -157.5t123.5 -417.5q0 -259 -125 -415.5t-332 -156.5t-332 156.5t-125 415.5zM246 1266v235h196v-235h-196zM299 545q0 -161 55.5 -246.5t159.5 -85.5t159.5 85.5t55.5 246.5q0 160 -55 246t-158 86q-106 0 -161.5 -84.5 t-55.5 -247.5zM584 1266v235h196v-235h-196z" />
<glyph unicode="&#xf7;" horiz-adv-x="980" d="M117 424v176h747v-176h-747zM365 145q0 53 36.5 90t90.5 37q52 0 89 -37t37 -90q0 -54 -36.5 -90.5t-89.5 -36.5q-54 0 -90.5 36.5t-36.5 90.5zM365 881q0 53 36.5 90t90.5 37q52 0 89 -37t37 -90q0 -54 -36.5 -90.5t-89.5 -36.5q-54 0 -90.5 36.5t-36.5 90.5z" />
<glyph unicode="&#xf8;" horiz-adv-x="1026" d="M37 0l123 158q-56 89 -79.5 178t-23.5 209q0 261 124 417t333 156q88 0 158.5 -28.5t142.5 -92.5l115 150l59 -66l-119 -151q54 -90 77.5 -178.5t23.5 -206.5q0 -261 -125 -417.5t-332 -156.5q-88 0 -158 28t-139 91l-117 -149zM299 547q0 -98 25 -180l342 438 q-64 72 -152 72q-104 0 -159.5 -85t-55.5 -245zM367 283q56 -70 145 -70q106 0 161.5 85.5t55.5 248.5q0 101 -24 172z" />
<glyph unicode="&#xf9;" horiz-adv-x="1026" d="M111 373v717h233v-676q0 -98 38.5 -149.5t113.5 -51.5q87 0 136.5 66t49.5 182v629h233v-1090h-225v160q-46 -97 -113 -143t-165 -46q-145 0 -223 105t-78 297zM182 1532h258l158 -299h-170z" />
<glyph unicode="&#xfa;" horiz-adv-x="1026" d="M111 373v717h233v-676q0 -98 38.5 -149.5t113.5 -51.5q87 0 136.5 66t49.5 182v629h233v-1090h-225v160q-46 -97 -113 -143t-165 -46q-145 0 -223 105t-78 297zM428 1233l158 299h258l-246 -299h-170z" />
<glyph unicode="&#xfb;" horiz-adv-x="1026" d="M111 373v717h233v-676q0 -98 38.5 -149.5t113.5 -51.5q87 0 136.5 66t49.5 182v629h233v-1090h-225v160q-46 -97 -113 -143t-165 -46q-145 0 -223 105t-78 297zM217 1233l191 299h210l191 -299h-191l-106 168l-104 -168h-191z" />
<glyph unicode="&#xfc;" horiz-adv-x="1026" d="M111 373v717h233v-676q0 -98 38.5 -149.5t113.5 -51.5q87 0 136.5 66t49.5 182v629h233v-1090h-225v160q-46 -97 -113 -143t-165 -46q-145 0 -223 105t-78 297zM246 1266v235h196v-235h-196zM584 1266v235h196v-235h-196z" />
<glyph unicode="&#xfd;" d="M16 1090h263l192 -811l184 811h250l-307 -1072q-52 -183 -81.5 -263t-57.5 -117q-31 -41 -77 -58.5t-124 -17.5l-113 4v229q32 -4 50 -4q75 0 104.5 32t46.5 132zM381 1233l158 299h258l-246 -299h-170z" />
<glyph unicode="&#xfe;" horiz-adv-x="1026" d="M104 -424v1894h234v-526q51 92 111.5 133t146.5 41q169 0 272 -154t103 -407q0 -268 -103 -427t-276 -159q-91 0 -149.5 40t-104.5 134v-569h-234zM328 528q0 -152 53.5 -236.5t148.5 -84.5q92 0 145.5 91t53.5 245q0 152 -53.5 238.5t-147.5 86.5q-98 0 -149 -87 t-51 -253z" />
<glyph unicode="&#xff;" d="M16 1090h263l192 -811l184 811h250l-307 -1072q-52 -183 -81.5 -263t-57.5 -117q-31 -41 -77 -58.5t-124 -17.5l-113 4v229q32 -4 50 -4q75 0 104.5 32t46.5 132zM199 1266v235h196v-235h-196zM537 1266v235h196v-235h-196z" />
<glyph unicode="&#x100;" horiz-adv-x="1212" d="M33 0l430 1470h291l426 -1470h-275l-78 303h-444l-84 -303h-266zM319 1669v150h580v-150h-580zM451 555h307l-152 590z" />
<glyph unicode="&#x101;" d="M49 291q0 143 68 233t194 113l211 39q82 14 82 90q0 123 -145 123q-75 0 -110 -34.5t-46 -117.5h-225q22 207 113 294t278 87q173 0 269 -83t96 -232v-590q0 -80 11 -117.5t40 -52.5v-43h-252q-16 61 -23 129q-69 -87 -132 -122.5t-150 -35.5q-129 0 -204 86t-75 234z M178 1309v149h580v-149h-580zM285 309q0 -62 30 -97.5t82 -35.5q86 0 146.5 63t60.5 152v139q-23 -21 -55.5 -33t-104.5 -26q-88 -19 -123.5 -55t-35.5 -107z" />
<glyph unicode="&#x102;" horiz-adv-x="1212" d="M33 0l430 1470h291l426 -1470h-275l-78 303h-444l-84 -303h-266zM303 1872h111q32 -52 74 -76t120 -24q79 0 117.5 24t56.5 76h129q-32 -123 -110 -190.5t-203 -67.5q-232 0 -295 258zM451 555h307l-152 590z" />
<glyph unicode="&#x103;" d="M49 291q0 143 68 233t194 113l211 39q82 14 82 90q0 123 -145 123q-75 0 -110 -34.5t-46 -117.5h-225q22 207 113 294t278 87q173 0 269 -83t96 -232v-590q0 -80 11 -117.5t40 -52.5v-43h-252q-16 61 -23 129q-69 -87 -132 -122.5t-150 -35.5q-129 0 -204 86t-75 234z M184 1532h111q14 -78 52.5 -109.5t121.5 -31.5q82 0 119.5 30.5t54.5 110.5h109q-15 -149 -89 -224t-204 -75q-248 0 -275 299zM285 309q0 -62 30 -97.5t82 -35.5q86 0 146.5 63t60.5 152v139q-23 -21 -55.5 -33t-104.5 -26q-88 -19 -123.5 -55t-35.5 -107z" />
<glyph unicode="&#x104;" horiz-adv-x="1212" d="M33 0l430 1470h291l426 -1470q-105 -28 -172 -117q-43 -58 -43 -106t38.5 -75.5t94.5 -27.5h82v-186h-82q-66 0 -121.5 10.5t-104 33.5t-76.5 66t-28 103q0 85 47 155.5t137 143.5h-47l-78 303h-444l-84 -303h-266zM451 555h307l-152 590z" />
<glyph unicode="&#x105;" d="M49 291q0 143 68 233t194 113l211 39q82 14 82 90q0 123 -145 123q-75 0 -110 -34.5t-46 -117.5h-225q22 207 113 294t278 87q173 0 269 -83t96 -232v-590q0 -80 11 -117.5t40 -52.5v-43q-105 -28 -172 -117q-43 -58 -43 -106t38.5 -75.5t94.5 -27.5h82v-186h-82 q-66 0 -121.5 10.5t-104 33.5t-76.5 66t-28 103q0 85 47 155.5t137 143.5h-24q-16 61 -23 129q-69 -87 -132 -122.5t-150 -35.5q-129 0 -204 86t-75 234zM285 309q0 -62 30 -97.5t82 -35.5q86 0 146.5 63t60.5 152v139q-23 -21 -55.5 -33t-104.5 -26q-88 -19 -123.5 -55 t-35.5 -107z" />
<glyph unicode="&#x106;" horiz-adv-x="1212" d="M74 731q0 359 150.5 568.5t408.5 209.5q209 0 349.5 -138.5t166.5 -381.5h-252q-31 132 -92 193t-166 61q-146 0 -227.5 -135.5t-81.5 -378.5q0 -235 80 -368.5t221 -133.5q105 0 169 65t97 212h252q-104 -543 -522 -543q-257 0 -405 206t-148 564zM553 1614l147 258h269 l-256 -258h-160z" />
<glyph unicode="&#x107;" d="M57 530q0 277 112 432.5t312 155.5q172 0 276 -106t124 -312h-238q-17 93 -52.5 135t-98.5 42q-95 0 -144 -85t-49 -249q0 -336 178 -336q67 0 111.5 52t52.5 138h238q-26 -207 -131.5 -316.5t-278.5 -109.5q-198 0 -305 145t-107 414zM381 1233l158 299h258l-246 -299 h-170z" />
<glyph unicode="&#x108;" horiz-adv-x="1212" d="M74 731q0 359 150.5 568.5t408.5 209.5q209 0 349.5 -138.5t166.5 -381.5h-252q-31 132 -92 193t-166 61q-146 0 -227.5 -135.5t-81.5 -378.5q0 -235 80 -368.5t221 -133.5q105 0 169 65t97 212h252q-104 -543 -522 -543q-257 0 -405 206t-148 564zM315 1614l211 258h211 l211 -258h-190l-127 127l-125 -127h-191z" />
<glyph unicode="&#x109;" d="M57 530q0 277 112 432.5t312 155.5q172 0 276 -106t124 -312h-238q-17 93 -52.5 135t-98.5 42q-95 0 -144 -85t-49 -249q0 -336 178 -336q67 0 111.5 52t52.5 138h238q-26 -207 -131.5 -316.5t-278.5 -109.5q-198 0 -305 145t-107 414zM170 1233l190 299h211l191 -299 h-191l-106 168l-105 -168h-190z" />
<glyph unicode="&#x10a;" horiz-adv-x="1212" d="M74 731q0 359 150.5 568.5t408.5 209.5q209 0 349.5 -138.5t166.5 -381.5h-252q-31 132 -92 193t-166 61q-146 0 -227.5 -135.5t-81.5 -378.5q0 -235 80 -368.5t221 -133.5q105 0 169 65t97 212h252q-104 -543 -522 -543q-257 0 -405 206t-148 564zM520 1626v236h234 v-236h-234z" />
<glyph unicode="&#x10b;" d="M57 530q0 277 112 432.5t312 155.5q172 0 276 -106t124 -312h-238q-17 93 -52.5 135t-98.5 42q-95 0 -144 -85t-49 -249q0 -336 178 -336q67 0 111.5 52t52.5 138h238q-26 -207 -131.5 -316.5t-278.5 -109.5q-198 0 -305 145t-107 414zM352 1266v235h234v-235h-234z" />
<glyph unicode="&#x10c;" horiz-adv-x="1212" d="M74 731q0 359 150.5 568.5t408.5 209.5q209 0 349.5 -138.5t166.5 -381.5h-252q-31 132 -92 193t-166 61q-146 0 -227.5 -135.5t-81.5 -378.5q0 -235 80 -368.5t221 -133.5q105 0 169 65t97 212h252q-104 -543 -522 -543q-257 0 -405 206t-148 564zM317 1872h191 l127 -127l125 127h190l-211 -258h-211z" />
<glyph unicode="&#x10d;" d="M57 530q0 277 112 432.5t312 155.5q172 0 276 -106t124 -312h-238q-17 93 -52.5 135t-98.5 42q-95 0 -144 -85t-49 -249q0 -336 178 -336q67 0 111.5 52t52.5 138h238q-26 -207 -131.5 -316.5t-278.5 -109.5q-198 0 -305 145t-107 414zM170 1532h190l107 -168l104 168 h191l-191 -299h-211z" />
<glyph unicode="&#x10e;" horiz-adv-x="1212" d="M127 0v1470h532q233 0 362.5 -185t129.5 -519q0 -164 -32 -302.5t-94 -242.5t-158 -162.5t-218 -58.5h-522zM299 1872h190l127 -127l125 127h191l-211 -258h-211zM373 252h245q131 0 204 133.5t73 372.5q0 227 -67.5 344t-213.5 117h-241v-967z" />
<glyph unicode="&#x10f;" horiz-adv-x="1026" d="M57 557q0 253 103 407t272 154q86 0 146 -40.5t114 -135.5v528h234v-1470h-230v143q-84 -172 -262 -172q-172 0 -274.5 159.5t-102.5 426.5zM299 541q0 -154 53 -244t144 -90q98 0 151 84.5t53 240.5q0 160 -51 248t-145 88q-97 0 -151 -86t-54 -241zM1042 965v94 q62 12 95.5 58t33.5 112v12h-129v229h222v-210q0 -131 -64 -211.5t-158 -83.5z" />
<glyph unicode="&#x110;" horiz-adv-x="1212" d="M-8 649v252h135v569h532q233 0 362.5 -184.5t129.5 -517.5q0 -222 -54.5 -392.5t-169.5 -273t-278 -102.5h-522v649h-135zM373 252h248q129 0 201.5 133t72.5 371q0 235 -69 349t-210 114h-243v-318h280v-252h-280v-397z" />
<glyph unicode="&#x111;" horiz-adv-x="1042" d="M57 557q0 253 103 407t272 154q86 0 146 -40.5t114 -135.5v262l-229 2v150h229v114h234v-114h116v-150h-116v-1206h-230v143q-84 -172 -262 -172q-172 0 -274.5 159.5t-102.5 426.5zM299 541q0 -154 53 -244t144 -90q98 0 151 84.5t53 240.5q0 160 -51 248t-145 88 q-97 0 -151 -86t-54 -241z" />
<glyph unicode="&#x112;" horiz-adv-x="1120" d="M127 0v1470h887v-260h-641v-309h590v-260h-590v-381h669v-260h-915zM283 1669v150h579v-150h-579z" />
<glyph unicode="&#x113;" d="M39 549q0 267 113 418t311 151q204 0 314 -156t110 -446v-51h-613q10 -136 59.5 -199t145.5 -63q121 0 156 119h242q-52 -180 -151 -265.5t-251 -85.5q-209 0 -322.5 150.5t-113.5 427.5zM176 1309v149h580v-149h-580zM281 653h364q-24 230 -184 230q-78 0 -121.5 -55.5 t-58.5 -174.5z" />
<glyph unicode="&#x114;" horiz-adv-x="1120" d="M127 0v1470h887v-260h-641v-309h590v-260h-590v-381h669v-260h-915zM266 1872h111q32 -52 74 -76t120 -24q79 0 117.5 24t56.5 76h129q-32 -123 -110 -190.5t-203 -67.5q-232 0 -295 258z" />
<glyph unicode="&#x115;" d="M39 549q0 267 113 418t311 151q204 0 314 -156t110 -446v-51h-613q10 -136 59.5 -199t145.5 -63q121 0 156 119h242q-52 -180 -151 -265.5t-251 -85.5q-209 0 -322.5 150.5t-113.5 427.5zM182 1532h111q14 -78 52.5 -109.5t121.5 -31.5q82 0 119.5 30.5t54.5 110.5h109 q-15 -149 -89 -224t-204 -75q-248 0 -275 299zM281 653h364q-24 230 -184 230q-78 0 -121.5 -55.5t-58.5 -174.5z" />
<glyph unicode="&#x116;" horiz-adv-x="1120" d="M127 0v1470h887v-260h-641v-309h590v-260h-590v-381h669v-260h-915zM459 1626v236h233v-236h-233z" />
<glyph unicode="&#x117;" d="M39 549q0 267 113 418t311 151q204 0 314 -156t110 -446v-51h-613q10 -136 59.5 -199t145.5 -63q121 0 156 119h242q-52 -180 -151 -265.5t-251 -85.5q-209 0 -322.5 150.5t-113.5 427.5zM281 653h364q-24 230 -184 230q-78 0 -121.5 -55.5t-58.5 -174.5zM352 1266v235 h234v-235h-234z" />
<glyph unicode="&#x118;" horiz-adv-x="1120" d="M127 0v1470h887v-260h-641v-309h590v-260h-590v-381h669v-260q-105 -28 -172 -117q-43 -58 -43 -106t38.5 -75.5t95.5 -27.5h81v-186h-81q-66 0 -121.5 10.5t-104 33.5t-76.5 66t-28 103q0 85 47 155.5t137 143.5h-688z" />
<glyph unicode="&#x119;" d="M39 549q0 267 113 418t311 151q204 0 314 -156t110 -446v-51h-613q10 -136 59.5 -199t145.5 -63q121 0 156 119h242q-53 -184 -152 -267q-47 -41 -70 -62.5t-56.5 -60.5t-48.5 -76.5t-15 -78.5q0 -48 38.5 -75.5t94.5 -27.5h82v-186h-82q-66 0 -121.5 10.5t-104 33.5 t-76.5 66t-28 103q0 77 38 141t111 129h-12q-209 0 -322.5 150.5t-113.5 427.5zM281 653h364q-24 230 -184 230q-78 0 -121.5 -55.5t-58.5 -174.5z" />
<glyph unicode="&#x11a;" horiz-adv-x="1120" d="M127 0v1470h887v-260h-641v-309h590v-260h-590v-381h669v-260h-915zM256 1872h190l127 -127l125 127h191l-211 -258h-211z" />
<glyph unicode="&#x11b;" d="M39 549q0 267 113 418t311 151q204 0 314 -156t110 -446v-51h-613q10 -136 59.5 -199t145.5 -63q121 0 156 119h242q-52 -180 -151 -265.5t-251 -85.5q-209 0 -322.5 150.5t-113.5 427.5zM170 1532h190l107 -168l104 168h191l-191 -299h-211zM281 653h364 q-24 230 -184 230q-78 0 -121.5 -55.5t-58.5 -174.5z" />
<glyph unicode="&#x11c;" horiz-adv-x="1306" d="M74 725q0 359 160 571.5t430 212.5q215 0 356.5 -129.5t173.5 -365.5h-254q-19 107 -94.5 175t-175.5 68q-157 0 -248.5 -143t-91.5 -389q0 -239 89.5 -371.5t250.5 -132.5q112 0 188 74t117 248h-283v250h506v-793h-168l-26 184q-89 -125 -172 -174t-205 -49 q-163 0 -289 95t-195 269t-69 400zM346 1614l211 258h211l211 -258h-191l-126 127l-125 -127h-191z" />
<glyph unicode="&#x11d;" horiz-adv-x="1026" d="M68 555q0 255 101.5 409t270.5 154q93 0 154.5 -46t107.5 -150v168h226v-1033q0 -139 -28.5 -236.5t-85.5 -155t-135.5 -83.5t-186.5 -26q-177 0 -279.5 77.5t-126.5 249.5h256q11 -58 46.5 -83t109.5 -25q103 0 148.5 58.5t45.5 189.5v141q-46 -95 -99 -132.5 t-142 -37.5q-177 0 -280 151t-103 410zM217 1233l191 299h210l191 -299h-191l-106 168l-104 -168h-191zM309 547q0 -146 50 -228.5t139 -82.5q94 0 145 81.5t51 229.5q0 143 -54 232t-142 89t-138.5 -86t-50.5 -235z" />
<glyph unicode="&#x11e;" horiz-adv-x="1306" d="M74 725q0 359 160 571.5t430 212.5q215 0 356.5 -129.5t173.5 -365.5h-254q-19 107 -94.5 175t-175.5 68q-157 0 -248.5 -143t-91.5 -389q0 -239 89.5 -371.5t250.5 -132.5q112 0 188 74t117 248h-283v250h506v-793h-168l-26 184q-89 -125 -172 -174t-205 -49 q-163 0 -289 95t-195 269t-69 400zM358 1872h111q32 -52 74.5 -76t120.5 -24q79 0 117.5 24t56.5 76h129q-32 -123 -110.5 -190.5t-203.5 -67.5q-232 0 -295 258z" />
<glyph unicode="&#x11f;" horiz-adv-x="1026" d="M68 555q0 255 101.5 409t270.5 154q93 0 154.5 -46t107.5 -150v168h226v-1033q0 -139 -28.5 -236.5t-85.5 -155t-135.5 -83.5t-186.5 -26q-177 0 -279.5 77.5t-126.5 249.5h256q11 -58 46.5 -83t109.5 -25q103 0 148.5 58.5t45.5 189.5v141q-46 -95 -99 -132.5 t-142 -37.5q-177 0 -280 151t-103 410zM229 1532h111q14 -78 52.5 -109.5t121.5 -31.5q82 0 119.5 30.5t54.5 110.5h109q-15 -149 -89 -224t-204 -75q-248 0 -275 299zM309 547q0 -146 50 -228.5t139 -82.5q94 0 145 81.5t51 229.5q0 143 -54 232t-142 89t-138.5 -86 t-50.5 -235z" />
<glyph unicode="&#x120;" horiz-adv-x="1306" d="M74 725q0 359 160 571.5t430 212.5q215 0 356.5 -129.5t173.5 -365.5h-254q-19 107 -94.5 175t-175.5 68q-157 0 -248.5 -143t-91.5 -389q0 -239 89.5 -371.5t250.5 -132.5q112 0 188 74t117 248h-283v250h506v-793h-168l-26 184q-89 -125 -172 -174t-205 -49 q-163 0 -289 95t-195 269t-69 400zM551 1626v236h233v-236h-233z" />
<glyph unicode="&#x121;" horiz-adv-x="1026" d="M68 555q0 255 101.5 409t270.5 154q93 0 154.5 -46t107.5 -150v168h226v-1033q0 -139 -28.5 -236.5t-85.5 -155t-135.5 -83.5t-186.5 -26q-177 0 -279.5 77.5t-126.5 249.5h256q11 -58 46.5 -83t109.5 -25q103 0 148.5 58.5t45.5 189.5v141q-46 -95 -99 -132.5 t-142 -37.5q-177 0 -280 151t-103 410zM309 547q0 -146 50 -228.5t139 -82.5q94 0 145 81.5t51 229.5q0 143 -54 232t-142 89t-138.5 -86t-50.5 -235zM399 1266v235h234v-235h-234z" />
<glyph unicode="&#x122;" horiz-adv-x="1306" d="M74 725q0 359 160 571.5t430 212.5q215 0 356.5 -129.5t173.5 -365.5h-254q-19 107 -94.5 175t-175.5 68q-157 0 -248.5 -143t-91.5 -389q0 -239 89.5 -371.5t250.5 -132.5q112 0 188 74t117 248h-283v250h506v-793h-168l-26 184q-89 -125 -172 -174t-205 -49 q-163 0 -289 95t-195 269t-69 400zM553 -123h221v-211q0 -131 -63.5 -211.5t-157.5 -83.5v94q62 12 95.5 58t33.5 112v13h-129v229z" />
<glyph unicode="&#x123;" horiz-adv-x="1026" d="M68 555q0 255 101.5 409t270.5 154q93 0 154.5 -46t107.5 -150v168h226v-1033q0 -139 -28.5 -236.5t-85.5 -155t-135.5 -83.5t-186.5 -26q-177 0 -279.5 77.5t-126.5 249.5h256q11 -58 46.5 -83t109.5 -25q103 0 148.5 58.5t45.5 189.5v141q-46 -95 -99 -132.5 t-142 -37.5q-177 0 -280 151t-103 410zM309 547q0 -146 50 -228.5t139 -82.5q94 0 145 81.5t51 229.5q0 143 -54 232t-142 89t-138.5 -86t-50.5 -235zM406 1190v211q0 131 63.5 211.5t157.5 83.5v-94q-62 -12 -95.5 -58t-33.5 -112v-13h129v-229h-221z" />
<glyph unicode="&#x124;" horiz-adv-x="1212" d="M119 0v1470h252v-557h471v557h252v-1470h-252v662h-471v-662h-252zM289 1614l211 258h211l211 -258h-191l-127 127l-125 -127h-190z" />
<glyph unicode="&#x125;" horiz-adv-x="1026" d="M109 0v1470h233v-530q72 178 268 178q140 0 224 -99t84 -265v-754h-234v662q0 114 -36 164.5t-116 50.5q-88 0 -139 -67.5t-51 -184.5v-625h-233zM197 1614l211 258h210l211 -258h-190l-127 127l-125 -127h-190z" />
<glyph unicode="&#x126;" horiz-adv-x="1212" d="M-6 1104v145h125v221h252v-221h471v221h252v-221h125v-145h-125v-1104h-252v662h-471v-662h-252v1104h-125zM371 913h471v191h-471v-191z" />
<glyph unicode="&#x127;" horiz-adv-x="1159" d="M117 1012v155l116 43v260h234v-176l172 64v-156l-172 -61v-201q72 178 268 178q140 0 223.5 -99t83.5 -265v-754h-233v662q0 114 -36 164.5t-116 50.5q-88 0 -139 -67.5t-51 -184.5v-625h-234v1055z" />
<glyph unicode="&#x128;" horiz-adv-x="466" d="M-74 1614q22 129 71.5 190.5t131.5 61.5q13 0 113.5 -37t111.5 -37q32 0 50.5 19.5t29.5 62.5h109q-40 -246 -181 -246q-23 0 -127 37t-124 37q-59 0 -78 -88h-107zM106 0v1470h252v-1470h-252z" />
<glyph unicode="&#x129;" horiz-adv-x="466" d="M-76 1253q22 129 71.5 190.5t131.5 61.5q13 0 113.5 -36.5t111.5 -36.5q32 0 50.5 19t29.5 62h109q-40 -245 -181 -245q-23 0 -127 36.5t-124 36.5q-59 0 -78 -88h-107zM117 0v1090h233v-1090h-233z" />
<glyph unicode="&#x12a;" horiz-adv-x="466" d="M-55 1669v150h579v-150h-579zM106 0v1470h252v-1470h-252z" />
<glyph unicode="&#x12b;" horiz-adv-x="466" d="M-57 1309v149h579v-149h-579zM117 0v1090h233v-1090h-233z" />
<glyph unicode="&#x12c;" horiz-adv-x="466" d="M-72 1872h111q32 -52 74 -76t120 -24q79 0 118 24t57 76h129q-32 -123 -110.5 -190.5t-203.5 -67.5q-232 0 -295 258zM106 0v1470h252v-1470h-252z" />
<glyph unicode="&#x12d;" horiz-adv-x="466" d="M-51 1532h110q14 -78 52.5 -109.5t121.5 -31.5q82 0 120 30.5t55 110.5h108q-15 -149 -89 -224t-204 -75q-247 0 -274 299zM117 0v1090h233v-1090h-233z" />
<glyph unicode="&#x12e;" horiz-adv-x="466" d="M-12 -299q0 85 47 155.5t137 143.5h-66v1470h252v-1470q-75 -45 -131 -117q-43 -58 -43 -106t38.5 -75.5t94.5 -27.5h82v-186h-82q-66 0 -121.5 10.5t-104 33.5t-76 66t-27.5 103z" />
<glyph unicode="&#x12f;" horiz-adv-x="466" d="M0 -299q0 85 47 155.5t137 143.5h-67v1090h233v-1090q-59 -50 -110 -117q-43 -58 -43 -106t38.5 -75.5t94.5 -27.5h82v-186h-82q-66 0 -121.5 10.5t-104 33.5t-76.5 66t-28 103zM119 1266v235h233v-235h-233z" />
<glyph unicode="&#x130;" horiz-adv-x="466" d="M106 0v1470h252v-1470h-252zM121 1626v236h233v-236h-233z" />
<glyph unicode="&#x131;" horiz-adv-x="466" d="M117 0v1090h233v-1090h-233z" />
<glyph unicode="&#x134;" d="M37 555h235q0 -143 12.5 -214t43 -99.5t92.5 -28.5q78 0 109.5 47.5t31.5 165.5v1044h252v-1044q0 -233 -96.5 -348t-292.5 -115q-246 0 -332 180q-32 62 -43.5 150t-11.5 262zM371 1614l211 258h211l211 -258h-191l-127 127l-125 -127h-190z" />
<glyph unicode="&#x135;" horiz-adv-x="466" d="M-63 1233l190 299h211l190 -299h-190l-107 168l-104 -168h-190zM4 -209h43q37 0 53.5 23t16.5 77v1199h233v-1205q0 -183 -61.5 -253t-222.5 -70h-62v229z" />
<glyph unicode="&#x136;" horiz-adv-x="1212" d="M145 0v1470h252v-598l461 598h326l-492 -602l520 -868h-323l-375 645l-117 -147v-498h-252zM494 -123h221v-211q0 -131 -63.5 -211.5t-157.5 -83.5v94q62 12 95.5 58t33.5 112v13h-129v229z" />
<glyph unicode="&#x137;" d="M117 0v1470h233v-794l295 414h289l-316 -422l326 -668h-282l-213 467l-99 -123v-344h-233zM395 -123h221v-211q0 -131 -63.5 -211.5t-157.5 -83.5v94q62 12 95.5 58t33.5 112v13h-129v229z" />
<glyph unicode="&#x139;" horiz-adv-x="1026" d="M127 0v1470h252v-1204h600v-266h-852zM129 1614l147 258h269l-256 -258h-160z" />
<glyph unicode="&#x13a;" horiz-adv-x="466" d="M117 0v1470h233v-1470h-233zM119 1614l147 258h269l-256 -258h-160z" />
<glyph unicode="&#x13b;" horiz-adv-x="1026" d="M127 0v1470h252v-1204h600v-266h-852zM442 -123h222v-211q0 -131 -64 -211.5t-158 -83.5v94q62 12 95.5 58t33.5 112v13h-129v229z" />
<glyph unicode="&#x13c;" horiz-adv-x="466" d="M117 0v1470h233v-1470h-233zM123 -123h221v-211q0 -131 -63.5 -211.5t-157.5 -83.5v94q62 12 95.5 58t33.5 112v13h-129v229z" />
<glyph unicode="&#x13d;" horiz-adv-x="1026" d="M127 0v1470h252v-1204h600v-266h-852zM496 965v94q62 12 95.5 58t33.5 112v12h-129v229h221v-210q0 -131 -63.5 -211.5t-157.5 -83.5z" />
<glyph unicode="&#x13e;" horiz-adv-x="466" d="M117 0v1470h233v-1470h-233zM467 965v94q62 12 95.5 58t33.5 112v12h-129v229h221v-210q0 -131 -63.5 -211.5t-157.5 -83.5z" />
<glyph unicode="&#x13f;" horiz-adv-x="1026" d="M127 0v1470h252v-1204h600v-266h-852zM649 657v236h234v-236h-234z" />
<glyph unicode="&#x140;" horiz-adv-x="700" d="M117 0v1470h233v-1470h-233zM467 657v236h233v-236h-233z" />
<glyph unicode="&#x141;" horiz-adv-x="1265" d="M113 346v219l192 142v763h252v-598l266 195v-217l-266 -197v-387h600v-266h-852v487z" />
<glyph unicode="&#x142;" horiz-adv-x="823" d="M74 633v205l221 133v499h233v-380l222 133v-205l-222 -133v-885h-233v766z" />
<glyph unicode="&#x143;" horiz-adv-x="1212" d="M117 0v1470h264l483 -1032v1032h234v-1470h-250l-498 1055v-1055h-233zM528 1614l148 258h268l-256 -258h-160z" />
<glyph unicode="&#x144;" horiz-adv-x="1026" d="M109 0v1090h225v-166q47 101 113 147.5t161 46.5q141 0 225.5 -98.5t84.5 -265.5v-754h-234v662q0 114 -36 164.5t-116 50.5q-88 0 -139 -67.5t-51 -184.5v-625h-233zM428 1233l158 299h258l-246 -299h-170z" />
<glyph unicode="&#x145;" horiz-adv-x="1212" d="M117 0v1470h264l483 -1032v1032h234v-1470h-250l-498 1055v-1055h-233zM498 -123h221v-211q0 -131 -63.5 -211.5t-157.5 -83.5v94q62 12 95.5 58t33.5 112v13h-129v229z" />
<glyph unicode="&#x146;" horiz-adv-x="1026" d="M109 0v1090h225v-166q47 101 113 147.5t161 46.5q141 0 225.5 -98.5t84.5 -265.5v-754h-234v662q0 114 -36 164.5t-116 50.5q-88 0 -139 -67.5t-51 -184.5v-625h-233zM403 -123h222v-211q0 -131 -64 -211.5t-158 -83.5v94q62 12 95.5 58t33.5 112v13h-129v229z" />
<glyph unicode="&#x147;" horiz-adv-x="1212" d="M117 0v1470h264l483 -1032v1032h234v-1470h-250l-498 1055v-1055h-233zM293 1872h190l127 -127l125 127h191l-211 -258h-211z" />
<glyph unicode="&#x148;" horiz-adv-x="1026" d="M109 0v1090h225v-166q47 101 113 147.5t161 46.5q141 0 225.5 -98.5t84.5 -265.5v-754h-234v662q0 114 -36 164.5t-116 50.5q-88 0 -139 -67.5t-51 -184.5v-625h-233zM217 1532h191l106 -168l104 168h191l-191 -299h-210z" />
<glyph unicode="&#x14a;" horiz-adv-x="1212" d="M117 0v1470h264l483 -1032v1032h234v-1517q0 -233 -96.5 -348t-292.5 -115q-246 0 -332 180q-38 71 -49 195h241q13 -71 44 -98t92 -27q65 0 112 41t47 102v82l-514 1090v-1055h-233z" />
<glyph unicode="&#x14b;" horiz-adv-x="1026" d="M109 0v1090h225v-166q47 101 113 147.5t161 46.5q141 0 225.5 -98.5t84.5 -265.5v-869q0 -183 -62 -253t-223 -70h-62v229h43q37 0 53.5 23t16.5 77v771q0 114 -36 164.5t-116 50.5q-88 0 -139 -67.5t-51 -184.5v-625h-233z" />
<glyph unicode="&#x14c;" horiz-adv-x="1306" d="M74 733q0 367 159 571.5t429 204.5q255 0 413 -207t158 -567q0 -362 -158.5 -568t-421.5 -206q-266 0 -422.5 207t-156.5 565zM326 739q0 -243 86.5 -380.5t240.5 -137.5t241 138t87 382q0 232 -88.5 370t-235.5 138q-155 0 -243 -136t-88 -374zM373 1669v150h579v-150 h-579z" />
<glyph unicode="&#x14d;" horiz-adv-x="1026" d="M57 543q0 264 125 419.5t338 155.5q204 0 327.5 -157.5t123.5 -417.5q0 -259 -125 -415.5t-332 -156.5t-332 156.5t-125 415.5zM223 1309v149h580v-149h-580zM299 545q0 -161 55.5 -246.5t159.5 -85.5t159.5 85.5t55.5 246.5q0 160 -55 246t-158 86q-106 0 -161.5 -84.5 t-55.5 -247.5z" />
<glyph unicode="&#x14e;" horiz-adv-x="1306" d="M74 733q0 367 159 571.5t429 204.5q255 0 413 -207t158 -567q0 -362 -158.5 -568t-421.5 -206q-266 0 -422.5 207t-156.5 565zM326 739q0 -243 86.5 -380.5t240.5 -137.5t241 138t87 382q0 232 -88.5 370t-235.5 138q-155 0 -243 -136t-88 -374zM356 1872h111 q32 -52 74.5 -76t120.5 -24q79 0 117.5 24t56.5 76h129q-32 -123 -110.5 -190.5t-203.5 -67.5q-232 0 -295 258z" />
<glyph unicode="&#x14f;" horiz-adv-x="1026" d="M57 543q0 264 125 419.5t338 155.5q204 0 327.5 -157.5t123.5 -417.5q0 -259 -125 -415.5t-332 -156.5t-332 156.5t-125 415.5zM229 1532h111q14 -78 52.5 -109.5t121.5 -31.5q82 0 119.5 30.5t54.5 110.5h109q-15 -149 -89 -224t-204 -75q-248 0 -275 299zM299 545 q0 -161 55.5 -246.5t159.5 -85.5t159.5 85.5t55.5 246.5q0 160 -55 246t-158 86q-106 0 -161.5 -84.5t-55.5 -247.5z" />
<glyph unicode="&#x150;" horiz-adv-x="1306" d="M74 733q0 367 159 571.5t429 204.5q255 0 413 -207t158 -567q0 -362 -158.5 -568t-421.5 -206q-266 0 -422.5 207t-156.5 565zM326 739q0 -243 86.5 -380.5t240.5 -137.5t241 138t87 382q0 232 -88.5 370t-235.5 138q-155 0 -243 -136t-88 -374zM395 1614l158 299h260 l-248 -299h-170zM739 1614l158 299h260l-248 -299h-170z" />
<glyph unicode="&#x151;" horiz-adv-x="1026" d="M57 543q0 264 125 419.5t338 155.5q204 0 327.5 -157.5t123.5 -417.5q0 -259 -125 -415.5t-332 -156.5t-332 156.5t-125 415.5zM248 1233l158 299h260l-248 -299h-170zM299 545q0 -161 55.5 -246.5t159.5 -85.5t159.5 85.5t55.5 246.5q0 160 -55 246t-158 86 q-106 0 -161.5 -84.5t-55.5 -247.5zM592 1233l158 299h260l-248 -299h-170z" />
<glyph unicode="&#x152;" horiz-adv-x="1679" d="M61 727q0 363 134.5 572.5t367.5 209.5q85 0 145 -29t115 -96v86h791v-260h-561v-309h522v-260h-522v-381h561v-260h-791v102q-60 -80 -115.5 -110.5t-142.5 -30.5q-232 0 -368 207t-136 559zM307 731q0 -235 78 -376.5t207 -141.5q88 0 151.5 55.5t63.5 132.5v666 q0 85 -58.5 137.5t-150.5 52.5q-136 0 -213.5 -140t-77.5 -386z" />
<glyph unicode="&#x153;" horiz-adv-x="1585" d="M57 547q0 256 124 413.5t327 157.5q186 0 313 -164q75 94 138 129t157 35q198 0 307 -157.5t109 -444.5v-51h-612q10 -136 59.5 -199t144.5 -63q121 0 156 119h242q-52 -180 -151 -265.5t-251 -85.5q-104 0 -176 35t-137 117q-59 -80 -128 -116t-165 -36 q-207 0 -332 157.5t-125 418.5zM299 543q0 -160 55.5 -245t159.5 -85t159.5 85.5t55.5 246.5q0 160 -55 246t-158 86q-106 0 -161.5 -85t-55.5 -249zM926 653h364q-27 230 -184 230q-78 0 -121.5 -55.5t-58.5 -174.5z" />
<glyph unicode="&#x154;" horiz-adv-x="1212" d="M127 0v1470h608q173 0 277 -113.5t104 -303.5q0 -122 -46 -213t-140 -135q68 -37 98.5 -80.5t42.5 -123t12 -239.5q0 -125 9.5 -165.5t44.5 -57.5v-39h-279q-29 135 -29 295q0 58 -3.5 100t-8.5 72.5t-18 49.5t-25.5 31t-37 17t-45 6.5t-58.5 1.5h-260v-573h-246z M373 823h297q100 0 147 48t47 149q0 95 -45.5 147t-130.5 52h-315v-396zM492 1614l147 258h268l-256 -258h-159z" />
<glyph unicode="&#x155;" horiz-adv-x="653" d="M106 0v1090h226v-195q53 125 107.5 174t140.5 49q20 0 47 -4v-291q-32 4 -60 4q-115 0 -171 -64t-56 -196v-567h-234zM254 1233l158 299h258l-246 -299h-170z" />
<glyph unicode="&#x156;" horiz-adv-x="1212" d="M127 0v1470h608q173 0 277 -113.5t104 -303.5q0 -122 -46 -213t-140 -135q68 -37 98.5 -80.5t42.5 -123t12 -239.5q0 -125 9.5 -165.5t44.5 -57.5v-39h-279q-29 135 -29 295q0 58 -3.5 100t-8.5 72.5t-18 49.5t-25.5 31t-37 17t-45 6.5t-58.5 1.5h-260v-573h-246z M373 823h297q100 0 147 48t47 149q0 95 -45.5 147t-130.5 52h-315v-396zM461 -123h221v-211q0 -131 -63.5 -211.5t-157.5 -83.5v94q62 12 95.5 58t33.5 112v13h-129v229z" />
<glyph unicode="&#x157;" horiz-adv-x="653" d="M106 0v1090h226v-195q53 125 107.5 174t140.5 49q20 0 47 -4v-291q-32 4 -60 4q-115 0 -171 -64t-56 -196v-567h-234zM113 -123h221v-211q0 -131 -63.5 -211.5t-157.5 -83.5v94q62 12 95.5 58t33.5 112v13h-129v229z" />
<glyph unicode="&#x158;" horiz-adv-x="1212" d="M127 0v1470h608q173 0 277 -113.5t104 -303.5q0 -122 -46 -213t-140 -135q68 -37 98.5 -80.5t42.5 -123t12 -239.5q0 -125 9.5 -165.5t44.5 -57.5v-39h-279q-29 135 -29 295q0 58 -3.5 100t-8.5 72.5t-18 49.5t-25.5 31t-37 17t-45 6.5t-58.5 1.5h-260v-573h-246z M256 1872h190l127 -127l125 127h191l-211 -258h-211zM373 823h297q100 0 147 48t47 149q0 95 -45.5 147t-130.5 52h-315v-396z" />
<glyph unicode="&#x159;" horiz-adv-x="653" d="M43 1532h190l107 -168l104 168h191l-191 -299h-211zM106 0v1090h226v-195q53 125 107.5 174t140.5 49q20 0 47 -4v-291q-32 4 -60 4q-115 0 -171 -64t-56 -196v-567h-234z" />
<glyph unicode="&#x15a;" horiz-adv-x="1120" d="M66 453h241q8 -122 72 -181t190 -59q117 0 181.5 49.5t64.5 138.5q0 72 -46 111t-173 76l-129 37q-97 28 -164 58.5t-110.5 65t-67 81t-32.5 97t-9 122.5q0 215 122 337.5t337 122.5q217 0 339.5 -122.5t135.5 -352.5h-242q-13 117 -70.5 170t-170.5 53 q-100 0 -158 -47.5t-58 -130.5q0 -63 29 -98t98 -55l295 -88q169 -51 242.5 -144t73.5 -256q0 -221 -131.5 -349t-358.5 -128q-233 0 -363.5 125t-137.5 367zM475 1614l148 258h268l-256 -258h-160z" />
<glyph unicode="&#x15b;" d="M51 348h242q3 -82 49 -120t141 -38q71 0 112.5 30.5t41.5 82.5q0 42 -47.5 71.5t-147.5 49.5q-186 35 -272 115t-86 217q0 168 99 265t272 97q177 0 272 -81.5t119 -278.5h-232q-12 79 -47 110t-112 31q-142 0 -142 -102q0 -44 45.5 -72t147.5 -47q192 -37 279 -120.5 t87 -217.5q0 -172 -106 -270.5t-291 -98.5q-188 0 -296.5 88t-127.5 289zM381 1233l158 299h258l-246 -299h-170z" />
<glyph unicode="&#x15c;" horiz-adv-x="1120" d="M66 453h241q8 -122 72 -181t190 -59q117 0 181.5 49.5t64.5 138.5q0 72 -46 111t-173 76l-129 37q-97 28 -164 58.5t-110.5 65t-67 81t-32.5 97t-9 122.5q0 215 122 337.5t337 122.5q217 0 339.5 -122.5t135.5 -352.5h-242q-13 117 -70.5 170t-170.5 53 q-100 0 -158 -47.5t-58 -130.5q0 -63 29 -98t98 -55l295 -88q169 -51 242.5 -144t73.5 -256q0 -221 -131.5 -349t-358.5 -128q-233 0 -363.5 125t-137.5 367zM238 1614l211 258h210l211 -258h-190l-127 127l-125 -127h-190z" />
<glyph unicode="&#x15d;" d="M51 348h242q3 -82 49 -120t141 -38q71 0 112.5 30.5t41.5 82.5q0 42 -47.5 71.5t-147.5 49.5q-186 35 -272 115t-86 217q0 168 99 265t272 97q177 0 272 -81.5t119 -278.5h-232q-12 79 -47 110t-112 31q-142 0 -142 -102q0 -44 45.5 -72t147.5 -47q192 -37 279 -120.5 t87 -217.5q0 -172 -106 -270.5t-291 -98.5q-188 0 -296.5 88t-127.5 289zM170 1233l190 299h211l191 -299h-191l-106 168l-105 -168h-190z" />
<glyph unicode="&#x15e;" horiz-adv-x="1120" d="M66 453h241q8 -122 72 -181t190 -59q117 0 181.5 49.5t64.5 138.5q0 72 -46 111t-173 76l-129 37q-97 28 -164 58.5t-110.5 65t-67 81t-32.5 97t-9 122.5q0 215 122 337.5t337 122.5q217 0 339.5 -122.5t135.5 -352.5h-242q-13 117 -70.5 170t-170.5 53 q-100 0 -158 -47.5t-58 -130.5q0 -63 29 -98t98 -55l295 -88q169 -51 242.5 -144t73.5 -256q0 -212 -119.5 -338t-329.5 -137l-37 -80h41q65 0 106.5 -44.5t41.5 -114.5q0 -92 -59.5 -154t-153.5 -62q-43 0 -81.5 10.5t-107.5 41.5l37 98q90 -33 127 -33q38 0 59 28t21 64 q0 31 -18.5 52.5t-46.5 21.5q-20 0 -66 -16l-35 41l72 147q-205 15 -320 139.5t-122 350.5z" />
<glyph unicode="&#x15f;" d="M51 348h242q3 -82 49 -120t141 -38q71 0 112.5 30.5t41.5 82.5q0 42 -47.5 71.5t-147.5 49.5q-186 35 -272 115t-86 217q0 168 99 265t272 97q177 0 272 -81.5t119 -278.5h-232q-12 79 -47 110t-112 31q-142 0 -142 -102q0 -44 45.5 -72t147.5 -47q192 -37 279 -120.5 t87 -217.5q0 -164 -96.5 -261t-265.5 -108l-41 -88h41q65 0 106 -44.5t41 -114.5q0 -92 -59.5 -154t-153.5 -62q-43 0 -81 10.5t-107 41.5l37 98q90 -33 127 -33q38 0 59 28t21 64q0 31 -19 52.5t-47 21.5q-19 0 -65 -16l-35 41l78 157q-159 14 -251 103t-110 272z" />
<glyph unicode="&#x160;" horiz-adv-x="1120" d="M66 453h241q8 -122 72 -181t190 -59q117 0 181.5 49.5t64.5 138.5q0 72 -46 111t-173 76l-129 37q-97 28 -164 58.5t-110.5 65t-67 81t-32.5 97t-9 122.5q0 215 122 337.5t337 122.5q217 0 339.5 -122.5t135.5 -352.5h-242q-13 117 -70.5 170t-170.5 53 q-100 0 -158 -47.5t-58 -130.5q0 -63 29 -98t98 -55l295 -88q169 -51 242.5 -144t73.5 -256q0 -221 -131.5 -349t-358.5 -128q-233 0 -363.5 125t-137.5 367zM240 1872h190l127 -127l125 127h190l-210 -258h-211z" />
<glyph unicode="&#x161;" d="M51 348h242q3 -82 49 -120t141 -38q71 0 112.5 30.5t41.5 82.5q0 42 -47.5 71.5t-147.5 49.5q-186 35 -272 115t-86 217q0 168 99 265t272 97q177 0 272 -81.5t119 -278.5h-232q-12 79 -47 110t-112 31q-142 0 -142 -102q0 -44 45.5 -72t147.5 -47q192 -37 279 -120.5 t87 -217.5q0 -172 -106 -270.5t-291 -98.5q-188 0 -296.5 88t-127.5 289zM170 1532h190l107 -168l104 168h191l-191 -299h-211z" />
<glyph unicode="&#x162;" horiz-adv-x="1026" d="M23 1210v260h981v-260h-365v-1210h-76l-53 -117h41q65 0 106 -44.5t41 -114.5q0 -92 -59.5 -154t-153.5 -62q-43 0 -81 10.5t-107 41.5l37 98q90 -33 127 -33q38 0 59 28t21 64q0 31 -19 52.5t-47 21.5q-19 0 -65 -16l-35 41l90 184h-78v1210h-364z" />
<glyph unicode="&#x163;" horiz-adv-x="559" d="M16 885v205h121v294h234v-294h147v-205h-147v-592q0 -57 17 -72.5t79 -15.5q24 0 51 4v-217q-80 -4 -112 -4h-31h-23l-47 -105h41q65 0 106.5 -44.5t41.5 -114.5q0 -92 -59.5 -154t-153.5 -62q-43 0 -81.5 10.5t-107.5 41.5l37 98q90 -33 127 -33q38 0 59 28t21 64 q0 31 -19 52.5t-47 21.5q-19 0 -65 -16l-35 41l90 186q-65 20 -94 72.5t-29 148.5v662h-121z" />
<glyph unicode="&#x164;" horiz-adv-x="1026" d="M23 1210v260h981v-260h-365v-1210h-252v1210h-364zM199 1872h190l127 -127l125 127h190l-210 -258h-211z" />
<glyph unicode="&#x165;" horiz-adv-x="559" d="M16 885v205h121v294h234v-294h147v-205h-147v-592q0 -57 17 -72.5t79 -15.5q24 0 51 4v-217q-80 -4 -112 -4h-31q-129 0 -183.5 53t-54.5 182v662h-121zM430 1149v94q62 12 95.5 58t33.5 112v12h-129v230h221v-211q0 -131 -63.5 -211.5t-157.5 -83.5z" />
<glyph unicode="&#x168;" horiz-adv-x="1212" d="M121 496v974h256v-954q0 -141 59 -218t168 -77q114 0 174 72t60 209v968h256v-956q0 -270 -125.5 -411.5t-364.5 -141.5q-230 0 -356.5 140t-126.5 395zM301 1614q22 129 71.5 190.5t131.5 61.5q13 0 113.5 -37t111.5 -37q32 0 50.5 19.5t29.5 62.5h109 q-40 -246 -181 -246q-23 0 -127.5 37t-124.5 37q-58 0 -77 -88h-107z" />
<glyph unicode="&#x169;" horiz-adv-x="1026" d="M111 373v717h233v-676q0 -98 38.5 -149.5t113.5 -51.5q87 0 136.5 66t49.5 182v629h233v-1090h-225v160q-46 -97 -113 -143t-165 -46q-145 0 -223 105t-78 297zM205 1253q22 129 71.5 190.5t131.5 61.5q13 0 113.5 -36.5t111.5 -36.5q32 0 50.5 19t29.5 62h108 q-40 -245 -180 -245q-23 0 -127.5 36.5t-124.5 36.5q-59 0 -78 -88h-106z" />
<glyph unicode="&#x16a;" horiz-adv-x="1212" d="M121 496v974h256v-954q0 -141 59 -218t168 -77q114 0 174 72t60 209v968h256v-956q0 -270 -125.5 -411.5t-364.5 -141.5q-230 0 -356.5 140t-126.5 395zM319 1669v150h580v-150h-580z" />
<glyph unicode="&#x16b;" horiz-adv-x="1026" d="M111 373v717h233v-676q0 -98 38.5 -149.5t113.5 -51.5q87 0 136.5 66t49.5 182v629h233v-1090h-225v160q-46 -97 -113 -143t-165 -46q-145 0 -223 105t-78 297zM223 1309v149h580v-149h-580z" />
<glyph unicode="&#x16c;" horiz-adv-x="1212" d="M121 496v974h256v-954q0 -141 59 -218t168 -77q114 0 174 72t60 209v968h256v-956q0 -270 -125.5 -411.5t-364.5 -141.5q-230 0 -356.5 140t-126.5 395zM303 1872h111q32 -52 74 -76t120 -24q79 0 117.5 24t56.5 76h129q-32 -123 -110 -190.5t-203 -67.5q-232 0 -295 258 z" />
<glyph unicode="&#x16d;" horiz-adv-x="1026" d="M111 373v717h233v-676q0 -98 38.5 -149.5t113.5 -51.5q87 0 136.5 66t49.5 182v629h233v-1090h-225v160q-46 -97 -113 -143t-165 -46q-145 0 -223 105t-78 297zM229 1532h111q14 -78 52.5 -109.5t121.5 -31.5q82 0 119.5 30.5t54.5 110.5h109q-15 -149 -89 -224t-204 -75 q-248 0 -275 299z" />
<glyph unicode="&#x16e;" horiz-adv-x="1212" d="M121 496v974h256v-954q0 -141 59 -218t168 -77q114 0 174 72t60 209v968h256v-956q0 -270 -125.5 -411.5t-364.5 -141.5q-230 0 -356.5 140t-126.5 395zM397 1786q0 71 64 124.5t149 53.5t149 -54.5t64 -127.5q0 -72 -63.5 -126t-149.5 -54t-149.5 54.5t-63.5 129.5z M504 1784q0 -37 31 -62.5t75 -25.5t75.5 25.5t31.5 60.5q0 37 -31.5 62.5t-75.5 25.5q-43 0 -74.5 -25.5t-31.5 -60.5z" />
<glyph unicode="&#x16f;" horiz-adv-x="1026" d="M111 373v717h233v-676q0 -98 38.5 -149.5t113.5 -51.5q87 0 136.5 66t49.5 182v629h233v-1090h-225v160q-46 -97 -113 -143t-165 -46q-145 0 -223 105t-78 297zM301 1386q0 71 64 125t149 54t149 -55t64 -128q0 -72 -63.5 -126t-149.5 -54t-149.5 54.5t-63.5 129.5z M408 1384q0 -37 31 -62.5t75 -25.5t75.5 25.5t31.5 60.5q0 37 -31.5 62.5t-75.5 25.5q-43 0 -74.5 -25.5t-31.5 -60.5z" />
<glyph unicode="&#x170;" horiz-adv-x="1212" d="M121 496v974h256v-954q0 -141 59 -218t168 -77q114 0 174 72t60 209v968h256v-956q0 -270 -125.5 -411.5t-364.5 -141.5q-230 0 -356.5 140t-126.5 395zM342 1614l158 299h260l-248 -299h-170zM686 1614l158 299h260l-248 -299h-170z" />
<glyph unicode="&#x171;" horiz-adv-x="1026" d="M111 373v717h233v-676q0 -98 38.5 -149.5t113.5 -51.5q87 0 136.5 66t49.5 182v629h233v-1090h-225v160q-46 -97 -113 -143t-165 -46q-145 0 -223 105t-78 297zM248 1233l158 299h260l-248 -299h-170zM592 1233l158 299h260l-248 -299h-170z" />
<glyph unicode="&#x172;" horiz-adv-x="1212" d="M121 496v974h256v-954q0 -141 59 -218t168 -77q114 0 174 72t60 209v968h256v-956q0 -380 -244 -502q-79 -38 -129.5 -99t-50.5 -136q0 -48 38.5 -75.5t94.5 -27.5h82v-186h-82q-66 0 -121.5 10.5t-104 33.5t-76.5 66t-28 103q0 134 139 260h-8q-230 0 -356.5 140 t-126.5 395z" />
<glyph unicode="&#x173;" horiz-adv-x="1026" d="M111 373v717h233v-676q0 -98 38.5 -149.5t113.5 -51.5q87 0 136.5 66t49.5 182v629h233v-1090q-91 -39 -151 -117q-43 -58 -43 -106t38.5 -75.5t94.5 -27.5h82v-186h-82q-66 0 -121.5 10.5t-104 33.5t-76.5 66t-28 103q0 85 47.5 155.5t137.5 143.5h-19v160 q-46 -97 -113 -143t-165 -46q-145 0 -223 105t-78 297z" />
<glyph unicode="&#x174;" horiz-adv-x="1585" d="M27 1470h268q106 -556 140 -744.5t54 -342.5l168 1087h269l180 -1087l199 1087h256l-340 -1470h-242l-188 1157l-138 -866l-51 -291h-233zM475 1614l211 258h211l211 -258h-190l-127 127l-125 -127h-191z" />
<glyph unicode="&#x175;" horiz-adv-x="1306" d="M16 1090h250l142 -793l129 793h235l137 -793l142 793h241l-258 -1090h-241l-142 805l-141 -805h-242zM356 1233l191 299h211l190 -299h-190l-107 168l-104 -168h-191z" />
<glyph unicode="&#x176;" horiz-adv-x="1120" d="M25 1470h297l249 -639l240 639h285l-404 -919v-551h-252v555zM250 1614l211 258h211l211 -258h-191l-127 127l-125 -127h-190z" />
<glyph unicode="&#x177;" d="M16 1090h263l192 -811l184 811h250l-307 -1072q-52 -183 -81.5 -263t-57.5 -117q-31 -41 -77 -58.5t-124 -17.5l-113 4v229q32 -4 50 -4q75 0 104.5 32t46.5 132zM170 1233l190 299h211l191 -299h-191l-106 168l-105 -168h-190z" />
<glyph unicode="&#x178;" horiz-adv-x="1120" d="M25 1470h297l249 -639l240 639h285l-404 -919v-551h-252v555zM301 1626v236h197v-236h-197zM639 1626v236h197v-236h-197z" />
<glyph unicode="&#x179;" horiz-adv-x="1026" d="M41 0v260l625 950h-609v260h924v-241l-633 -969h637v-260h-944zM440 1614l148 258h268l-256 -258h-160z" />
<glyph unicode="&#x17a;" horiz-adv-x="839" d="M33 0v223l461 637h-428v230h725v-236l-453 -618h469v-236h-774zM334 1233l158 299h258l-246 -299h-170z" />
<glyph unicode="&#x17b;" horiz-adv-x="1026" d="M41 0v260l625 950h-609v260h924v-241l-633 -969h637v-260h-944zM408 1626v236h233v-236h-233z" />
<glyph unicode="&#x17c;" horiz-adv-x="839" d="M33 0v223l461 637h-428v230h725v-236l-453 -618h469v-236h-774zM305 1266v235h234v-235h-234z" />
<glyph unicode="&#x17d;" horiz-adv-x="1026" d="M41 0v260l625 950h-609v260h924v-241l-633 -969h637v-260h-944zM205 1872h190l127 -127l125 127h191l-211 -258h-211z" />
<glyph unicode="&#x17e;" horiz-adv-x="839" d="M33 0v223l461 637h-428v230h725v-236l-453 -618h469v-236h-774zM123 1532h190l107 -168l104 168h191l-191 -299h-211z" />
<glyph unicode="&#x17f;" horiz-adv-x="559" d="M145 0v1178q0 161 67 236t208 75q56 0 110 -4v-232h-67q-55 0 -69.5 -21t-14.5 -99v-1133h-234z" />
<glyph unicode="&#x18e;" horiz-adv-x="1120" d="M127 0v260h670v381h-590v260h590v309h-641v260h886v-1470h-915z" />
<glyph unicode="&#x192;" d="M-16 -387l41 227q30 -22 47 -28.5t39 -6.5q39 0 60.5 23t37 81t33.5 185l96 684h-205v199h229l33 178q34 184 104 269t191 85q72 0 176 -39l-41 -221q-54 31 -94 31q-43 0 -73 -33t-37 -90l-25 -180h201v-199h-226l-98 -735q-32 -243 -110.5 -358t-210.5 -115 q-35 0 -67.5 8.5t-100.5 34.5z" />
<glyph unicode="&#x1a0;" horiz-adv-x="1306" d="M74 733q0 367 159 571.5t429 204.5q128 0 235 -55t182 -158q39 68 39 177h-117v235h234v-235q0 -176 -90 -289q88 -184 88 -449q0 -362 -158.5 -568t-421.5 -206q-266 0 -422.5 207t-156.5 565zM326 739q0 -243 86.5 -380.5t240.5 -137.5t241 138t87 382q0 232 -88.5 370 t-235.5 138q-155 0 -243 -136t-88 -374z" />
<glyph unicode="&#x1a1;" horiz-adv-x="1048" d="M57 543q0 264 125 419.5t338 155.5q223 0 344 -182q29 65 29 156h-117v235h234v-235q0 -168 -82 -279q43 -116 43 -270q0 -259 -125 -415.5t-332 -156.5t-332 156.5t-125 415.5zM299 545q0 -161 55.5 -246.5t159.5 -85.5t159.5 85.5t55.5 246.5q0 160 -55 246t-158 86 q-106 0 -161.5 -84.5t-55.5 -247.5z" />
<glyph unicode="&#x1af;" horiz-adv-x="1404" d="M121 496v974h256v-954q0 -141 59 -218t168 -77q114 0 174 72t60 209v968h256v-251q77 0 116 74.5t39 179.5h-116v235h233v-235q0 -154 -74 -267.5t-198 -113.5v-578q0 -270 -125.5 -411.5t-364.5 -141.5q-230 0 -356.5 140t-126.5 395z" />
<glyph unicode="&#x1b0;" horiz-adv-x="1226" d="M111 373v717h233v-676q0 -98 38.5 -149.5t113.5 -51.5q87 0 136.5 66t49.5 182v629h233v-252q53 0 89.5 38.5t51.5 94t15 121.5h-117v235h234v-235q0 -99 -31 -184.5t-94.5 -141t-147.5 -55.5v-711h-225v160q-46 -97 -113 -143t-165 -46q-145 0 -223 105t-78 297z" />
<glyph unicode="&#x1dd;" d="M39 573v52h612q-10 136 -59.5 199t-145.5 63q-120 0 -155 -119h-242q52 180 151 265t251 85q209 0 322.5 -150t113.5 -427q0 -267 -113 -418.5t-311 -151.5q-204 0 -314 156t-110 446zM281 436q24 -229 184 -229q78 0 121.5 55.5t58.5 173.5h-364z" />
<glyph unicode="&#x1e6;" horiz-adv-x="1306" d="M74 725q0 359 160 571.5t430 212.5q215 0 356.5 -129.5t173.5 -365.5h-254q-19 107 -94.5 175t-175.5 68q-157 0 -248.5 -143t-91.5 -389q0 -239 89.5 -371.5t250.5 -132.5q112 0 188 74t117 248h-283v250h506v-793h-168l-26 184q-89 -125 -172 -174t-205 -49 q-163 0 -289 95t-195 269t-69 400zM348 1872h191l127 -127l125 127h190l-211 -258h-211z" />
<glyph unicode="&#x1e7;" horiz-adv-x="1026" d="M68 555q0 255 101.5 409t270.5 154q93 0 154.5 -46t107.5 -150v168h226v-1033q0 -139 -28.5 -236.5t-85.5 -155t-135.5 -83.5t-186.5 -26q-177 0 -279.5 77.5t-126.5 249.5h256q11 -58 46.5 -83t109.5 -25q103 0 148.5 58.5t45.5 189.5v141q-46 -95 -99 -132.5 t-142 -37.5q-177 0 -280 151t-103 410zM217 1532h191l106 -168l104 168h191l-191 -299h-210zM309 547q0 -146 50 -228.5t139 -82.5q94 0 145 81.5t51 229.5q0 143 -54 232t-142 89t-138.5 -86t-50.5 -235z" />
<glyph unicode="&#x1ea;" horiz-adv-x="1306" d="M74 733q0 367 159 571.5t429 204.5q255 0 413 -207t158 -567q0 -242 -73 -417t-206 -267q-46 -33 -65 -47t-57 -46.5t-55.5 -56t-32.5 -57t-15 -67.5q0 -48 38.5 -75.5t94.5 -27.5h82v-186h-82q-66 0 -121.5 10.5t-104 33.5t-76.5 66t-28 103q0 133 140 260h-19 q-266 0 -422.5 207t-156.5 565zM326 739q0 -243 86.5 -380.5t240.5 -137.5t241 138t87 382q0 232 -88.5 370t-235.5 138q-155 0 -243 -136t-88 -374z" />
<glyph unicode="&#x1eb;" horiz-adv-x="1026" d="M57 543q0 264 125 419.5t338 155.5q204 0 327.5 -157.5t123.5 -417.5q0 -171 -57.5 -301.5t-159.5 -200.5q-86 -59 -137.5 -122.5t-51.5 -141.5q0 -48 38.5 -75.5t94.5 -27.5h82v-186h-82q-66 0 -121.5 10.5t-104 33.5t-76 66t-27.5 103q0 77 38.5 140.5t112.5 129.5h-6 q-207 0 -332 156.5t-125 415.5zM299 545q0 -161 55.5 -246.5t159.5 -85.5t159.5 85.5t55.5 246.5q0 160 -55 246t-158 86q-106 0 -161.5 -84.5t-55.5 -247.5z" />
<glyph unicode="&#x1f4;" horiz-adv-x="1306" d="M74 725q0 359 160 571.5t430 212.5q215 0 356.5 -129.5t173.5 -365.5h-254q-19 107 -94.5 175t-175.5 68q-157 0 -248.5 -143t-91.5 -389q0 -239 89.5 -371.5t250.5 -132.5q112 0 188 74t117 248h-283v250h506v-793h-168l-26 184q-89 -125 -172 -174t-205 -49 q-163 0 -289 95t-195 269t-69 400zM584 1614l147 258h268l-256 -258h-159z" />
<glyph unicode="&#x1f5;" horiz-adv-x="1026" d="M68 555q0 255 101.5 409t270.5 154q93 0 154.5 -46t107.5 -150v168h226v-1033q0 -139 -28.5 -236.5t-85.5 -155t-135.5 -83.5t-186.5 -26q-177 0 -279.5 77.5t-126.5 249.5h256q11 -58 46.5 -83t109.5 -25q103 0 148.5 58.5t45.5 189.5v141q-46 -95 -99 -132.5 t-142 -37.5q-177 0 -280 151t-103 410zM309 547q0 -146 50 -228.5t139 -82.5q94 0 145 81.5t51 229.5q0 143 -54 232t-142 89t-138.5 -86t-50.5 -235zM428 1233l158 299h258l-246 -299h-170z" />
<glyph unicode="&#x1fa;" horiz-adv-x="1212" d="M33 0l430 1470h291l426 -1470h-275l-78 303h-444l-84 -303h-266zM397 1786q0 71 64 124.5t149 53.5t149 -54.5t64 -127.5q0 -72 -63.5 -126t-149.5 -54t-149.5 54.5t-63.5 129.5zM451 555h307l-152 590zM504 1784q0 -37 31 -62.5t75 -25.5t75.5 25.5t31.5 60.5 q0 37 -31.5 62.5t-75.5 25.5q-43 0 -74.5 -25.5t-31.5 -60.5zM528 2005l148 258h268l-256 -258h-160z" />
<glyph unicode="&#x1fb;" d="M49 291q0 143 68 233t194 113l211 39q82 14 82 90q0 123 -145 123q-75 0 -110 -34.5t-46 -117.5h-225q22 207 113 294t278 87q173 0 269 -83t96 -232v-590q0 -80 11 -117.5t40 -52.5v-43h-252q-16 61 -23 129q-69 -87 -132 -122.5t-150 -35.5q-129 0 -204 86t-75 234z M258 1405q0 71 64 124.5t149 53.5t149 -54.5t64 -127.5q0 -72 -63.5 -126t-149.5 -54t-149.5 54.5t-63.5 129.5zM285 309q0 -62 30 -97.5t82 -35.5q86 0 146.5 63t60.5 152v139q-23 -21 -55.5 -33t-104.5 -26q-88 -19 -123.5 -55t-35.5 -107zM365 1403q0 -37 31 -62.5 t75 -25.5t75.5 25.5t31.5 60.5q0 37 -31.5 62.5t-75.5 25.5q-43 0 -74.5 -25.5t-31.5 -60.5zM389 1624l148 258h268l-256 -258h-160z" />
<glyph unicode="&#x1fc;" horiz-adv-x="1679" d="M8 0l441 1470h1140v-260h-622v-309h561v-260h-561v-381h635v-260h-881v313h-361l-88 -313h-264zM426 555h295v655h-109zM764 1614l147 258h269l-256 -258h-160z" />
<glyph unicode="&#x1fd;" horiz-adv-x="1492" d="M49 301q0 126 60 209t167 106l220 46q78 15 99 33t21 71q0 65 -36.5 94t-118.5 29q-75 0 -111 -37t-39 -117h-229q19 198 114.5 290.5t276.5 92.5q91 0 157.5 -28t129.5 -93q70 67 130 94t140 27q194 0 303 -158.5t109 -443.5v-51h-613q10 -136 59.5 -199t145.5 -63 q121 0 156 119h242q-52 -181 -152 -266t-254 -85q-117 0 -187.5 39t-133.5 137q-104 -176 -338 -176q-153 0 -235.5 85.5t-82.5 244.5zM285 309q0 -63 33 -98t92 -35q79 0 140.5 63.5t61.5 145.5v135q-20 -22 -55 -34t-119 -27q-89 -17 -121 -48.5t-32 -101.5zM662 1233 l157 299h258l-246 -299h-169zM836 653h364q-24 230 -184 230q-78 0 -121.5 -55.5t-58.5 -174.5z" />
<glyph unicode="&#x1fe;" horiz-adv-x="1306" d="M55 23l144 190q-66 115 -95.5 235.5t-29.5 282.5q0 364 157 571t420 207q112 0 204 -39t187 -127l138 183l69 -78l-141 -188q67 -117 96 -237.5t29 -283.5q0 -365 -158 -571.5t-422 -206.5q-114 0 -206.5 39.5t-182.5 128.5l-139 -184zM326 733q0 -164 45 -287l510 682 q-52 64 -106 92.5t-122 28.5q-152 0 -239.5 -138.5t-87.5 -377.5zM424 344q51 -64 105.5 -93.5t123.5 -29.5q152 0 240 138t88 376q0 173 -47 291zM573 1614l148 258h268l-256 -258h-160z" />
<glyph unicode="&#x1ff;" horiz-adv-x="1026" d="M37 0l123 158q-56 89 -79.5 178t-23.5 209q0 261 124 417t333 156q88 0 158.5 -28.5t142.5 -92.5l115 150l59 -66l-119 -151q54 -90 77.5 -178.5t23.5 -206.5q0 -261 -125 -417.5t-332 -156.5q-88 0 -158 28t-139 91l-117 -149zM299 547q0 -98 25 -180l342 438 q-64 72 -152 72q-104 0 -159.5 -85t-55.5 -245zM367 283q56 -70 145 -70q106 0 161.5 85.5t55.5 248.5q0 101 -24 172zM428 1233l158 299h258l-246 -299h-170z" />
<glyph unicode="&#x200;" horiz-adv-x="1212" d="M33 0l430 1470h291l426 -1470h-275l-78 303h-444l-84 -303h-266zM113 1913h260l157 -299h-170zM451 555h307l-152 590zM457 1913h260l157 -299h-169z" />
<glyph unicode="&#x201;" d="M-27 1532h260l158 -299h-170zM49 291q0 143 68 233t194 113l211 39q82 14 82 90q0 123 -145 123q-75 0 -110 -34.5t-46 -117.5h-225q22 207 113 294t278 87q173 0 269 -83t96 -232v-590q0 -80 11 -117.5t40 -52.5v-43h-252q-16 61 -23 129q-69 -87 -132 -122.5 t-150 -35.5q-129 0 -204 86t-75 234zM285 309q0 -62 30 -97.5t82 -35.5q86 0 146.5 63t60.5 152v139q-23 -21 -55.5 -33t-104.5 -26q-88 -19 -123.5 -55t-35.5 -107zM317 1532h261l157 -299h-170z" />
<glyph unicode="&#x204;" horiz-adv-x="1120" d="M76 1913h260l158 -299h-170zM127 0v1470h887v-260h-641v-309h590v-260h-590v-381h669v-260h-915zM420 1913h260l158 -299h-170z" />
<glyph unicode="&#x205;" d="M-29 1532h260l158 -299h-170zM39 549q0 267 113 418t311 151q204 0 314 -156t110 -446v-51h-613q10 -136 59.5 -199t145.5 -63q121 0 156 119h242q-52 -180 -151 -265.5t-251 -85.5q-209 0 -322.5 150.5t-113.5 427.5zM281 653h364q-24 230 -184 230q-78 0 -121.5 -55.5 t-58.5 -174.5zM315 1532h260l158 -299h-170z" />
<glyph unicode="&#x208;" horiz-adv-x="466" d="M-262 1913h260l158 -299h-170zM82 1913h260l158 -299h-170zM106 0v1470h252v-1470h-252z" />
<glyph unicode="&#x209;" horiz-adv-x="466" d="M-262 1532h260l158 -299h-170zM82 1532h260l158 -299h-170zM117 0v1090h233v-1090h-233z" />
<glyph unicode="&#x20c;" horiz-adv-x="1306" d="M74 733q0 367 159 571.5t429 204.5q255 0 413 -207t158 -567q0 -362 -158.5 -568t-421.5 -206q-266 0 -422.5 207t-156.5 565zM166 1913h260l158 -299h-170zM326 739q0 -243 86.5 -380.5t240.5 -137.5t241 138t87 382q0 232 -88.5 370t-235.5 138q-155 0 -243 -136 t-88 -374zM510 1913h260l158 -299h-170z" />
<glyph unicode="&#x20d;" horiz-adv-x="1026" d="M16 1532h260l158 -299h-170zM57 543q0 264 125 419.5t338 155.5q204 0 327.5 -157.5t123.5 -417.5q0 -259 -125 -415.5t-332 -156.5t-332 156.5t-125 415.5zM299 545q0 -161 55.5 -246.5t159.5 -85.5t159.5 85.5t55.5 246.5q0 160 -55 246t-158 86q-106 0 -161.5 -84.5 t-55.5 -247.5zM360 1532h261l157 -299h-170z" />
<glyph unicode="&#x210;" horiz-adv-x="1212" d="M76 1913h260l158 -299h-170zM127 0v1470h608q173 0 277 -113.5t104 -303.5q0 -122 -46 -213t-140 -135q68 -37 98.5 -80.5t42.5 -123t12 -239.5q0 -125 9.5 -165.5t44.5 -57.5v-39h-279q-29 135 -29 295q0 58 -3.5 100t-8.5 72.5t-18 49.5t-25.5 31t-37 17t-45 6.5 t-58.5 1.5h-260v-573h-246zM373 823h297q100 0 147 48t47 149q0 95 -45.5 147t-130.5 52h-315v-396zM420 1913h260l158 -299h-170z" />
<glyph unicode="&#x211;" horiz-adv-x="653" d="M-156 1532h260l158 -299h-170zM106 0v1090h226v-195q53 125 107.5 174t140.5 49q20 0 47 -4v-291q-32 4 -60 4q-115 0 -171 -64t-56 -196v-567h-234zM188 1532h261l157 -299h-170z" />
<glyph unicode="&#x214;" horiz-adv-x="1212" d="M113 1913h260l157 -299h-170zM121 496v974h256v-954q0 -141 59 -218t168 -77q114 0 174 72t60 209v968h256v-956q0 -270 -125.5 -411.5t-364.5 -141.5q-230 0 -356.5 140t-126.5 395zM457 1913h260l157 -299h-169z" />
<glyph unicode="&#x215;" horiz-adv-x="1026" d="M16 1532h260l158 -299h-170zM111 373v717h233v-676q0 -98 38.5 -149.5t113.5 -51.5q87 0 136.5 66t49.5 182v629h233v-1090h-225v160q-46 -97 -113 -143t-165 -46q-145 0 -223 105t-78 297zM360 1532h261l157 -299h-170z" />
<glyph unicode="&#x218;" horiz-adv-x="1120" d="M66 453h241q8 -122 72 -181t190 -59q117 0 181.5 49.5t64.5 138.5q0 72 -46 111t-173 76l-129 37q-97 28 -164 58.5t-110.5 65t-67 81t-32.5 97t-9 122.5q0 215 122 337.5t337 122.5q217 0 339.5 -122.5t135.5 -352.5h-242q-13 117 -70.5 170t-170.5 53 q-100 0 -158 -47.5t-58 -130.5q0 -63 29 -98t98 -55l295 -88q169 -51 242.5 -144t73.5 -256q0 -221 -131.5 -349t-358.5 -128q-233 0 -363.5 125t-137.5 367zM444 -123h222v-211q0 -131 -64 -211.5t-158 -83.5v94q62 12 95.5 58t33.5 112v13h-129v229z" />
<glyph unicode="&#x219;" d="M51 348h242q3 -82 49 -120t141 -38q71 0 112.5 30.5t41.5 82.5q0 42 -47.5 71.5t-147.5 49.5q-186 35 -272 115t-86 217q0 168 99 265t272 97q177 0 272 -81.5t119 -278.5h-232q-12 79 -47 110t-112 31q-142 0 -142 -102q0 -44 45.5 -72t147.5 -47q192 -37 279 -120.5 t87 -217.5q0 -172 -106 -270.5t-291 -98.5q-188 0 -296.5 88t-127.5 289zM356 -123h222v-211q0 -131 -64 -211.5t-158 -83.5v94q62 12 95.5 58t33.5 112v13h-129v229z" />
<glyph unicode="&#x21a;" horiz-adv-x="1026" d="M23 1210v260h981v-260h-365v-1210h-252v1210h-364zM403 -123h222v-211q0 -131 -64 -211.5t-158 -83.5v94q62 12 95.5 58t33.5 112v13h-129v229z" />
<glyph unicode="&#x21b;" horiz-adv-x="559" d="M16 885v205h121v294h234v-294h147v-205h-147v-592q0 -57 17 -72.5t79 -15.5q24 0 51 4v-217q-80 -4 -112 -4h-31q-129 0 -183.5 53t-54.5 182v662h-121zM217 -123h221v-211q0 -131 -63.5 -211.5t-157.5 -83.5v94q62 12 95.5 58t33.5 112v13h-129v229z" />
<glyph unicode="&#x258;" d="M39 465v51q0 290 110 446t314 156q198 0 311 -151t113 -418q0 -277 -113.5 -427.5t-322.5 -150.5q-152 0 -251 85.5t-151 265.5h242q35 -119 155 -119q96 0 145.5 63t59.5 199h-612zM281 653h364q-15 119 -58.5 174.5t-121.5 55.5q-160 0 -184 -230z" />
<glyph unicode="&#x259;" d="M39 573v52h612q-10 136 -59.5 199t-145.5 63q-120 0 -155 -119h-242q52 180 151 265t251 85q209 0 322.5 -150t113.5 -427q0 -267 -113 -418.5t-311 -151.5q-204 0 -314 156t-110 446zM281 436q24 -229 184 -229q78 0 121.5 55.5t58.5 173.5h-364z" />
<glyph unicode="&#x2be;" horiz-adv-x="815" d="M117 926q0 7 4.5 12.5t11.5 5.5h158q6 0 11 -4t5 -10q11 -55 30.5 -80t55.5 -25q111 0 111 207q0 104 -24.5 155.5t-78.5 51.5q-38 0 -62.5 -31t-29.5 -82q0 -6 -5 -10t-11 -4h-158q-8 0 -12.5 5.5t-3.5 12.5q19 146 93 223t196 77q138 0 214 -101.5t76 -288.5 q0 -193 -79.5 -301t-219.5 -108q-122 0 -195.5 74.5t-86.5 220.5z" />
<glyph unicode="&#x2bf;" horiz-adv-x="815" d="M117 1020q0 193 79.5 301.5t219.5 108.5q122 0 195.5 -74.5t86.5 -220.5q0 -7 -4.5 -13t-11.5 -6h-158q-6 0 -11 4t-5 10q-11 55 -30.5 80t-55.5 25q-111 0 -111 -207q0 -104 24.5 -155.5t78.5 -51.5q38 0 62.5 31t29.5 82q0 6 5 10t11 4h158q8 0 12.5 -5.5t3.5 -12.5 q-19 -146 -92.5 -222.5t-195.5 -76.5q-139 0 -215 101t-76 288z" />
<glyph unicode="&#x2c6;" horiz-adv-x="559" d="M-16 1233l190 299h211l190 -299h-190l-106 168l-105 -168h-190z" />
<glyph unicode="&#x2c7;" horiz-adv-x="559" d="M-16 1532h190l107 -168l104 168h190l-190 -299h-211z" />
<glyph unicode="&#x2d8;" horiz-adv-x="559" d="M-4 1532h110q13 -78 52.5 -109.5t122.5 -31.5q82 0 119.5 30.5t54.5 110.5h108q-15 -149 -89 -224t-204 -75q-247 0 -274 299z" />
<glyph unicode="&#x2d9;" horiz-adv-x="559" d="M166 1266v235h233v-235h-233z" />
<glyph unicode="&#x2da;" horiz-adv-x="559" d="M68 1386q0 71 64 125t149 54t149 -55t64 -128q0 -72 -63.5 -126t-149.5 -54t-149.5 54.5t-63.5 129.5zM174 1384q0 -37 31.5 -62.5t75.5 -25.5t75 25.5t31 60.5q0 37 -31 62.5t-75 25.5q-43 0 -75 -25.5t-32 -60.5z" />
<glyph unicode="&#x2db;" horiz-adv-x="559" d="M82 -299q0 85 47 155.5t137 143.5h187q-85 -57 -129.5 -115.5t-44.5 -107.5q0 -48 38.5 -75.5t94.5 -27.5h82v-186h-82q-66 0 -121.5 10.5t-104 33.5t-76.5 66t-28 103z" />
<glyph unicode="&#x2dc;" horiz-adv-x="559" d="M-29 1253q22 129 71.5 190.5t131.5 61.5q13 0 113.5 -36.5t111.5 -36.5q32 0 50.5 19t29.5 62h109q-40 -245 -180 -245q-23 0 -127.5 36.5t-124.5 36.5q-59 0 -78 -88h-107z" />
<glyph unicode="&#x2dd;" horiz-adv-x="559" d="M14 1233l158 299h260l-248 -299h-170zM358 1233l158 299h260l-248 -299h-170z" />
<glyph unicode="&#x300;" horiz-adv-x="0" d="M-797 1532h258l158 -299h-170z" />
<glyph unicode="&#x301;" horiz-adv-x="0" d="M-551 1233l158 299h258l-246 -299h-170z" />
<glyph unicode="&#x302;" horiz-adv-x="0" d="M-762 1233l191 299h211l190 -299h-190l-107 168l-104 -168h-191z" />
<glyph unicode="&#x303;" horiz-adv-x="0" d="M-774 1253q22 129 71.5 190.5t131.5 61.5q13 0 113.5 -36.5t111.5 -36.5q32 0 50.5 19t29.5 62h108q-40 -245 -180 -245q-23 0 -127.5 36.5t-124.5 36.5q-59 0 -78 -88h-106z" />
<glyph unicode="&#x304;" horiz-adv-x="0" d="M-756 1309v149h580v-149h-580z" />
<glyph unicode="&#x306;" horiz-adv-x="0" d="M-750 1532h111q14 -78 52.5 -109.5t121.5 -31.5q82 0 119.5 30.5t54.5 110.5h109q-15 -149 -89 -224t-204 -75q-248 0 -275 299z" />
<glyph unicode="&#x307;" horiz-adv-x="0" d="M-580 1266v235h234v-235h-234z" />
<glyph unicode="&#x308;" horiz-adv-x="0" d="M-733 1266v235h196v-235h-196zM-395 1266v235h196v-235h-196z" />
<glyph unicode="&#x309;" horiz-adv-x="0" d="M-692 1378q0 93 60 141t177 48q104 0 165 -38.5t61 -103.5q0 -39 -22 -66t-81 -61q-47 -30 -59 -41t-12 -24v-49h-127v55q0 37 23 61.5t85 57.5v-2q66 43 66 69q0 22 -29.5 37t-75.5 15q-69 0 -92 -29v2q-14 -17 -14 -72h-125z" />
<glyph unicode="&#x30a;" horiz-adv-x="0" d="M-678 1386q0 71 64 125t149 54t149 -55t64 -128q0 -72 -63.5 -126t-149.5 -54t-149.5 54.5t-63.5 129.5zM-571 1384q0 -37 31 -62.5t75 -25.5t75.5 25.5t31.5 60.5q0 37 -31.5 62.5t-75.5 25.5q-43 0 -74.5 -25.5t-31.5 -60.5z" />
<glyph unicode="&#x30b;" horiz-adv-x="0" d="M-731 1233l158 299h260l-248 -299h-170zM-387 1233l158 299h260l-248 -299h-170z" />
<glyph unicode="&#x30c;" horiz-adv-x="0" d="M-762 1532h191l106 -168l105 168h190l-190 -299h-211z" />
<glyph unicode="&#x30f;" horiz-adv-x="0" d="M-963 1532h261l157 -299h-170zM-618 1532h260l157 -299h-170z" />
<glyph unicode="&#x311;" horiz-adv-x="0" d="M-750 1233q15 149 89 224t204 75q248 0 275 -299h-111q-14 78 -52.5 109.5t-121.5 31.5q-82 0 -119.5 -30.5t-54.5 -110.5h-109z" />
<glyph unicode="&#x323;" horiz-adv-x="0" d="M-580 -174h234v-236h-234v236z" />
<glyph unicode="&#x326;" horiz-adv-x="0" d="M-575 -123h221v-211q0 -131 -63.5 -211.5t-157.5 -83.5v94q62 12 95.5 58t33.5 112v13h-129v229z" />
<glyph unicode="&#x32e;" horiz-adv-x="0" d="M-770 -164h111q32 -52 74 -76t120 -24q79 0 117.5 24t56.5 76h129q-32 -123 -110 -190.5t-203 -67.5q-232 0 -295 258z" />
<glyph unicode="&#x32f;" horiz-adv-x="0" d="M-770 -422q32 123 110 190.5t203 67.5q232 0 295 -258h-110q-32 52 -74.5 76t-120.5 24q-79 0 -117.5 -24t-56.5 -76h-129z" />
<glyph unicode="&#x330;" horiz-adv-x="0" d="M-774 -422q22 129 71.5 190.5t131.5 61.5q13 0 113.5 -37t111.5 -37q32 0 50.5 19.5t29.5 62.5h108q-41 -246 -180 -246q-23 0 -127.5 37t-124.5 37q-59 0 -78 -88h-106z" />
<glyph unicode="&#x331;" horiz-adv-x="0" d="M-756 -217h580v-150h-580v150z" />
<glyph unicode="&#x332;" horiz-adv-x="0" d="M-756 -217h580v-150h-580v150z" />
<glyph unicode="&#x391;" horiz-adv-x="1212" d="M33 0l430 1470h291l426 -1470h-275l-78 303h-444l-84 -303h-266zM451 555h307l-152 590z" />
<glyph unicode="&#x392;" horiz-adv-x="1212" d="M127 0v1470h586q173 0 272.5 -102.5t99.5 -280.5q0 -109 -34.5 -178t-112.5 -116q99 -54 142.5 -139.5t43.5 -211.5q0 -186 -104 -311q-63 -75 -144.5 -103t-238.5 -28h-510zM369 252h309q95 0 144.5 53.5t49.5 155.5q0 88 -48 136t-134 48h-321v-393zM369 895h295 q87 0 133.5 43.5t46.5 124.5q0 80 -45.5 118t-141.5 38h-288v-324z" />
<glyph unicode="&#x393;" horiz-adv-x="1026" d="M127 0v1470h858v-260h-606v-1210h-252z" />
<glyph unicode="&#x394;" horiz-adv-x="1028" d="M14 0l387 1417h226l387 -1417h-1000zM319 233h390l-195 711z" />
<glyph unicode="&#x395;" horiz-adv-x="1120" d="M127 0v1470h887v-260h-641v-309h590v-260h-590v-381h669v-260h-915z" />
<glyph unicode="&#x396;" horiz-adv-x="1026" d="M41 0v260l625 950h-609v260h924v-241l-633 -969h637v-260h-944z" />
<glyph unicode="&#x397;" horiz-adv-x="1212" d="M119 0v1470h252v-557h471v557h252v-1470h-252v662h-471v-662h-252z" />
<glyph unicode="&#x398;" horiz-adv-x="1306" d="M74 733q0 367 159 571.5t429 204.5q255 0 413 -207t158 -567q0 -362 -158.5 -568t-421.5 -206q-266 0 -422.5 207t-156.5 565zM326 739q0 -243 86.5 -380.5t240.5 -137.5t241 138t87 382q0 232 -88.5 370t-235.5 138q-155 0 -243 -136t-88 -374zM436 618v234h434v-234 h-434z" />
<glyph unicode="&#x399;" horiz-adv-x="466" d="M106 0v1470h252v-1470h-252z" />
<glyph unicode="&#x39a;" horiz-adv-x="1212" d="M145 0v1470h252v-598l461 598h326l-492 -602l520 -868h-323l-375 645l-117 -147v-498h-252z" />
<glyph unicode="&#x39b;" horiz-adv-x="1212" d="M33 0l430 1470h291l426 -1470h-275l-299 1145l-307 -1145h-266z" />
<glyph unicode="&#x39c;" horiz-adv-x="1398" d="M117 0v1470h366l222 -1167l217 1167h362v-1470h-233v1247l-230 -1247h-248l-223 1247v-1247h-233z" />
<glyph unicode="&#x39d;" horiz-adv-x="1212" d="M117 0v1470h264l483 -1032v1032h234v-1470h-250l-498 1055v-1055h-233z" />
<glyph unicode="&#x39e;" horiz-adv-x="1212" d="M125 0v250h962v-250h-962zM125 1221v249h962v-249h-962zM375 618v234h463v-234h-463z" />
<glyph unicode="&#x39f;" horiz-adv-x="1306" d="M74 733q0 367 159 571.5t429 204.5q255 0 413 -207t158 -567q0 -362 -158.5 -568t-421.5 -206q-266 0 -422.5 207t-156.5 565zM326 739q0 -243 86.5 -380.5t240.5 -137.5t241 138t87 382q0 232 -88.5 370t-235.5 138q-155 0 -243 -136t-88 -374z" />
<glyph unicode="&#x3a0;" horiz-adv-x="1212" d="M119 0v1470h975v-1470h-252v1219h-471v-1219h-252z" />
<glyph unicode="&#x3a1;" horiz-adv-x="1120" d="M127 0v1470h551q170 0 272.5 -124.5t102.5 -331.5q0 -218 -105 -350t-280 -132h-289v-532h-252zM379 784h233q189 0 189 224q0 114 -51 162.5t-170 48.5h-201v-435z" />
<glyph unicode="&#x3a3;" horiz-adv-x="1032" d="M61 0v276l367 459l-367 459v276h910v-245h-619l391 -490l-391 -489h619v-246h-910z" />
<glyph unicode="&#x3a4;" horiz-adv-x="1026" d="M23 1210v260h981v-260h-365v-1210h-252v1210h-364z" />
<glyph unicode="&#x3a5;" horiz-adv-x="1120" d="M25 1470h297l249 -639l240 639h285l-404 -919v-551h-252v555z" />
<glyph unicode="&#x3a6;" horiz-adv-x="1312" d="M117 735q0 174 117.5 305t295.5 170v260h252v-260q178 -39 296 -170t118 -305t-118 -305t-296 -170v-260h-252v260q-178 39 -295.5 170t-117.5 305zM358 735q0 -76 48 -135t124 -88v446q-76 -29 -124 -88t-48 -135zM782 512q76 29 124 88t48 135t-48 135t-124 88v-446z " />
<glyph unicode="&#x3a7;" horiz-adv-x="1120" d="M23 0l389 752l-367 718h299l215 -475l221 475h291l-369 -706l394 -764h-308l-229 502l-242 -502h-294z" />
<glyph unicode="&#x3a8;" horiz-adv-x="1290" d="M117 1090v380h241v-380q0 -125 41.5 -231t118.5 -157v768h252v-768q77 51 118.5 157t41.5 231v380h241v-380q0 -149 -48 -283.5t-140 -232.5t-213 -132v-442h-252v442q-121 34 -213 132t-140 232.5t-48 283.5z" />
<glyph unicode="&#x3a9;" horiz-adv-x="1298" d="M61 0v246h238v123q-85 91 -131.5 216.5t-46.5 264.5q0 124 39 239t107 203t168 140.5t214 52.5q152 0 275 -89.5t189.5 -234.5t66.5 -311q0 -138 -47.5 -263.5t-133.5 -217.5v-123h238v-246h-489v481q85 41 132.5 143.5t47.5 225.5q0 101 -32 188t-97 144t-150 57 t-149.5 -57t-95.5 -144t-31 -188q0 -123 47 -225.5t131 -143.5v-481h-490z" />
<glyph unicode="&#x3b1;" horiz-adv-x="1345" d="M117 506q0 122 34.5 235t95.5 200t153 139.5t200 52.5q215 0 348 -240q51 209 72 250l209 -107q-66 -133 -154 -532q49 -249 154 -451l-209 -106q-51 96 -82 211q-139 -201 -338 -201q-102 0 -192.5 45t-154 119.5t-100 175t-36.5 209.5zM350 506q0 -124 70.5 -215.5 t179.5 -91.5q183 0 260 309q-13 66 -25 112t-33.5 101t-47 89t-65.5 57.5t-89 23.5q-81 0 -139.5 -57t-84.5 -142t-26 -186z" />
<glyph unicode="&#x3b2;" horiz-adv-x="1005" d="M61 -492v1596q0 181 107 287t289 106q185 0 289 -103t104 -286t-123 -266q104 -65 147.5 -148t43.5 -221q0 -230 -110 -366t-296 -136q-40 0 -103 13t-114 45v-521h-234zM295 262l119 -53h8q8 -2 41 -2q107 0 163 64t56 188q0 129 -56.5 184.5t-199.5 67.5v198 q108 5 148 42t40 134q0 88 -42.5 135.5t-120.5 47.5q-72 0 -114 -49t-42 -134v-823z" />
<glyph unicode="&#x3b3;" horiz-adv-x="1179" d="M117 1090h245l228 -707l227 707h246l-356 -1110v-472h-234v472z" />
<glyph unicode="&#x3b4;" horiz-adv-x="1026" d="M61 440q0 141 85.5 252t226.5 170q-87 74 -136 148.5t-49 165.5q0 129 110.5 211.5t258.5 82.5q175 0 328 -92l-123 -200q-94 57 -205 57q-29 0 -48.5 -1.5t-41.5 -7t-33.5 -18t-11.5 -32.5q0 -32 12.5 -61.5t29.5 -50t48.5 -44.5t53.5 -37.5t62.5 -36.5t59.5 -35 q127 -76 202 -201.5t75 -269.5q0 -193 -132 -331t-321 -138q-124 0 -228 63.5t-163.5 171.5t-59.5 234zM295 440q0 -95 63 -164t154 -69q92 0 155.5 69t63.5 164q0 86 -45.5 159.5t-120.5 111.5q-112 0 -191 -79t-79 -192z" />
<glyph unicode="&#x3b5;" horiz-adv-x="1011" d="M117 352q0 157 155 248q-116 85 -116 223q0 151 92.5 260t230.5 109q163 0 371 -129l-98 -164q-54 32 -119.5 41.5t-153.5 9.5q-41 0 -65.5 -38.5t-24.5 -88.5q0 -49 38.5 -81.5t92.5 -45t121 -12.5v-192q-291 0 -291 -140q0 -87 60 -149t147 -62q54 0 83 1.5t72 12 t74 31.5l109 -157q-188 -129 -338 -129q-121 0 -222.5 61t-159.5 165t-58 226z" />
<glyph unicode="&#x3b6;" horiz-adv-x="968" d="M117 545q0 213 93.5 403.5t258.5 329.5h-352v192h792v-192h-127q-201 -98 -316.5 -298t-115.5 -435q0 -80 19 -147.5t64 -113.5t108 -46h61q133 0 220 -109t87 -258q0 -144 -88 -249t-219 -105v217q39 0 56.5 39.5t17.5 97.5q0 51 -18.5 88t-55.5 37h-61q-95 0 -175.5 46 t-134.5 122.5t-84 175.5t-30 205z" />
<glyph unicode="&#x3b7;" horiz-adv-x="1026" d="M117 0v1090h233v-5q88 48 191 48t188 -56t132.5 -149t47.5 -201v-1219h-233v1219q0 66 -38.5 115t-96.5 49q-117 0 -191 -84v-807h-233z" />
<glyph unicode="&#x3b8;" horiz-adv-x="980" d="M117 696q0 92 3 167.5t12.5 163t26 154.5t45 131.5t66.5 107t94 68t125 25.5q70 0 126 -25.5t94.5 -68t67 -107t45 -132t26.5 -154t13 -162.5t3 -168q0 -94 -7 -178t-22.5 -170.5t-44 -154.5t-68.5 -122.5t-99.5 -84t-133.5 -29.5q-88 0 -155 43.5t-107.5 113.5 t-65.5 169.5t-34.5 198.5t-9.5 214zM350 575q2 -81 7.5 -140.5t20 -117t42.5 -88t69 -30.5q42 0 70.5 30.5t43 88t20.5 117t8 140.5h-281zM350 817h281q-1 77 -4.5 135t-13 121.5t-24 104.5t-40.5 67.5t-60 26.5q-29 0 -51.5 -17.5t-37 -51.5t-24 -73.5t-15 -95.5t-8 -104.5 t-3.5 -112.5z" />
<glyph unicode="&#x3b9;" horiz-adv-x="778" d="M233 328v762h234v-762q0 -61 58.5 -95t136.5 -34v-242q-174 0 -301.5 106t-127.5 265z" />
<glyph unicode="&#x3ba;" d="M117 0v1090h233v-414l295 414h289l-316 -422l326 -668h-282l-213 467l-99 -123v-344h-233z" />
<glyph unicode="&#x3bb;" horiz-adv-x="1304" d="M117 0l485 989l-20 60q-28 84 -85 140t-132 56v217q148 0 266.5 -93t169.5 -239l387 -1130h-246l-231 674l-332 -674h-262z" />
<glyph unicode="&#x3bc;" horiz-adv-x="1259" d="M233 -492v1582h234v-738q47 -153 164 -153q115 0 162 153v738h233v-1090h-233v6q-74 -49 -162 -49q-90 0 -164 49v-498h-234z" />
<glyph unicode="&#x3bd;" horiz-adv-x="1056" d="M59 1090h246l268 -834q92 94 142.5 216.5t50.5 254.5q0 168 -41 363h238q36 -159 36 -363q0 -233 -112 -437.5t-309 -330.5l-175 64z" />
<glyph unicode="&#x3be;" horiz-adv-x="1026" d="M117 467q0 105 46 196t126 154q-133 114 -133 279q0 102 61 182h-100v192h792v-192h-354q-74 -21 -120 -68.5t-46 -113.5q0 -74 63.5 -122t149.5 -48v-217q-103 0 -177.5 -70.5t-74.5 -171.5q0 -93 54 -161t137 -68h61q133 0 220 -109t87 -258q0 -144 -88 -249t-219 -105 v217q39 0 56.5 39.5t17.5 97.5q0 51 -18.5 88t-55.5 37h-61q-119 0 -217 65t-152.5 173t-54.5 233z" />
<glyph unicode="&#x3bf;" horiz-adv-x="1026" d="M57 543q0 264 125 419.5t338 155.5q204 0 327.5 -157.5t123.5 -417.5q0 -259 -125 -415.5t-332 -156.5t-332 156.5t-125 415.5zM299 545q0 -161 55.5 -246.5t159.5 -85.5t159.5 85.5t55.5 246.5q0 160 -55 246t-158 86q-106 0 -161.5 -84.5t-55.5 -247.5z" />
<glyph unicode="&#x3c0;" horiz-adv-x="1251" d="M61 641q0 235 118.5 342t367.5 107h643v-236h-103v-854h-233v854h-190v-854h-234v854q-81 0 -107 -51t-26 -162h-236z" />
<glyph unicode="&#x3c1;" horiz-adv-x="1157" d="M117 -492v1037q0 153 55.5 286t162.5 217.5t243 84.5q137 0 244 -84.5t162.5 -217.5t55.5 -286t-55.5 -286t-162.5 -217.5t-244 -84.5q-120 0 -228 68v-517h-233zM350 295q37 -48 98 -72t130 -24q73 0 126.5 51.5t78 128.5t24.5 166t-24.5 166t-78 128.5t-126.5 51.5 t-126 -51.5t-77.5 -128.5t-24.5 -166v-250z" />
<glyph unicode="&#x3c2;" horiz-adv-x="1026" d="M117 565q0 147 50 275t148.5 210.5t225.5 82.5q99 0 181.5 -50.5t129 -137t45.5 -187.5l-209 2q0 56 -43.5 93.5t-103.5 37.5q-66 0 -110.5 -49.5t-62.5 -120t-18 -156.5q0 -64 10.5 -120t32.5 -103.5t60 -75.5t88 -28h61q133 0 220 -109t87 -258q0 -144 -88 -249 t-219 -105v217q39 0 56.5 39.5t17.5 97.5q0 51 -18.5 88t-55.5 37h-61q-127 0 -225.5 82t-148.5 210.5t-50 276.5z" />
<glyph unicode="&#x3c3;" horiz-adv-x="1234" d="M117 543q0 264 125 419.5t338 155.5q54 0 104 -12q168 22 387 131l107 -217q-118 -56 -254 -84q106 -153 106 -393q0 -259 -125 -415.5t-332 -156.5t-331.5 156t-124.5 416zM358 545q0 -161 55.5 -246.5t159.5 -85.5t159.5 85.5t55.5 246.5q0 160 -55 246t-158 86 q-106 0 -161.5 -84.5t-55.5 -247.5z" />
<glyph unicode="&#x3c4;" horiz-adv-x="837" d="M117 852v242h588v-242h-179v-524q0 -61 58.5 -95t136.5 -34v-242q-112 0 -210 47t-158 133t-60 191v524h-176z" />
<glyph unicode="&#x3c5;" horiz-adv-x="1026" d="M117 362v728h233v-728q0 -66 34.5 -114.5t90.5 -48.5q65 0 112 46.5t68 116t21 150.5q0 276 -82 578h242q73 -269 73 -578q0 -145 -52.5 -270.5t-153 -205t-228.5 -79.5q-102 0 -185 56.5t-128 149t-45 199.5z" />
<glyph unicode="&#x3c6;" horiz-adv-x="1540" d="M117 545q0 172 88.5 321.5t240.5 237.5l111 -184q-98 -58 -152.5 -158t-54.5 -217q0 -122 85.5 -212t217.5 -120v299q0 119 23 227t68.5 198t121 143t172.5 53q76 0 140 -33t108.5 -89.5t75.5 -132t46 -160t15 -173.5q0 -110 -42 -209.5t-114.5 -174.5t-170.5 -125.5 t-209 -68.5v-459h-234v459q-111 18 -209 68.5t-170.5 125.5t-114.5 174.5t-42 209.5zM887 213q132 30 217.5 120t85.5 212q0 58 -2.5 100t-11.5 91.5t-24.5 81t-44.5 52.5t-69 21q-31 0 -55.5 -12.5t-40.5 -30t-27 -51t-16.5 -59.5t-8 -72.5t-3 -73t-0.5 -77.5v-3v-299z" />
<glyph unicode="&#x3c7;" horiz-adv-x="1189" d="M117 -492l350 791l-350 791h258l221 -500l221 500h258l-350 -791l350 -791h-258l-221 500l-221 -500h-258z" />
<glyph unicode="&#x3c8;" horiz-adv-x="1306" d="M117 362v728h233v-728q0 -122 187 -155v1263h233v-1263q186 33 186 155v728h234v-728q0 -104 -58.5 -189t-152 -136t-209.5 -70v-459h-233v459q-116 19 -209.5 70t-152 136t-58.5 189z" />
<glyph unicode="&#x3c9;" horiz-adv-x="1357" d="M117 584q0 250 172 506h200q-139 -204 -139 -506q0 -42 0.5 -66.5t1.5 -65.5t4 -66t8 -58t13 -53t18.5 -39t26.5 -28t35 -9q100 0 127 147q-21 139 -21 381h234q0 -78 0.5 -120.5t3 -116t9.5 -115.5t18 -88t29.5 -67t43.5 -21q19 0 35 9t26.5 28t18.5 39t13 53t8 58t4 66 t1.5 65.5t0.5 66.5q0 300 -140 506h201q172 -256 172 -506q0 -96 -10 -182t-34.5 -169t-62.5 -143t-97.5 -96.5t-135.5 -36.5q-148 0 -231 127q-73 -127 -213 -127q-76 0 -135.5 36.5t-97.5 96.5t-62.5 143t-34.5 169t-10 182z" />
<glyph unicode="&#x3d1;" horiz-adv-x="1142" d="M117 362v365h233v-365q0 -69 47.5 -118t116.5 -49q67 0 114.5 49t47.5 118v433q-86 11 -156.5 29t-135.5 48t-109.5 70.5t-70.5 98.5t-26 130q0 105 42 195t119.5 145.5t174.5 55.5q113 0 204.5 -67t141 -176t49.5 -234v-121h117v-195l-117 2v-414q0 -166 -115.5 -283.5 t-279.5 -117.5q-165 0 -281 117.5t-116 283.5zM367 1171q0 -87 82 -131t227 -59v109q0 55 -9 103.5t-27 90t-50.5 66t-75.5 24.5q-67 0 -107 -60.5t-40 -142.5z" />
<glyph unicode="&#x3d5;" horiz-adv-x="1439" d="M119 545q0 212 138.5 372.5t346.5 200.5v352h234v-352q209 -40 348 -200.5t139 -372.5t-139 -373t-348 -201v-463h-234v463q-208 40 -346.5 200.5t-138.5 373.5zM352 545q0 -116 70.5 -207t181.5 -125v664q-111 -34 -181.5 -125t-70.5 -207zM838 213q111 35 182.5 125.5 t71.5 206.5t-71.5 206.5t-182.5 125.5v-664z" />
<glyph unicode="&#x3d6;" horiz-adv-x="1357" d="M117 584q0 250 172 506h200q-139 -204 -139 -506q0 -42 0.5 -66.5t1.5 -65.5t4 -66t8 -58t13 -53t18.5 -39t26.5 -28t35 -9q100 0 127 147q-21 139 -21 381h234q0 -78 0.5 -120.5t3 -116t9.5 -115.5t18 -88t29.5 -67t43.5 -21q19 0 35 9t26.5 28t18.5 39t13 53t8 58t4 66 t1.5 65.5t0.5 66.5q0 84 -0.5 129.5t-3.5 125t-10.5 125.5t-20 109t-33 99.5t-48 72.5t-67.5 52t-90 16q-205 0 -389 -105l-84 144q220 129 473 129q92 0 169 -35.5t131 -100t94.5 -148.5t64.5 -186.5t35.5 -208t11.5 -218.5q0 -96 -10 -182t-34.5 -169t-62.5 -143 t-97.5 -96.5t-135.5 -36.5q-148 0 -231 127q-73 -127 -213 -127q-76 0 -135.5 36.5t-97.5 96.5t-62.5 143t-34.5 169t-10 182z" />
<glyph unicode="&#x3f5;" d="M57 530q0 277 112 432.5t312 155.5q144 0 242 -76t137 -225h-256q-40 60 -112 60q-157 0 -187 -224h318v-217h-318q24 -229 172 -229q74 0 123 65h254q-44 -148 -141.5 -224.5t-243.5 -76.5q-198 0 -305 145t-107 414z" />
<glyph unicode="&#x400;" horiz-adv-x="1120" d="M127 0v1470h887v-260h-641v-309h590v-260h-590v-381h669v-260h-915zM362 1974h259l157 -299h-170z" />
<glyph unicode="&#x401;" horiz-adv-x="1120" d="M127 0v1470h887v-260h-641v-309h590v-260h-590v-381h669v-260h-915zM291 1638v236h211v-236h-211zM618 1638v236h211v-236h-211z" />
<glyph unicode="&#x402;" horiz-adv-x="1333" d="M23 1210v260h817v-260h-283v-288q38 28 90.5 41.5t161.5 13.5q202 0 314 -91.5t112 -269.5v-616q0 -188 -121 -274t-354 -86v251q32 0 67 5.5t72 17.5t60.5 36.5t23.5 57.5v600q0 33 -23.5 57.5t-60.5 36.5t-72 17.5t-67 5.5q-25 0 -57 -6.5t-66 -19.5t-57 -37t-23 -54 v-608h-252v1210h-282z" />
<glyph unicode="&#x403;" horiz-adv-x="1026" d="M127 0v1470h858v-260h-606v-1210h-252zM444 1585l158 299h258l-246 -299h-170z" />
<glyph unicode="&#x404;" horiz-adv-x="1212" d="M74 731q0 359 150.5 568.5t408.5 209.5q142 0 256.5 -67.5t183.5 -192.5q34 -62 50.5 -117.5t25.5 -142.5h-252q-22 97 -59 156q-33 46 -85 72t-114 26q-118 0 -194.5 -89t-102.5 -253h424v-260h-434q15 -196 93.5 -305t205.5 -109q135 0 209 115q33 52 57 162h252 q-25 -131 -54 -206.5t-81 -145.5q-141 -191 -387 -191q-257 0 -405 206t-148 564z" />
<glyph unicode="&#x405;" horiz-adv-x="1120" d="M66 453h241q8 -122 72 -181t190 -59q117 0 181.5 49.5t64.5 138.5q0 72 -46 111t-173 76l-129 37q-116 32 -179.5 61.5t-101.5 69.5q-102 99 -102 293q0 215 122 337.5t337 122.5q217 0 339.5 -122.5t135.5 -352.5h-242q-13 117 -70.5 170t-170.5 53q-100 0 -158 -47.5 t-58 -130.5q0 -63 29 -97t98 -56l295 -88q169 -51 242.5 -144t73.5 -256q0 -221 -131.5 -349t-358.5 -128q-158 0 -273 61.5t-173 178.5q-28 56 -40 110t-15 142z" />
<glyph unicode="&#x406;" horiz-adv-x="466" d="M106 0v1470h252v-1470h-252z" />
<glyph unicode="&#x407;" horiz-adv-x="466" d="M-35 1638v236h211v-236h-211zM109 0v1470h251v-1470h-251zM293 1638v236h211v-236h-211z" />
<glyph unicode="&#x408;" d="M37 555h235q1 -144 13.5 -214.5t43 -99t91.5 -28.5q78 0 109.5 47.5t31.5 165.5v1044h252v-1044q0 -233 -96.5 -348t-292.5 -115q-246 0 -332 180q-32 62 -43.5 150.5t-11.5 261.5z" />
<glyph unicode="&#x409;" horiz-adv-x="1845" d="M31 0v248q61 -1 116 112t86 287.5t31 356.5v466h840v-532h289q175 0 280 -131.5t105 -349.5q0 -207 -102.5 -332t-272.5 -125h-551l4 1219h-340v-226q1 -134 -14.5 -268t-52 -266t-91 -233t-139 -163.5t-188.5 -62.5zM1104 252h201q119 0 170 48.5t51 162.5t-46.5 168.5 t-142.5 54.5h-233v-434z" />
<glyph unicode="&#x40a;" horiz-adv-x="1835" d="M119 0v1470h252v-557h471v557h252v-532h288q175 0 280 -131.5t105 -349.5q0 -207 -102 -332t-272 -125h-551v662h-471v-662h-252zM1094 252h200q119 0 170.5 48.5t51.5 162.5t-46.5 168.5t-142.5 54.5h-233v-434z" />
<glyph unicode="&#x40b;" horiz-adv-x="1333" d="M23 1210v260h817v-260h-283v-288q38 28 90.5 41.5t161.5 13.5q202 0 314 -91.5t112 -269.5v-616h-252v608q0 33 -23.5 57.5t-60.5 36.5t-72 17.5t-67 5.5q-25 0 -57 -6.5t-66 -19.5t-57 -37t-23 -54v-608h-252v1210h-282z" />
<glyph unicode="&#x40c;" horiz-adv-x="1212" d="M145 0v1470h252v-528l461 528h326l-611 -704l639 -766h-323l-492 582v-582h-252zM557 1585l158 299h258l-246 -299h-170z" />
<glyph unicode="&#x40d;" horiz-adv-x="1212" d="M117 0v1470h233v-1054l498 1054h250v-1470h-234v1032l-483 -1032h-264zM399 1974h258l158 -299h-170z" />
<glyph unicode="&#x40e;" horiz-adv-x="1120" d="M25 1470h297l260 -593l229 593h285l-635 -1470h-285l262 578zM303 1868h111q14 -78 52.5 -110t121.5 -32q81 0 119 31t55 111h108q-30 -299 -292 -299q-248 0 -275 299z" />
<glyph unicode="&#x40f;" horiz-adv-x="1112" d="M61 0v1462h252v-1212h488v1212h252v-1462h-387v-301h-217v301h-388z" />
<glyph unicode="&#x410;" horiz-adv-x="1212" d="M33 0l430 1470h291l426 -1470h-275l-78 303h-444l-84 -303h-266zM451 555h307l-152 590z" />
<glyph unicode="&#x411;" horiz-adv-x="1212" d="M127 0v1470h858v-260h-616v-315h295q63 0 116.5 -8t90.5 -20t68.5 -31.5t50 -36.5t35.5 -40.5t24.5 -39t16.5 -36.5t13 -28q45 -88 45 -213q0 -186 -104 -311q-63 -75 -144.5 -103t-238.5 -28h-510zM369 252h309q95 0 144.5 53.5t49.5 155.5q0 88 -48 136t-134 48h-321 v-393z" />
<glyph unicode="&#x412;" horiz-adv-x="1212" d="M127 0v1470h586q173 0 272.5 -102.5t99.5 -280.5q0 -109 -34.5 -178t-112.5 -116q56 -30 86 -60t55 -78q45 -88 45 -213q0 -186 -104 -311q-63 -75 -144.5 -103t-238.5 -28h-510zM369 252h309q95 0 144.5 53.5t49.5 155.5q0 88 -48 136t-134 48h-321v-393zM369 895h295 q87 0 133.5 43.5t46.5 124.5q0 80 -45.5 118t-141.5 38h-288v-324z" />
<glyph unicode="&#x413;" horiz-adv-x="1026" d="M127 0v1470h858v-260h-606v-1210h-252z" />
<glyph unicode="&#x414;" horiz-adv-x="1458" d="M51 -246v492h133q61 0 116 113t86.5 288.5t31.5 356.5v466h844v-1224h145v-492h-219v246h-918v-246h-219zM524 252h486v967h-340v-226q2 -197 -35 -396.5t-111 -344.5z" />
<glyph unicode="&#x415;" horiz-adv-x="1120" d="M127 0v1470h887v-260h-641v-309h590v-260h-590v-381h669v-260h-915z" />
<glyph unicode="&#x416;" horiz-adv-x="1798" d="M0 0l598 766l-569 704h325l420 -528v528h250v-528l420 528h325l-569 -704l598 -766h-323l-451 582v-582h-250v582l-450 -582h-324z" />
<glyph unicode="&#x417;" horiz-adv-x="1120" d="M66 453h241q8 -122 72 -181t190 -59q117 0 181.5 49.5t64.5 138.5q0 40 -10 77t-33 73t-68 58t-108 22h-162v239h221q45 0 75 36t41 81t11 92q0 83 -57.5 130.5t-157.5 47.5q-113 0 -170.5 -53t-70.5 -170h-242q14 230 136 352.5t339 122.5q215 0 337 -122.5t122 -337.5 q0 -193 -103 -293q75 -52 108.5 -128.5t33.5 -189.5q0 -221 -131.5 -349t-358.5 -128q-158 0 -273 61.5t-173 178.5q-28 56 -40 110t-15 142z" />
<glyph unicode="&#x418;" horiz-adv-x="1212" d="M117 0v1470h233v-1054l498 1054h250v-1470h-234v1032l-483 -1032h-264z" />
<glyph unicode="&#x419;" horiz-adv-x="1212" d="M117 0v1470h233v-1054l498 1054h250v-1470h-234v1032l-483 -1032h-264zM338 1868h111q14 -78 52.5 -110t121.5 -32q81 0 119 31t55 111h108q-15 -149 -89 -224t-204 -75q-247 0 -274 299z" />
<glyph unicode="&#x41a;" horiz-adv-x="1212" d="M145 0v1470h252v-528l461 528h326l-611 -704l639 -766h-323l-492 582v-582h-252z" />
<glyph unicode="&#x41b;" horiz-adv-x="1212" d="M31 0v248q61 -1 116 112t86 287.5t31 356.5v466h844v-1470h-252v1219h-340v-226q1 -134 -14.5 -268t-52 -266t-91 -233t-139 -163.5t-188.5 -62.5z" />
<glyph unicode="&#x41c;" horiz-adv-x="1398" d="M117 0v1470h366l222 -1167l217 1167h362v-1470h-233v1247l-230 -1247h-248l-223 1247v-1247h-233z" />
<glyph unicode="&#x41d;" horiz-adv-x="1212" d="M119 0v1470h252v-557h471v557h252v-1470h-252v662h-471v-662h-252z" />
<glyph unicode="&#x41e;" horiz-adv-x="1306" d="M74 733q0 382 166 582q76 93 186 143.5t236 50.5q115 0 222.5 -51.5t182.5 -142.5q166 -200 166 -580q0 -379 -166 -579q-75 -92 -184 -143.5t-230 -51.5q-158 0 -288.5 83.5t-202.5 231.5q-88 187 -88 457zM326 739q0 -243 86.5 -380.5t240.5 -137.5t241 138t87 382 q0 269 -111 402q-39 50 -95.5 78t-117.5 28q-155 0 -243 -136t-88 -374z" />
<glyph unicode="&#x41f;" horiz-adv-x="1212" d="M119 0v1470h975v-1470h-252v1219h-471v-1219h-252z" />
<glyph unicode="&#x420;" horiz-adv-x="1120" d="M127 0v1470h551q170 0 272.5 -124.5t102.5 -331.5q0 -218 -105 -350t-280 -132h-289v-532h-252zM379 784h233q189 0 189 224q0 114 -51 162.5t-170 48.5h-201v-435z" />
<glyph unicode="&#x421;" horiz-adv-x="1212" d="M74 731q0 359 150.5 568.5t408.5 209.5q142 0 256.5 -67.5t183.5 -192.5q34 -62 50.5 -117.5t25.5 -142.5h-252q-22 97 -59 156q-33 46 -85 72t-114 26q-146 0 -227.5 -135.5t-81.5 -378.5q0 -235 80 -368.5t221 -133.5q135 0 209 115q33 52 57 162h252 q-25 -131 -54 -206.5t-81 -145.5q-141 -191 -387 -191q-257 0 -405 206t-148 564z" />
<glyph unicode="&#x422;" horiz-adv-x="1026" d="M23 1210v260h981v-260h-365v-1210h-252v1210h-364z" />
<glyph unicode="&#x423;" horiz-adv-x="1120" d="M25 1470h297l260 -593l229 593h285l-635 -1470h-285l262 578z" />
<glyph unicode="&#x424;" horiz-adv-x="1671" d="M61 743q0 115 52 223t143 183q163 135 453 160v161h254v-159q286 -24 452 -162q92 -75 143.5 -184t51.5 -230q0 -158 -84 -288.5t-232 -202.5q-145 -68 -331 -82v-162h-254v160q-290 27 -453 162q-94 77 -144.5 186t-50.5 235zM322 739q0 -133 102 -217t285 -106v641 q-187 -26 -281 -105q-50 -39 -78 -95.5t-28 -117.5zM963 414q183 23 285 107t102 214t-101.5 214.5t-285.5 107.5v-643z" />
<glyph unicode="&#x425;" horiz-adv-x="1120" d="M23 0l389 752l-367 718h299l215 -475l221 475h291l-369 -706l394 -764h-308l-229 502l-242 -502h-294z" />
<glyph unicode="&#x426;" horiz-adv-x="1384" d="M119 0v1470h252v-1218h471v1218h252v-1224h239v-492h-219v246h-995z" />
<glyph unicode="&#x427;" horiz-adv-x="1150" d="M102 854v616h252v-608q0 -33 24 -57.5t61 -36.5t72 -17.5t67 -5.5q25 0 57 6.5t65.5 19.5t56.5 37t23 54v608h252v-1470h-252v549q-38 -28 -90.5 -41.5t-161.5 -13.5q-202 0 -314 91t-112 269z" />
<glyph unicode="&#x428;" horiz-adv-x="1517" d="M119 0v1470h252v-1218l272 2v1216h252v-1216l252 -2v1218h252v-1470h-1280z" />
<glyph unicode="&#x429;" horiz-adv-x="1689" d="M119 0v1470h252v-1218h272v1218h252v-1218h252v1218h252v-1224h239v-492h-219v246h-1300z" />
<glyph unicode="&#x42a;" horiz-adv-x="1460" d="M20 1210v260h699v-532h289q175 0 280 -131.5t105 -349.5q0 -207 -102.5 -332t-272.5 -125h-551v1210h-447zM719 252h201q119 0 170 48.5t51 162.5t-46.5 168.5t-142.5 54.5h-233v-434z" />
<glyph unicode="&#x42b;" horiz-adv-x="1490" d="M127 0v1470h252v-532h289q175 0 280 -131.5t105 -349.5q0 -207 -102.5 -332t-272.5 -125h-551zM379 252h201q119 0 170 48.5t51 162.5t-46.5 168.5t-142.5 54.5h-233v-434zM1120 0v1470h252v-1470h-252z" />
<glyph unicode="&#x42c;" horiz-adv-x="1120" d="M127 0v1470h252v-532h289q175 0 280 -131.5t105 -349.5q0 -207 -102.5 -332t-272.5 -125h-551zM379 252h201q119 0 170 48.5t51 162.5t-46.5 168.5t-142.5 54.5h-233v-434z" />
<glyph unicode="&#x42d;" horiz-adv-x="1212" d="M74 504h252q24 -110 57 -162q74 -115 209 -115q127 0 205 109.5t92 304.5h-432v260h424q-26 164 -102.5 253t-194.5 89q-62 0 -114 -26t-85 -72q-37 -59 -59 -156h-252q9 87 25.5 142.5t50.5 117.5q69 125 183.5 192.5t256.5 67.5q258 0 408.5 -209.5t150.5 -568.5 q0 -358 -148 -564t-405 -206q-246 0 -387 191q-52 70 -81 145.5t-54 206.5z" />
<glyph unicode="&#x42e;" horiz-adv-x="1871" d="M119 0v1470h252v-557h280q30 254 154 402q76 93 186 143.5t236 50.5q115 0 222.5 -51.5t182.5 -142.5q166 -200 166 -580q0 -379 -166 -579q-75 -92 -183.5 -143.5t-229.5 -51.5q-158 0 -289 83.5t-203 231.5q-76 161 -88 386h-268v-662h-252zM891 739q0 -243 87 -380.5 t241 -137.5t240.5 138t86.5 382q0 271 -110 402q-39 50 -95.5 78t-117.5 28q-155 0 -243.5 -136t-88.5 -374z" />
<glyph unicode="&#x42f;" horiz-adv-x="1167" d="M61 0l418 532q-164 10 -260 140.5t-96 341.5q0 207 102.5 331.5t272.5 124.5h551v-1470h-252v532l-412 -532h-324zM375 1008q0 -114 46.5 -169t141.5 -55h234v435h-201q-119 0 -170 -48.5t-51 -162.5z" />
<glyph unicode="&#x430;" d="M49 291q0 143 68 233t194 113l211 39q82 14 82 90q0 123 -145 123q-75 0 -110 -34.5t-46 -117.5h-225q9 89 24 141.5t45 100.5q93 139 322 139q173 0 269 -83t96 -232v-590q0 -80 11 -117.5t40 -52.5v-43h-252q-16 61 -23 129q-69 -87 -132 -122.5t-150 -35.5 q-129 0 -204 86t-75 234zM285 309q0 -62 30 -97.5t82 -35.5q86 0 146.5 63t60.5 152v139q-23 -21 -55.5 -33t-104.5 -26q-88 -19 -123.5 -55t-35.5 -107z" />
<glyph unicode="&#x431;" horiz-adv-x="1026" d="M57 543v98t2 100t5.5 109t11.5 103t19.5 105.5t29.5 93t40.5 88.5t54.5 70t71 58q77 45 151 65t142 26t88 11q22 6 37 13t26 22t15 21t13.5 31t12.5 32h213q-30 -112 -49 -153q-30 -60 -80 -105q-43 -37 -92 -55t-113 -29t-98 -22q-96 -32 -140 -60.5t-65 -77.5 q79 31 168 31q204 0 327.5 -157.5t123.5 -417.5q0 -259 -125 -415.5t-332 -156.5t-332 156.5t-125 415.5zM299 545q0 -161 55.5 -246.5t159.5 -85.5t159.5 85.5t55.5 246.5q0 160 -55 246t-158 86q-106 0 -161.5 -84.5t-55.5 -247.5z" />
<glyph unicode="&#x432;" horiz-adv-x="978" d="M111 0v1090h436q173 0 273 -76.5t100 -208.5q0 -79 -35 -130.5t-113 -86.5q56 -23 86 -45t55 -58q45 -67 45 -157q0 -139 -104 -230q-63 -57 -144 -77.5t-239 -20.5h-360zM340 217h172q99 0 147 31t48 104q0 62 -46 88.5t-137 26.5h-184v-250zM340 674h158 q93 0 136.5 20.5t43.5 77.5q0 58 -42.5 79t-143.5 21h-152v-198z" />
<glyph unicode="&#x433;" horiz-adv-x="786" d="M109 0v1090h651v-234h-418v-856h-233z" />
<glyph unicode="&#x434;" horiz-adv-x="1304" d="M61 225h154q28 0 60.5 68.5t57.5 201.5t25 285v310h740v-865h145v-471h-213v246h-756v-246h-213v471zM487 233h377v623h-272v-63q0 -124 -26 -280.5t-79 -279.5z" />
<glyph unicode="&#x435;" d="M39 549q0 267 113 418t311 151q204 0 314 -156t110 -446v-51h-613q10 -136 59.5 -199t145.5 -63q121 0 156 119h242q-30 -103 -62 -159.5t-88 -103.5q-101 -88 -252 -88q-209 0 -322.5 150.5t-113.5 427.5zM281 653h364q-24 230 -184 230q-78 0 -121.5 -55.5 t-58.5 -174.5z" />
<glyph unicode="&#x436;" horiz-adv-x="1400" d="M-10 0l424 578l-414 512h289l295 -381v381h233v-381l295 381h289l-414 -512l424 -578h-283l-311 426v-426h-235l2 426l-312 -426h-282z" />
<glyph unicode="&#x437;" d="M51 348h242q3 -82 49 -120t141 -38q71 0 112.5 30.5t41.5 82.5q0 25 -6 48.5t-21 48.5t-48 40.5t-81 16.5l-96 2v188l76 2q51 1 84.5 15.5t47.5 39.5t18.5 45.5t4.5 47.5q0 102 -141 102q-77 0 -112.5 -31t-47.5 -110h-231q13 114 40 175t83 105q99 80 268 80 q227 0 318 -155q53 -89 53 -207q0 -110 -55 -183l40 -67q41 -63 41 -166q0 -172 -106 -270.5t-291 -98.5t-303 97q-59 47 -85 107.5t-36 172.5z" />
<glyph unicode="&#x438;" horiz-adv-x="1015" d="M109 0v1090h233v-703l307 703h269v-1090h-234v700l-307 -700h-268z" />
<glyph unicode="&#x439;" horiz-adv-x="1015" d="M109 0v1090h233v-703l307 703h269v-1090h-234v700l-307 -700h-268zM242 1536h110q14 -78 52.5 -109.5t121.5 -31.5q82 0 119.5 30.5t54.5 110.5h109q-15 -149 -89 -224t-204 -75q-247 0 -274 299z" />
<glyph unicode="&#x43a;" d="M117 0v1090h233v-381l295 381h289l-414 -512l424 -578h-282l-312 426v-426h-233z" />
<glyph unicode="&#x43b;" horiz-adv-x="1015" d="M35 0v236q28 0 60.5 66t57.5 196t25 282v310h740v-1090h-234v856h-272v-63q0 -81 -10 -176t-37.5 -207t-68 -201t-108.5 -149t-153 -60z" />
<glyph unicode="&#x43c;" horiz-adv-x="1323" d="M109 0v1090h364l186 -811l191 811h364v-1090h-233v686l-203 -686h-248l-188 641v-641h-233z" />
<glyph unicode="&#x43d;" horiz-adv-x="1015" d="M109 0v1090h233v-404h342v404h234v-1090h-234v453h-342v-453h-233z" />
<glyph unicode="&#x43e;" horiz-adv-x="1026" d="M57 543q0 264 125 419.5t338 155.5q204 0 327.5 -157.5t123.5 -417.5q0 -259 -125 -415.5t-332 -156.5t-332 156.5t-125 415.5zM299 545q0 -161 55.5 -246.5t159.5 -85.5t159.5 85.5t55.5 246.5q0 160 -55 246t-158 86q-106 0 -161.5 -84.5t-55.5 -247.5z" />
<glyph unicode="&#x43f;" horiz-adv-x="1026" d="M109 0v1090h809v-1090h-234v856h-342v-856h-233z" />
<glyph unicode="&#x440;" horiz-adv-x="1026" d="M104 -424v1514h226v-164q51 103 112 147.5t152 44.5q170 0 273.5 -154t103.5 -407q0 -268 -103 -427t-276 -159q-91 0 -149.5 40t-104.5 134v-569h-234zM330 532q0 -157 52 -241t150 -84q91 0 144 91t53 245q0 152 -53.5 238.5t-147.5 86.5q-198 0 -198 -336z" />
<glyph unicode="&#x441;" d="M57 530q0 277 112 432.5t312 155.5q111 0 200 -50t140 -142q27 -48 40 -96.5t20 -129.5h-238q-17 93 -52.5 135t-98.5 42q-95 0 -144 -85t-49 -249q0 -336 178 -336q67 0 111.5 52t52.5 138h238q-26 -207 -131.5 -316.5t-278.5 -109.5q-198 0 -305 145t-107 414z" />
<glyph unicode="&#x442;" horiz-adv-x="753" d="M16 885v205h721v-205h-243v-885h-234v885h-244z" />
<glyph unicode="&#x443;" d="M16 1090h263l192 -811l184 811h250l-307 -1072q-52 -183 -81.5 -263t-57.5 -117q-31 -41 -77 -58.5t-124 -17.5l-113 4v229q32 -4 50 -4q75 0 104.5 32t46.5 132z" />
<glyph unicode="&#x444;" horiz-adv-x="1609" d="M55 557q0 253 103.5 407t273.5 154q95 0 158.5 -44.5t97.5 -147.5v379h234v-379q46 108 104.5 150t151.5 42q170 0 273 -153.5t103 -407.5q0 -269 -102.5 -427.5t-275.5 -158.5q-91 0 -149.5 40t-104.5 134v-569h-234v569q-46 -94 -104.5 -134t-149.5 -40 q-173 0 -276 159t-103 427zM297 543q0 -154 53 -245t144 -91q98 0 150 84t52 241q0 336 -198 336q-94 0 -147.5 -86.5t-53.5 -238.5zM913 532q0 -157 52.5 -241t150.5 -84q91 0 144 91t53 245q0 152 -53.5 238.5t-147.5 86.5q-98 0 -148.5 -85t-50.5 -251z" />
<glyph unicode="&#x445;" d="M25 0l305 555l-293 535h285l151 -318l150 318h276l-295 -535l305 -555h-291l-155 328l-154 -328h-284z" />
<glyph unicode="&#x446;" horiz-adv-x="1179" d="M109 0v1090h233v-857h342v857h234v-865h233v-471h-213v246h-829z" />
<glyph unicode="&#x447;" horiz-adv-x="923" d="M72 645v445h233v-439q0 -36 23 -56t50.5 -25t67.5 -5q22 0 44 3.5t46.5 12.5t40 29t15.5 47v433h233v-1090h-233v418q-12 -15 -30.5 -25.5t-34 -15.5t-40.5 -8t-38.5 -3t-39.5 0.5t-32 0.5q-72 0 -140.5 32.5t-116.5 98t-48 147.5z" />
<glyph unicode="&#x448;" horiz-adv-x="1384" d="M109 0v1090h233v-857h233v857h234v-857h233v857h234v-1090h-1167z" />
<glyph unicode="&#x449;" horiz-adv-x="1529" d="M109 0v1090h233v-857h233v857h234v-857h233v857h234v-865h233v-471h-213v246h-1187z" />
<glyph unicode="&#x44a;" horiz-adv-x="1150" d="M20 885v205h494v-416h158q59 0 110 -6.5t87.5 -16t68.5 -25.5t51 -28.5t38 -32.5t27 -30.5t19.5 -28.5t13.5 -21q46 -68 46 -157q0 -138 -105 -230q-63 -57 -144 -77.5t-239 -20.5h-360v885h-265zM514 217h172q99 0 147 31t48 104q0 62 -46 88.5t-137 26.5h-184v-250z " />
<glyph unicode="&#x44b;" horiz-adv-x="1396" d="M111 0v1090h229v-416h158q59 0 110 -6.5t87.5 -16t68.5 -25.5t51 -28.5t38 -32.5t27 -30.5t19.5 -28.5t13.5 -21q45 -67 45 -157q0 -139 -104 -230q-63 -57 -144 -77.5t-239 -20.5h-360zM340 217h172q99 0 147 31t48 104q0 62 -46 88.5t-137 26.5h-184v-250zM1063 0v1090 h233v-1090h-233z" />
<glyph unicode="&#x44c;" horiz-adv-x="978" d="M111 0v1090h229v-416h158q59 0 110 -6.5t87.5 -16t68.5 -25.5t51 -28.5t38 -32.5t27 -30.5t19.5 -28.5t13.5 -21q45 -67 45 -157q0 -139 -104 -230q-63 -57 -144 -77.5t-239 -20.5h-360zM340 217h172q99 0 147 31t48 104q0 62 -46 88.5t-137 26.5h-184v-250z" />
<glyph unicode="&#x44d;" d="M57 700q7 81 20 129.5t40 96.5q51 92 140 142t200 50q200 0 312 -155.5t112 -432.5q0 -269 -107 -414t-305 -145q-173 0 -278.5 109.5t-131.5 316.5h238q8 -86 52.5 -138t111.5 -52q153 0 174 246h-223v233h215q-35 191 -181 191q-63 0 -98.5 -42t-52.5 -135h-238z" />
<glyph unicode="&#x44e;" horiz-adv-x="1478" d="M109 0v1090h233v-404h180q31 203 150 317.5t301 114.5q204 0 327 -157.5t123 -417.5t-124.5 -416t-331.5 -156q-188 0 -308.5 130t-142.5 352h-174v-453h-233zM752 545q0 -161 55.5 -246.5t159.5 -85.5t159.5 85.5t55.5 246.5q0 160 -55 246t-158 86q-106 0 -161.5 -84.5 t-55.5 -247.5z" />
<glyph unicode="&#x44f;" horiz-adv-x="978" d="M20 762q0 138 105 229q63 57 144.5 78t238.5 21h360v-1090h-229v416l-307 -416h-283l309 424q-44 6 -81.5 17t-65.5 26t-48.5 27.5t-38 32t-25 29t-20 28t-13.5 20.5q-46 68 -46 158zM272 737q0 -62 46 -88t137 -26h184v249h-172q-99 0 -147 -31t-48 -104z" />
<glyph unicode="&#x450;" d="M39 549q0 267 113 418t311 151q204 0 314 -156t110 -446v-51h-613q10 -136 59.5 -199t145.5 -63q121 0 156 119h242q-30 -103 -62 -159.5t-88 -103.5q-101 -88 -252 -88q-209 0 -322.5 150.5t-113.5 427.5zM256 1593h258l158 -299h-170zM281 653h364q-24 230 -184 230 q-78 0 -121.5 -55.5t-58.5 -174.5z" />
<glyph unicode="&#x451;" d="M39 549q0 267 113 418t311 151q204 0 314 -156t110 -446v-51h-613q10 -136 59.5 -199t145.5 -63q121 0 156 119h242q-30 -103 -62 -159.5t-88 -103.5q-101 -88 -252 -88q-209 0 -322.5 150.5t-113.5 427.5zM199 1257v236h211v-236h-211zM281 653h364q-24 230 -184 230 q-78 0 -121.5 -55.5t-58.5 -174.5zM526 1257v236h211v-236h-211z" />
<glyph unicode="&#x452;" horiz-adv-x="1046" d="M4 1126v150h125v194h233v-194h304v-150h-304v-288q72 178 269 178q139 0 223 -99.5t84 -265.5v-653q0 -106 -27 -178.5t-80.5 -112.5t-120 -57t-157.5 -17v242q79 0 115.5 50.5t36.5 160.5v473q0 114 -36 164.5t-116 50.5q-88 0 -139.5 -67.5t-51.5 -184.5v-522h-233 v1126h-125z" />
<glyph unicode="&#x453;" horiz-adv-x="786" d="M109 0v1090h651v-234h-418v-856h-233zM348 1278l158 299h258l-246 -299h-170z" />
<glyph unicode="&#x454;" d="M57 530q0 277 112 432.5t312 155.5q111 0 200 -50t140 -142q27 -48 40 -96.5t20 -129.5h-238q-17 93 -52.5 135t-98.5 42q-146 0 -181 -191h215v-233h-223q21 -246 174 -246q67 0 111.5 52t52.5 138h238q-26 -207 -131.5 -316.5t-278.5 -109.5q-198 0 -305 145t-107 414z " />
<glyph unicode="&#x455;" d="M51 348h242q3 -82 49 -120t141 -38q71 0 112.5 30.5t41.5 82.5q0 42 -47.5 71.5t-147.5 49.5q-186 35 -272 115t-86 217q0 118 53 207q91 155 318 155q169 0 268 -80q56 -44 83 -105t40 -175h-232q-12 79 -47 110t-112 31q-142 0 -142 -102q0 -43 46 -71.5t147 -47.5 q117 -23 203.5 -69t121.5 -103q41 -68 41 -166q0 -172 -106 -270.5t-291 -98.5t-303 97q-59 47 -85 107.5t-36 172.5z" />
<glyph unicode="&#x456;" horiz-adv-x="466" d="M117 0v1090h233v-1090h-233zM117 1219v266h233v-266h-233z" />
<glyph unicode="&#x457;" horiz-adv-x="466" d="M-35 1257v236h211v-236h-211zM117 0v1090h233v-1090h-233zM293 1257v236h211v-236h-211z" />
<glyph unicode="&#x458;" horiz-adv-x="466" d="M4 -209h43q37 0 53.5 23t16.5 77v1199h233v-1205q0 -183 -61.5 -253t-222.5 -70h-62v229zM117 1219v266h233v-266h-233z" />
<glyph unicode="&#x459;" horiz-adv-x="1564" d="M35 0v236q28 0 60.5 66t57.5 196t25 282v310h735v-416h158q59 0 110.5 -6.5t87.5 -16t68.5 -25.5t51.5 -28.5t38 -32.5t26.5 -30t19.5 -28.5t14 -21.5q45 -67 45 -157q0 -138 -105 -230q-63 -57 -144 -77.5t-239 -20.5h-360v856h-272v-63q0 -81 -10 -176t-37.5 -207 t-68 -201t-108.5 -149t-153 -60zM913 217h172q99 0 147 31t48 104q0 62 -46 88.5t-136 26.5h-185v-250z" />
<glyph unicode="&#x45a;" horiz-adv-x="1552" d="M109 0v1090h233v-404h342v404h229v-416h158q59 0 110.5 -6.5t87.5 -16t68.5 -25.5t51.5 -28.5t38 -32.5t26.5 -30t19.5 -28.5t14 -21.5q45 -67 45 -157q0 -138 -105 -230q-63 -57 -144 -77.5t-239 -20.5h-360v453h-342v-453h-233zM913 217h172q99 0 147 31t48 104 q0 62 -46 88.5t-136 26.5h-185v-250z" />
<glyph unicode="&#x45b;" horiz-adv-x="1046" d="M4 1126v150h125v194h233v-194h304v-150h-304v-288q72 178 269 178q139 0 223 -99.5t84 -265.5v-651h-233v559q0 114 -36 164.5t-116 50.5q-88 0 -139.5 -67.5t-51.5 -184.5v-522h-233v1126h-125z" />
<glyph unicode="&#x45c;" d="M117 0v1090h233v-381l295 381h289l-414 -512l424 -578h-282l-312 426v-426h-233zM391 1278l158 299h258l-246 -299h-170z" />
<glyph unicode="&#x45d;" horiz-adv-x="1015" d="M109 0v1090h233v-703l307 703h269v-1090h-234v700l-307 -700h-268zM305 1593h258l158 -299h-170z" />
<glyph unicode="&#x45e;" d="M16 1090h263l192 -811l184 811h250l-307 -1072q-52 -183 -81.5 -263t-57.5 -117q-31 -41 -77 -58.5t-124 -17.5l-113 4v229q32 -4 50 -4q75 0 104.5 32t46.5 132zM193 1536h110q14 -78 52.5 -109.5t121.5 -31.5q82 0 119.5 30.5t54.5 110.5h109q-15 -149 -89 -224 t-204 -75q-247 0 -274 299z" />
<glyph unicode="&#x45f;" horiz-adv-x="929" d="M57 0v1090h236v-863h342v863h235v-1090h-313v-250h-186v250h-314z" />
<glyph unicode="&#x48c;" horiz-adv-x="1120" d="M-10 1178v149h137v143h252v-143h190v-149h-190v-240h289q175 0 280 -131.5t105 -349.5q0 -207 -102.5 -332t-272.5 -125h-551v1178h-137zM379 252h201q119 0 170 48.5t51 162.5t-46.5 168.5t-142.5 54.5h-233v-434z" />
<glyph unicode="&#x48d;" horiz-adv-x="978" d="M-10 809v149h121v132h229v-132h229v-149h-229v-135h213q78 0 140.5 -13t104 -33t72 -50.5t47 -59.5t26.5 -66t12.5 -64.5t2.5 -59.5q0 -170 -103 -249t-345 -79h-399v809h-121zM340 217h172q99 0 147 31t48 104q0 62 -46 88.5t-137 26.5h-184v-250z" />
<glyph unicode="&#x48e;" horiz-adv-x="1120" d="M127 0v1470h551q170 0 272.5 -124.5t102.5 -331.5q0 -218 -105 -350t-280 -132h-289v-532h-252zM379 784h233q189 0 189 224q0 114 -51 162.5t-170 48.5h-201v-435z" />
<glyph unicode="&#x48f;" horiz-adv-x="1026" d="M104 -424v1514h226v-164q51 103 112 147.5t152 44.5q170 0 273.5 -154t103.5 -407q0 -268 -103 -427t-276 -159q-91 0 -149.5 40t-104.5 134v-569h-234zM330 532q0 -157 52 -241t150 -84q91 0 144 91t53 245q0 152 -53.5 238.5t-147.5 86.5q-198 0 -198 -336z" />
<glyph unicode="&#x490;" horiz-adv-x="1026" d="M127 0v1470h606v213h252v-473h-606v-1210h-252z" />
<glyph unicode="&#x491;" horiz-adv-x="786" d="M109 0v1090l430 2v219h221v-455h-418v-856h-233z" />
<glyph unicode="&#x492;" horiz-adv-x="1026" d="M0 870v201h127v399h858v-260h-606v-139h356v-201h-356v-870h-252v870h-127z" />
<glyph unicode="&#x493;" horiz-adv-x="786" d="M0 524v183h109v383h651v-234h-418v-149h231v-183h-231v-524h-233v524h-109z" />
<glyph unicode="&#x494;" horiz-adv-x="1026" d="M127 0v1470h858v-260h-606v-1210h-252z" />
<glyph unicode="&#x495;" horiz-adv-x="786" d="M109 0v1090h651v-234h-418v-856h-233z" />
<glyph unicode="&#x496;" horiz-adv-x="1798" d="M0 0l598 766l-569 704h325l420 -528v528h250v-528l420 528h325l-569 -704l406 -520h192v-492h-219v246h-104l-451 582v-582h-250v582l-450 -582h-324z" />
<glyph unicode="&#x497;" horiz-adv-x="1400" d="M-10 0l424 578l-414 512h289l295 -381v381h233v-381l295 381h289l-414 -512l258 -353h166v-471h-213v246h-70l-311 426v-426h-235l2 426l-312 -426h-282z" />
<glyph unicode="&#x498;" horiz-adv-x="1120" d="M66 453h241q8 -122 72 -181t190 -59q117 0 181.5 49.5t64.5 138.5q0 40 -10 77t-33 73t-68 58t-108 22h-162v239h221q45 0 75 36t41 81t11 92q0 83 -57.5 130.5t-157.5 47.5q-113 0 -170.5 -53t-70.5 -170h-242q14 230 136 352.5t339 122.5q215 0 337 -122.5t122 -337.5 q0 -193 -103 -293q75 -52 108.5 -128.5t33.5 -189.5q0 -221 -131.5 -349t-358.5 -128q-158 0 -273 61.5t-173 178.5q-28 56 -40 110t-15 142z" />
<glyph unicode="&#x499;" d="M51 348h242q3 -82 49 -120t141 -38q71 0 112.5 30.5t41.5 82.5q0 25 -6 48.5t-21 48.5t-48 40.5t-81 16.5l-96 2v188l76 2q51 1 84.5 15.5t47.5 39.5t18.5 45.5t4.5 47.5q0 102 -141 102q-77 0 -112.5 -31t-47.5 -110h-231q13 114 40 175t83 105q99 80 268 80 q227 0 318 -155q53 -89 53 -207q0 -110 -55 -183l40 -67q41 -63 41 -166q0 -172 -106 -270.5t-291 -98.5t-303 97q-59 47 -85 107.5t-36 172.5z" />
<glyph unicode="&#x49a;" horiz-adv-x="1212" d="M145 0v1470h252v-528l461 528h326l-611 -704l435 -520h204v-492h-219v246h-104l-492 582v-582h-252z" />
<glyph unicode="&#x49b;" d="M117 0v1090h233v-381l295 381h289l-414 -512l258 -353h166v-471h-213v246h-69l-312 426v-426h-233z" />
<glyph unicode="&#x49c;" horiz-adv-x="1212" d="M145 0v1470h252v-528l461 528h326l-611 -704l639 -766h-323l-492 582v-582h-252z" />
<glyph unicode="&#x49d;" d="M117 0v1090h233v-381l295 381h289l-414 -512l424 -578h-282l-312 426v-426h-233z" />
<glyph unicode="&#x49e;" horiz-adv-x="1212" d="M145 0v1470h252v-528l461 528h326l-611 -704l639 -766h-323l-492 582v-582h-252z" />
<glyph unicode="&#x49f;" d="M117 0v1090h233v-381l295 381h289l-414 -512l424 -578h-282l-312 426v-426h-233z" />
<glyph unicode="&#x4a0;" horiz-adv-x="1212" d="M145 0v1470h252v-528l461 528h326l-611 -704l639 -766h-323l-492 582v-582h-252z" />
<glyph unicode="&#x4a1;" d="M117 0v1090h233v-381l295 381h289l-414 -512l424 -578h-282l-312 426v-426h-233z" />
<glyph unicode="&#x4a2;" horiz-adv-x="1212" d="M119 0v1470h252v-557h471v557h252v-1470h-252v662h-471v-662h-252z" />
<glyph unicode="&#x4a3;" horiz-adv-x="1015" d="M109 0v1090h233v-404h342v404h234v-1090h-234v453h-342v-453h-233z" />
<glyph unicode="&#x4a4;" horiz-adv-x="1212" d="M119 0v1470h975v-1470h-252v1219h-471v-1219h-252z" />
<glyph unicode="&#x4a5;" horiz-adv-x="1026" d="M109 0v1090h809v-1090h-234v856h-342v-856h-233z" />
<glyph unicode="&#x4a6;" horiz-adv-x="1212" d="M74 731q0 359 150.5 568.5t408.5 209.5q142 0 256.5 -67.5t183.5 -192.5q34 -62 50.5 -117.5t25.5 -142.5h-252q-22 97 -59 156q-33 46 -85 72t-114 26q-146 0 -227.5 -135.5t-81.5 -378.5q0 -235 80 -368.5t221 -133.5q135 0 209 115q33 52 57 162h252 q-25 -131 -54 -206.5t-81 -145.5q-141 -191 -387 -191q-257 0 -405 206t-148 564z" />
<glyph unicode="&#x4a7;" d="M57 530q0 277 112 432.5t312 155.5q111 0 200 -50t140 -142q27 -48 40 -96.5t20 -129.5h-238q-17 93 -52.5 135t-98.5 42q-95 0 -144 -85t-49 -249q0 -336 178 -336q67 0 111.5 52t52.5 138h238q-26 -207 -131.5 -316.5t-278.5 -109.5q-198 0 -305 145t-107 414z" />
<glyph unicode="&#x4a8;" horiz-adv-x="1212" d="M74 731q0 359 150.5 568.5t408.5 209.5q142 0 256.5 -67.5t183.5 -192.5q34 -62 50.5 -117.5t25.5 -142.5h-252q-22 97 -59 156q-33 46 -85 72t-114 26q-146 0 -227.5 -135.5t-81.5 -378.5q0 -235 80 -368.5t221 -133.5q135 0 209 115q33 52 57 162h252 q-25 -131 -54 -206.5t-81 -145.5q-141 -191 -387 -191q-257 0 -405 206t-148 564z" />
<glyph unicode="&#x4a9;" d="M57 530q0 277 112 432.5t312 155.5q111 0 200 -50t140 -142q27 -48 40 -96.5t20 -129.5h-238q-17 93 -52.5 135t-98.5 42q-95 0 -144 -85t-49 -249q0 -336 178 -336q67 0 111.5 52t52.5 138h238q-26 -207 -131.5 -316.5t-278.5 -109.5q-198 0 -305 145t-107 414z" />
<glyph unicode="&#x4aa;" horiz-adv-x="1026" d="M23 1210v260h981v-260h-365v-964h188v-492h-219v246h-221v1210h-364z" />
<glyph unicode="&#x4ab;" horiz-adv-x="753" d="M16 885v205h721v-205h-243v-660h182v-471h-213v246h-203v885h-244z" />
<glyph unicode="&#x4ac;" horiz-adv-x="1120" d="M25 1470h297l249 -639l240 639h285l-404 -919v-551h-252v555z" />
<glyph unicode="&#x4ad;" horiz-adv-x="1120" d="M66 1090h296l209 -639l199 639h285l-363 -920v-551h-252v555z" />
<glyph unicode="&#x4ae;" horiz-adv-x="1120" d="M25 1470h297l249 -639l240 639h285l-404 -919v-47h348v-205h-348v-299h-252v299h-348v205h348v51z" />
<glyph unicode="&#x4af;" horiz-adv-x="1120" d="M66 1090h296l209 -639l199 639h285l-363 -916h348v-188h-348v-367h-252v367h-348v188h348z" />
<glyph unicode="&#x4b0;" horiz-adv-x="1120" d="M23 0l389 752l-367 718h299l215 -475l221 475h291l-369 -706l267 -518h127v-492h-219v246h-89l-229 502l-242 -502h-294z" />
<glyph unicode="&#x4b1;" d="M25 0l305 555l-293 535h285l151 -318l150 318h276l-295 -535l180 -330h125v-471h-213v246h-78l-155 328l-154 -328h-284z" />
<glyph unicode="&#x4b2;" horiz-adv-x="1384" d="M119 0v1470h252v-1218h471v1218h252v-1224h239v-492h-219v246h-995z" />
<glyph unicode="&#x4b3;" horiz-adv-x="1179" d="M109 0v1090h233v-857h342v857h234v-865h233v-471h-213v246h-829z" />
<glyph unicode="&#x4b4;" horiz-adv-x="1150" d="M102 854v616h252v-608q0 -33 24 -57.5t61 -36.5t72 -17.5t67 -5.5q25 0 57 6.5t65.5 19.5t56.5 37t23 54v608h252v-1470h-252v549q-38 -28 -90.5 -41.5t-161.5 -13.5q-202 0 -314 91t-112 269z" />
<glyph unicode="&#x4b5;" horiz-adv-x="923" d="M72 645v445h233v-439q0 -36 23 -56t50.5 -25t67.5 -5q22 0 44 3.5t46.5 12.5t40 29t15.5 47v433h233v-1090h-233v418q-12 -15 -30.5 -25.5t-34 -15.5t-40.5 -8t-38.5 -3t-39.5 0.5t-32 0.5q-72 0 -140.5 32.5t-116.5 98t-48 147.5z" />
<glyph unicode="&#x4b6;" horiz-adv-x="1150" d="M102 854v616h252v-608q0 -33 24 -57.5t61 -36.5t72 -17.5t67 -5.5q25 0 57 6.5t65.5 19.5t56.5 37t23 54v608h252v-1470h-252v549q-38 -28 -90.5 -41.5t-161.5 -13.5q-202 0 -314 91t-112 269z" />
<glyph unicode="&#x4b7;" horiz-adv-x="923" d="M72 645v445h233v-439q0 -36 23 -56t50.5 -25t67.5 -5q22 0 44 3.5t46.5 12.5t40 29t15.5 47v433h233v-1090h-233v418q-12 -15 -30.5 -25.5t-34 -15.5t-40.5 -8t-38.5 -3t-39.5 0.5t-32 0.5q-72 0 -140.5 32.5t-116.5 98t-48 147.5z" />
<glyph unicode="&#x4b8;" horiz-adv-x="1150" d="M102 0v1470h252v-548q38 28 90.5 41.5t161.5 13.5q202 0 314 -91.5t112 -269.5v-616h-252v608q0 33 -23.5 57.5t-60.5 36.5t-72 17.5t-67 5.5q-25 0 -57 -6.5t-66 -19.5t-57 -37t-23 -54v-608h-252z" />
<glyph unicode="&#x4b9;" horiz-adv-x="923" d="M72 0v1090h233v-418q12 15 30.5 25.5t34 15.5t40.5 8t38.5 3t39.5 -0.5t32 -0.5q71 0 140 -33t117 -98.5t48 -147.5v-444h-233v438q0 36 -23 56t-50.5 25t-67.5 5q-22 0 -44 -3.5t-46.5 -12.5t-40 -29t-15.5 -47v-432h-233z" />
<glyph unicode="&#x4ba;" horiz-adv-x="1212" d="M74 731q0 359 150.5 568.5t408.5 209.5q142 0 256.5 -67.5t183.5 -192.5q34 -62 50.5 -117.5t25.5 -142.5h-252q-22 97 -59 156q-33 46 -85 72t-114 26q-146 0 -227.5 -135.5t-81.5 -378.5q0 -235 80 -368.5t221 -133.5q135 0 209 115q33 52 57 162h252 q-25 -131 -54 -206.5t-81 -145.5q-141 -191 -387 -191q-257 0 -405 206t-148 564z" />
<glyph unicode="&#x4bb;" d="M57 530q0 277 112 432.5t312 155.5q111 0 200 -50t140 -142q27 -48 40 -96.5t20 -129.5h-238q-17 93 -52.5 135t-98.5 42q-95 0 -144 -85t-49 -249q0 -336 178 -336q67 0 111.5 52t52.5 138h238q-26 -207 -131.5 -316.5t-278.5 -109.5q-198 0 -305 145t-107 414z" />
<glyph unicode="&#x4bc;" horiz-adv-x="1212" d="M74 731q0 359 150.5 568.5t408.5 209.5q142 0 256.5 -67.5t183.5 -192.5q34 -62 50.5 -117.5t25.5 -142.5h-252q-22 97 -59 156q-33 46 -85 72t-114 26q-146 0 -227.5 -135.5t-81.5 -378.5q0 -235 80 -368.5t221 -133.5q135 0 209 115q33 52 57 162h252 q-25 -131 -54 -206.5t-81 -145.5q-141 -191 -387 -191q-257 0 -405 206t-148 564z" />
<glyph unicode="&#x4bd;" d="M57 530q0 277 112 432.5t312 155.5q111 0 200 -50t140 -142q27 -48 40 -96.5t20 -129.5h-238q-17 93 -52.5 135t-98.5 42q-95 0 -144 -85t-49 -249q0 -336 178 -336q67 0 111.5 52t52.5 138h238q-26 -207 -131.5 -316.5t-278.5 -109.5q-198 0 -305 145t-107 414z" />
<glyph unicode="&#x4be;" horiz-adv-x="466" d="M106 0v1470h252v-1470h-252z" />
<glyph unicode="&#x4bf;" horiz-adv-x="1798" d="M0 0l598 766l-569 704h325l420 -528v528h250v-528l420 528h325l-569 -704l598 -766h-323l-451 582v-582h-250v582l-450 -582h-324zM614 1974h111q14 -78 52.5 -109.5t121.5 -31.5q82 0 119.5 30.5t54.5 110.5h109q-15 -149 -89 -224t-204 -75q-248 0 -275 299z" />
<glyph unicode="&#x4c0;" horiz-adv-x="1400" d="M-10 0l424 578l-414 512h289l295 -381v381h233v-381l295 381h289l-414 -512l424 -578h-283l-311 426v-426h-235l2 426l-312 -426h-282zM418 1593h110q14 -78 52.5 -109.5t121.5 -31.5q82 0 120 30.5t55 110.5h108q-15 -149 -89 -224t-204 -75q-247 0 -274 299z" />
<glyph unicode="&#x4c1;" horiz-adv-x="1212" d="M145 0v1470h252v-528l461 528h326l-611 -704l639 -766h-323l-492 582v-582h-252z" />
<glyph unicode="&#x4c2;" d="M117 0v1090h233v-381l295 381h289l-414 -512l424 -578h-282l-312 426v-426h-233z" />
<glyph unicode="&#x4c3;" horiz-adv-x="1212" d="M119 0v1470h252v-557h471v557h252v-1470h-252v662h-471v-662h-252z" />
<glyph unicode="&#x4c4;" horiz-adv-x="1015" d="M109 0v1090h233v-404h342v404h234v-1090h-234v453h-342v-453h-233z" />
<glyph unicode="&#x4c7;" horiz-adv-x="1150" d="M102 854v616h252v-608q0 -33 24 -57.5t61 -36.5t72 -17.5t67 -5.5q25 0 57 6.5t65.5 19.5t56.5 37t23 54v608h252v-1470h-252v549q-38 -28 -90.5 -41.5t-161.5 -13.5q-202 0 -314 91t-112 269z" />
<glyph unicode="&#x4c8;" horiz-adv-x="923" d="M72 645v445h233v-439q0 -36 23 -56t50.5 -25t67.5 -5q22 0 44 3.5t46.5 12.5t40 29t15.5 47v433h233v-1090h-233v418q-12 -15 -30.5 -25.5t-34 -15.5t-40.5 -8t-38.5 -3t-39.5 0.5t-32 0.5q-72 0 -140.5 32.5t-116.5 98t-48 147.5z" />
<glyph unicode="&#x4cb;" horiz-adv-x="1212" d="M33 0l430 1470h291l426 -1470h-275l-78 303h-444l-84 -303h-266zM324 1974h110q14 -78 52.5 -109.5t121.5 -31.5q82 0 119.5 30.5t54.5 110.5h109q-15 -149 -89 -224t-204 -75q-247 0 -274 299zM451 555h307l-152 590z" />
<glyph unicode="&#x4cc;" d="M49 291q0 143 68 233t194 113l211 39q82 14 82 90q0 123 -145 123q-75 0 -110 -34.5t-46 -117.5h-225q9 89 24 141.5t45 100.5q93 139 322 139q173 0 269 -83t96 -232v-590q0 -80 11 -117.5t40 -52.5v-43h-252q-16 61 -23 129q-69 -87 -132 -122.5t-150 -35.5 q-129 0 -204 86t-75 234zM57 1593h111q14 -78 52.5 -109.5t121.5 -31.5q82 0 119.5 30.5t54.5 110.5h109q-15 -149 -89 -224t-204 -75q-248 0 -275 299zM285 309q0 -62 30 -97.5t82 -35.5q86 0 146.5 63t60.5 152v139q-23 -21 -55.5 -33t-104.5 -26q-88 -19 -123.5 -55 t-35.5 -107z" />
<glyph unicode="&#x4d0;" horiz-adv-x="1212" d="M33 0l430 1470h291l426 -1470h-275l-78 303h-444l-84 -303h-266zM338 1675v236h211v-236h-211zM451 555h307l-152 590zM666 1675v236h211v-236h-211z" />
<glyph unicode="&#x4d1;" d="M49 291q0 143 68 233t194 113l211 39q82 14 82 90q0 123 -145 123q-75 0 -110 -34.5t-46 -117.5h-225q9 89 24 141.5t45 100.5q93 139 322 139q173 0 269 -83t96 -232v-590q0 -80 11 -117.5t40 -52.5v-43h-252q-16 61 -23 129q-69 -87 -132 -122.5t-150 -35.5 q-129 0 -204 86t-75 234zM72 1294v236h211v-236h-211zM285 309q0 -62 30 -97.5t82 -35.5q86 0 146.5 63t60.5 152v139q-23 -21 -55.5 -33t-104.5 -26q-88 -19 -123.5 -55t-35.5 -107zM399 1294v236h211v-236h-211z" />
<glyph unicode="&#x4d2;" horiz-adv-x="1679" d="M8 0l441 1470h1140v-260h-622v-309h561v-260h-561v-381h635v-260h-881v313h-361l-88 -313h-264zM426 555h295v655h-109z" />
<glyph unicode="&#x4d3;" horiz-adv-x="1492" d="M49 301q0 127 59.5 209.5t167.5 105.5l220 46q79 17 99.5 34.5t20.5 69.5q0 65 -36.5 94t-118.5 29q-75 0 -111 -37t-39 -117h-229q8 85 22 135.5t43 96.5q97 151 326 151q91 0 157.5 -28t129.5 -93q70 67 130 94t140 27q83 0 158.5 -35t126.5 -98q127 -157 127 -469v-51 h-613q10 -136 59.5 -199t145.5 -63q121 0 156 119h242q-30 -103 -62 -159.5t-88 -103.5q-104 -88 -256 -88q-117 0 -187.5 39t-133.5 137q-104 -176 -338 -176q-153 0 -235.5 85.5t-82.5 244.5zM285 309q0 -63 33 -98t92 -35q79 0 140.5 63.5t61.5 145.5v135 q-20 -22 -55 -34t-119 -27q-89 -17 -121 -48.5t-32 -101.5zM836 653h364q-24 230 -184 230q-78 0 -121.5 -55.5t-58.5 -174.5z" />
<glyph unicode="&#x4d4;" horiz-adv-x="1120" d="M127 0v1470h887v-260h-641v-309h590v-260h-590v-381h669v-260h-915zM287 1974h110q14 -78 52.5 -109.5t121.5 -31.5q82 0 119.5 30.5t54.5 110.5h109q-15 -149 -89 -224t-204 -75q-247 0 -274 299z" />
<glyph unicode="&#x4d5;" d="M39 549q0 267 113 418t311 151q204 0 314 -156t110 -446v-51h-613q10 -136 59.5 -199t145.5 -63q121 0 156 119h242q-30 -103 -62 -159.5t-88 -103.5q-101 -88 -252 -88q-209 0 -322.5 150.5t-113.5 427.5zM180 1593h111q14 -78 52.5 -109.5t121.5 -31.5q82 0 119.5 30.5 t54.5 110.5h109q-15 -149 -89 -224t-204 -75q-248 0 -275 299zM281 653h364q-24 230 -184 230q-78 0 -121.5 -55.5t-58.5 -174.5z" />
<glyph unicode="&#x4d6;" horiz-adv-x="1212" d="M74 481h252q21 -95 59 -155q33 -46 85 -72.5t114 -26.5q146 0 227.5 135.5t81.5 378.5q0 235 -80 368.5t-221 133.5q-135 0 -209 -115q-33 -53 -57 -161h-252q25 131 54 206.5t81 145.5q140 190 387 190q257 0 405 -206t148 -564q0 -359 -150.5 -568.5t-408.5 -209.5 q-142 0 -256.5 67.5t-183.5 192.5q-34 62 -50.5 117.5t-25.5 142.5z" />
<glyph unicode="&#x4d7;" d="M57 700q7 81 20 129.5t40 96.5q51 92 140 142t200 50q200 0 312 -155.5t112 -432.5q0 -269 -107 -414t-305 -145q-173 0 -278.5 109.5t-131.5 316.5h238q8 -86 52.5 -138t111.5 -52q178 0 178 336q0 164 -49 249t-144 85q-63 0 -98.5 -42t-52.5 -135h-238z" />
<glyph unicode="&#x4d8;" horiz-adv-x="1212" d="M74 481h252q21 -95 59 -155q33 -46 85 -72.5t114 -26.5q146 0 227.5 135.5t81.5 378.5q0 235 -80 368.5t-221 133.5q-135 0 -209 -115q-33 -53 -57 -161h-252q25 131 54 206.5t81 145.5q140 190 387 190q257 0 405 -206t148 -564q0 -359 -150.5 -568.5t-408.5 -209.5 q-142 0 -256.5 67.5t-183.5 192.5q-34 62 -50.5 117.5t-25.5 142.5zM215 1675v236h211v-236h-211zM543 1675v236h211v-236h-211z" />
<glyph unicode="&#x4d9;" d="M57 700q7 81 20 129.5t40 96.5q51 92 140 142t200 50q200 0 312 -155.5t112 -432.5q0 -269 -107 -414t-305 -145q-173 0 -278.5 109.5t-131.5 316.5h238q8 -86 52.5 -138t111.5 -52q178 0 178 336q0 164 -49 249t-144 85q-63 0 -98.5 -42t-52.5 -135h-238zM80 1294v236 h211v-236h-211zM408 1294v236h210v-236h-210z" />
<glyph unicode="&#x4da;" horiz-adv-x="1798" d="M0 0l598 766l-569 704h325l420 -528v528h250v-528l420 528h325l-569 -704l598 -766h-323l-451 582v-582h-250v582l-450 -582h-324zM629 1675v236h211v-236h-211zM956 1675v236h211v-236h-211z" />
<glyph unicode="&#x4db;" horiz-adv-x="1400" d="M-10 0l424 578l-414 512h289l295 -381v381h233v-381l295 381h289l-414 -512l424 -578h-283l-311 426v-426h-235l2 426l-312 -426h-282zM432 1294v236h211v-236h-211zM760 1294v236h211v-236h-211z" />
<glyph unicode="&#x4dc;" horiz-adv-x="1120" d="M66 453h241q8 -122 72 -181t190 -59q117 0 181.5 49.5t64.5 138.5q0 40 -10 77t-33 73t-68 58t-108 22h-162v239h221q45 0 75 36t41 81t11 92q0 83 -57.5 130.5t-157.5 47.5q-113 0 -170.5 -53t-70.5 -170h-242q14 230 136 352.5t339 122.5q215 0 337 -122.5t122 -337.5 q0 -193 -103 -293q75 -52 108.5 -128.5t33.5 -189.5q0 -221 -131.5 -349t-358.5 -128q-158 0 -273 61.5t-173 178.5q-28 56 -40 110t-15 142zM285 1675v236h211v-236h-211zM612 1675v236h211v-236h-211z" />
<glyph unicode="&#x4dd;" d="M51 348h242q3 -82 49 -120t141 -38q71 0 112.5 30.5t41.5 82.5q0 25 -6 48.5t-21 48.5t-48 40.5t-81 16.5l-96 2v188l76 2q51 1 84.5 15.5t47.5 39.5t18.5 45.5t4.5 47.5q0 102 -141 102q-77 0 -112.5 -31t-47.5 -110h-231q13 114 40 175t83 105q99 80 268 80 q227 0 318 -155q53 -89 53 -207q0 -110 -55 -183l40 -67q41 -63 41 -166q0 -172 -106 -270.5t-291 -98.5t-303 97q-59 47 -85 107.5t-36 172.5zM195 1294v236h211v-236h-211zM522 1294v236h211v-236h-211z" />
<glyph unicode="&#x4de;" horiz-adv-x="1120" d="M66 453h241q8 -122 72 -181t190 -59q117 0 181.5 49.5t64.5 138.5q0 40 -10 77t-33 73t-68 58t-108 22h-162v239h221q45 0 75 36t41 81t11 92q0 83 -57.5 130.5t-157.5 47.5q-113 0 -170.5 -53t-70.5 -170h-242q14 230 136 352.5t339 122.5q215 0 337 -122.5t122 -337.5 q0 -193 -103 -293q75 -52 108.5 -128.5t33.5 -189.5q0 -221 -131.5 -349t-358.5 -128q-158 0 -273 61.5t-173 178.5q-28 56 -40 110t-15 142z" />
<glyph unicode="&#x4df;" d="M51 348h242q3 -82 49 -120t141 -38q71 0 112.5 30.5t41.5 82.5q0 25 -6 48.5t-21 48.5t-48 40.5t-81 16.5l-96 2v188l76 2q51 1 84.5 15.5t47.5 39.5t18.5 45.5t4.5 47.5q0 102 -141 102q-77 0 -112.5 -31t-47.5 -110h-231q13 114 40 175t83 105q99 80 268 80 q227 0 318 -155q53 -89 53 -207q0 -110 -55 -183l40 -67q41 -63 41 -166q0 -172 -106 -270.5t-291 -98.5t-303 97q-59 47 -85 107.5t-36 172.5z" />
<glyph unicode="&#x4e0;" horiz-adv-x="1212" d="M117 0v1470h233v-1054l498 1054h250v-1470h-234v1032l-483 -1032h-264zM317 1675v150h580v-150h-580z" />
<glyph unicode="&#x4e1;" horiz-adv-x="1015" d="M109 0v1090h233v-703l307 703h269v-1090h-234v700l-307 -700h-268zM223 1294v150h580v-150h-580z" />
<glyph unicode="&#x4e2;" horiz-adv-x="1212" d="M117 0v1470h233v-1054l498 1054h250v-1470h-234v1032l-483 -1032h-264zM338 1675v236h211v-236h-211zM666 1675v236h211v-236h-211z" />
<glyph unicode="&#x4e3;" horiz-adv-x="1015" d="M109 0v1090h233v-703l307 703h269v-1090h-234v700l-307 -700h-268zM244 1294v236h211v-236h-211zM571 1294v236h211v-236h-211z" />
<glyph unicode="&#x4e4;" horiz-adv-x="1306" d="M74 733q0 382 166 582q76 93 186 143.5t236 50.5q115 0 222.5 -51.5t182.5 -142.5q166 -200 166 -580q0 -379 -166 -579q-75 -92 -184 -143.5t-230 -51.5q-158 0 -288.5 83.5t-202.5 231.5q-88 187 -88 457zM326 739q0 -243 86.5 -380.5t240.5 -137.5t241 138t87 382 q0 269 -111 402q-39 50 -95.5 78t-117.5 28q-155 0 -243 -136t-88 -374zM383 1675v236h211v-236h-211zM711 1675v236h211v-236h-211z" />
<glyph unicode="&#x4e5;" horiz-adv-x="1026" d="M57 543q0 264 125 419.5t338 155.5q204 0 327.5 -157.5t123.5 -417.5q0 -259 -125 -415.5t-332 -156.5t-332 156.5t-125 415.5zM244 1294v236h211v-236h-211zM299 545q0 -161 55.5 -246.5t159.5 -85.5t159.5 85.5t55.5 246.5q0 160 -55 246t-158 86q-106 0 -161.5 -84.5 t-55.5 -247.5zM571 1294v236h211v-236h-211z" />
<glyph unicode="&#x4e6;" horiz-adv-x="1306" d="M74 733q0 382 166 582q76 93 186 143.5t236 50.5q115 0 222.5 -51.5t182.5 -142.5q166 -200 166 -580q0 -379 -166 -579q-75 -92 -184 -143.5t-230 -51.5q-158 0 -288.5 83.5t-202.5 231.5q-88 187 -88 457zM328 664q14 -210 99 -326.5t226 -116.5t226.5 117t99.5 326 h-651zM328 813h651q-16 217 -109 330q-39 50 -95.5 78t-117.5 28q-142 0 -228.5 -115.5t-100.5 -320.5z" />
<glyph unicode="&#x4e7;" horiz-adv-x="1026" d="M57 543q0 264 125 419.5t338 155.5q204 0 327.5 -157.5t123.5 -417.5q0 -259 -125 -415.5t-332 -156.5t-332 156.5t-125 415.5zM301 616h424q-11 126 -64.5 193.5t-144.5 67.5q-94 0 -148.5 -66.5t-66.5 -194.5zM303 467q12 -124 66 -189t145 -65t145 65t66 189h-422z " />
<glyph unicode="&#x4e8;" horiz-adv-x="1306" d="M74 733q0 382 166 582q76 93 186 143.5t236 50.5q115 0 222.5 -51.5t182.5 -142.5q166 -200 166 -580q0 -379 -166 -579q-75 -92 -184 -143.5t-230 -51.5q-158 0 -288.5 83.5t-202.5 231.5q-88 187 -88 457zM328 664q14 -210 99 -326.5t226 -116.5t226.5 117t99.5 326 h-651zM328 813h651q-16 217 -109 330q-39 50 -95.5 78t-117.5 28q-142 0 -228.5 -115.5t-100.5 -320.5zM383 1675v236h211v-236h-211zM711 1675v236h211v-236h-211z" />
<glyph unicode="&#x4e9;" horiz-adv-x="1026" d="M57 543q0 264 125 419.5t338 155.5q204 0 327.5 -157.5t123.5 -417.5q0 -259 -125 -415.5t-332 -156.5t-332 156.5t-125 415.5zM244 1294v236h211v-236h-211zM301 616h424q-11 126 -64.5 193.5t-144.5 67.5q-94 0 -148.5 -66.5t-66.5 -194.5zM303 467q12 -124 66 -189 t145 -65t145 65t66 189h-422zM571 1294v236h211v-236h-211z" />
<glyph unicode="&#x4ea;" horiz-adv-x="1212" d="M74 504h252q24 -110 57 -162q74 -115 209 -115q127 0 205 109.5t92 304.5h-432v260h424q-26 164 -102.5 253t-194.5 89q-62 0 -114 -26t-85 -72q-37 -59 -59 -156h-252q9 87 25.5 142.5t50.5 117.5q69 125 183.5 192.5t256.5 67.5q258 0 408.5 -209.5t150.5 -568.5 q0 -358 -148 -564t-405 -206q-246 0 -387 191q-52 70 -81 145.5t-54 206.5zM207 1675v236h211v-236h-211zM535 1675v236h210v-236h-210z" />
<glyph unicode="&#x4eb;" d="M57 700q7 81 20 129.5t40 96.5q51 92 140 142t200 50q200 0 312 -155.5t112 -432.5q0 -269 -107 -414t-305 -145q-173 0 -278.5 109.5t-131.5 316.5h238q8 -86 52.5 -138t111.5 -52q153 0 174 246h-223v233h215q-35 191 -181 191q-63 0 -98.5 -42t-52.5 -135h-238z M72 1294v236h211v-236h-211zM399 1294v236h211v-236h-211z" />
<glyph unicode="&#x4ec;" horiz-adv-x="1120" d="M25 1470h297l260 -593l229 593h285l-635 -1470h-285l262 578zM270 1675v150h580v-150h-580z" />
<glyph unicode="&#x4ed;" d="M16 1090h263l192 -811l184 811h250l-307 -1072q-52 -183 -81.5 -263t-57.5 -117q-31 -41 -77 -58.5t-124 -17.5l-113 4v229q32 -4 50 -4q75 0 104.5 32t46.5 132zM170 1294v150h580v-150h-580z" />
<glyph unicode="&#x4ee;" horiz-adv-x="1120" d="M25 1470h297l260 -593l229 593h285l-635 -1470h-285l262 578zM291 1675v236h211v-236h-211zM618 1675v236h211v-236h-211z" />
<glyph unicode="&#x4ef;" d="M16 1090h263l192 -811l184 811h250l-307 -1072q-52 -183 -81.5 -263t-57.5 -117q-31 -41 -77 -58.5t-124 -17.5l-113 4v229q32 -4 50 -4q75 0 104.5 32t46.5 132zM190 1294v236h211v-236h-211zM518 1294v236h211v-236h-211z" />
<glyph unicode="&#x4f0;" horiz-adv-x="1120" d="M25 1470h297l260 -593l229 593h285l-635 -1470h-285l262 578zM158 1675l157 299h260l-247 -299h-170zM543 1675l157 299h261l-248 -299h-170z" />
<glyph unicode="&#x4f1;" d="M16 1090h263l192 -811l184 811h250l-307 -1072q-52 -183 -81.5 -263t-57.5 -117q-31 -41 -77 -58.5t-124 -17.5l-113 4v229q32 -4 50 -4q75 0 104.5 32t46.5 132zM59 1294l158 299h260l-248 -299h-170zM444 1294l158 299h260l-248 -299h-170z" />
<glyph unicode="&#x4f2;" horiz-adv-x="1150" d="M102 854v616h252v-608q0 -33 24 -57.5t61 -36.5t72 -17.5t67 -5.5q25 0 57 6.5t65.5 19.5t56.5 37t23 54v608h252v-1470h-252v549q-38 -28 -90.5 -41.5t-161.5 -13.5q-202 0 -314 91t-112 269zM297 1632v236h211v-236h-211zM625 1632v236h211v-236h-211z" />
<glyph unicode="&#x4f3;" horiz-adv-x="923" d="M72 645v445h233v-439q0 -36 23 -56t50.5 -25t67.5 -5q22 0 44 3.5t46.5 12.5t40 29t15.5 47v433h233v-1090h-233v418q-12 -15 -30.5 -25.5t-34 -15.5t-40.5 -8t-38.5 -3t-39.5 0.5t-32 0.5q-72 0 -140.5 32.5t-116.5 98t-48 147.5zM178 1241v236h211v-236h-211zM506 1241 v236h211v-236h-211z" />
<glyph unicode="&#x4f4;" horiz-adv-x="1490" d="M127 0v1470h252v-532h289q175 0 280 -131.5t105 -349.5q0 -207 -102.5 -332t-272.5 -125h-551zM379 252h201q119 0 170 48.5t51 162.5t-46.5 168.5t-142.5 54.5h-233v-434zM481 1675v236h211v-236h-211zM809 1675v236h211v-236h-211zM1120 0v1470h252v-1470h-252z" />
<glyph unicode="&#x4f5;" horiz-adv-x="1396" d="M111 0v1090h229v-416h158q59 0 110 -6.5t87.5 -16t68.5 -25.5t51 -28.5t38 -32.5t27 -30.5t19.5 -28.5t13.5 -21q45 -67 45 -157q0 -139 -104 -230q-63 -57 -144 -77.5t-239 -20.5h-360zM340 217h172q99 0 147 31t48 104q0 62 -46 88.5t-137 26.5h-184v-250zM434 1294 v236h211v-236h-211zM762 1294v236h211v-236h-211zM1063 0v1090h233v-1090h-233z" />
<glyph unicode="&#x4f8;" horiz-adv-x="786" d="M109 0v1090h651v-234h-418v-856h-233z" />
<glyph unicode="&#x4f9;" horiz-adv-x="1026" d="M57 543q5 164 39.5 275t132.5 198q-61 29 -83 72t-8.5 86t43 84t65 70t63.5 40q83 33 151 52.5t133 32.5t79 17q22 6 37 13t26 22t15 21t13.5 31t12.5 32h213q-30 -112 -49 -153q-30 -60 -80 -105q-16 -14 -31.5 -25.5t-36 -20.5t-33 -15.5t-38.5 -13t-34.5 -9.5 t-39.5 -7.5t-35.5 -5t-40 -5t-36.5 -4.5q-95 -11 -138 -53q-30 -29 -4 -45q12 -7 33 -9h94q204 0 327.5 -157.5t123.5 -417.5q0 -259 -125 -415.5t-332 -156.5t-332 156.5t-125 415.5zM299 545q0 -161 55.5 -246.5t159.5 -85.5t159.5 85.5t55.5 246.5q0 160 -55 246t-158 86 q-106 0 -161.5 -84.5t-55.5 -247.5z" />
<glyph unicode="&#xe3f;" horiz-adv-x="1212" d="M127 0v1470h354v170h168v-170h64q173 0 272.5 -102.5t99.5 -280.5q0 -109 -34.5 -178t-112.5 -116q99 -54 142.5 -139.5t43.5 -211.5q0 -186 -104 -311q-61 -73 -140.5 -101t-230.5 -30v-170h-168v170h-354zM369 252h112v393h-112v-393zM369 895h112v324h-112v-324z M649 252h29q95 0 144.5 53.5t49.5 155.5q0 88 -48 136t-134 48h-41v-393zM649 895h15q87 0 133.5 43.5t46.5 124.5q0 80 -45.5 118t-141.5 38h-8v-324z" />
<glyph unicode="&#x1e0c;" horiz-adv-x="1212" d="M127 0v1470h532q233 0 362.5 -185t129.5 -519q0 -164 -32 -302.5t-94 -242.5t-158 -162.5t-218 -58.5h-522zM373 252h245q131 0 204 133.5t73 372.5q0 227 -67.5 344t-213.5 117h-241v-967zM500 -174h233v-236h-233v236z" />
<glyph unicode="&#x1e0d;" horiz-adv-x="1026" d="M57 557q0 253 103 407t272 154q86 0 146 -40.5t114 -135.5v528h234v-1470h-230v143q-84 -172 -262 -172q-172 0 -274.5 159.5t-102.5 426.5zM299 541q0 -154 53 -244t144 -90q98 0 151 84.5t53 240.5q0 160 -51 248t-145 88q-97 0 -151 -86t-54 -241zM399 -174h234v-236 h-234v236z" />
<glyph unicode="&#x1e0e;" horiz-adv-x="1212" d="M127 0v1470h532q233 0 362.5 -185t129.5 -519q0 -164 -32 -302.5t-94 -242.5t-158 -162.5t-218 -58.5h-522zM326 -217h579v-150h-579v150zM373 252h245q131 0 204 133.5t73 372.5q0 227 -67.5 344t-213.5 117h-241v-967z" />
<glyph unicode="&#x1e0f;" horiz-adv-x="1026" d="M57 557q0 253 103 407t272 154q86 0 146 -40.5t114 -135.5v528h234v-1470h-230v143q-84 -172 -262 -172q-172 0 -274.5 159.5t-102.5 426.5zM223 -217h580v-150h-580v150zM299 541q0 -154 53 -244t144 -90q98 0 151 84.5t53 240.5q0 160 -51 248t-145 88q-97 0 -151 -86 t-54 -241z" />
<glyph unicode="&#x1e24;" horiz-adv-x="1212" d="M119 0v1470h252v-557h471v557h252v-1470h-252v662h-471v-662h-252zM492 -174h233v-236h-233v236z" />
<glyph unicode="&#x1e25;" horiz-adv-x="1026" d="M109 0v1470h233v-530q72 178 268 178q140 0 224 -99t84 -265v-754h-234v662q0 114 -36 164.5t-116 50.5q-88 0 -139 -67.5t-51 -184.5v-625h-233zM399 -174h234v-236h-234v236z" />
<glyph unicode="&#x1e26;" horiz-adv-x="1212" d="M119 0v1470h252v-557h471v557h252v-1470h-252v662h-471v-662h-252zM340 1626v236h197v-236h-197zM678 1626v236h196v-236h-196z" />
<glyph unicode="&#x1e27;" horiz-adv-x="1026" d="M109 0v1470h233v-530q72 178 268 178q140 0 224 -99t84 -265v-754h-234v662q0 114 -36 164.5t-116 50.5q-88 0 -139 -67.5t-51 -184.5v-625h-233zM246 1626v236h196v-236h-196zM584 1626v236h196v-236h-196z" />
<glyph unicode="&#x1e2a;" horiz-adv-x="1212" d="M119 0v1470h252v-557h471v557h252v-1470h-252v662h-471v-662h-252zM301 -164h111q32 -52 74 -76t120 -24q79 0 117.5 24t56.5 76h129q-32 -123 -110 -190.5t-203 -67.5q-232 0 -295 258z" />
<glyph unicode="&#x1e2b;" horiz-adv-x="1026" d="M109 0v1470h233v-530q72 178 268 178q140 0 224 -99t84 -265v-754h-234v662q0 114 -36 164.5t-116 50.5q-88 0 -139 -67.5t-51 -184.5v-625h-233zM209 -164h110q32 -52 74.5 -76t120.5 -24q79 0 117.5 24t56.5 76h129q-32 -123 -110 -190.5t-203 -67.5q-232 0 -295 258z " />
<glyph unicode="&#x1e36;" horiz-adv-x="1026" d="M127 0v1470h252v-1204h600v-266h-852zM438 -174h234v-236h-234v236z" />
<glyph unicode="&#x1e37;" horiz-adv-x="466" d="M117 0v1470h233v-1470h-233zM119 -174h233v-236h-233v236z" />
<glyph unicode="&#x1e38;" horiz-adv-x="1026" d="M-37 1669v150h580v-150h-580zM127 0v1470h252v-1204h600v-266h-852zM438 -174h234v-236h-234v236z" />
<glyph unicode="&#x1e39;" horiz-adv-x="466" d="M-55 1669v150h579v-150h-579zM117 0v1470h233v-1470h-233zM119 -174h233v-236h-233v236z" />
<glyph unicode="&#x1e42;" horiz-adv-x="1398" d="M117 0v1470h366l222 -1167l217 1167h362v-1470h-233v1247l-230 -1247h-248l-223 1247v-1247h-233zM586 -174h233v-236h-233v236z" />
<glyph unicode="&#x1e43;" horiz-adv-x="1492" d="M106 0v1090h226v-166q41 101 104 147.5t158 46.5q85 0 136.5 -37t105.5 -137q52 95 109 134.5t140 39.5q135 0 218 -100.5t83 -263.5v-754h-233v662q0 215 -133 215q-76 0 -117 -58t-41 -166v-653h-233v655q0 123 -31.5 172.5t-108.5 49.5q-149 0 -149 -213v-664h-234z M633 -174h233v-236h-233v236z" />
<glyph unicode="&#x1e44;" horiz-adv-x="1212" d="M117 0v1470h264l483 -1032v1032h234v-1470h-250l-498 1055v-1055h-233zM496 1626v236h233v-236h-233z" />
<glyph unicode="&#x1e45;" horiz-adv-x="1026" d="M109 0v1090h225v-166q47 101 113 147.5t161 46.5q141 0 225.5 -98.5t84.5 -265.5v-754h-234v662q0 114 -36 164.5t-116 50.5q-88 0 -139 -67.5t-51 -184.5v-625h-233zM399 1266v235h234v-235h-234z" />
<glyph unicode="&#x1e46;" horiz-adv-x="1212" d="M117 0v1470h264l483 -1032v1032h234v-1470h-250l-498 1055v-1055h-233zM494 -174h233v-236h-233v236z" />
<glyph unicode="&#x1e47;" horiz-adv-x="1026" d="M109 0v1090h225v-166q47 101 113 147.5t161 46.5q141 0 225.5 -98.5t84.5 -265.5v-754h-234v662q0 114 -36 164.5t-116 50.5q-88 0 -139 -67.5t-51 -184.5v-625h-233zM399 -174h234v-236h-234v236z" />
<glyph unicode="&#x1e58;" horiz-adv-x="1212" d="M127 0v1470h608q173 0 277 -113.5t104 -303.5q0 -122 -46 -213t-140 -135q68 -37 98.5 -80.5t42.5 -123t12 -239.5q0 -125 9.5 -165.5t44.5 -57.5v-39h-279q-29 135 -29 295q0 58 -3.5 100t-8.5 72.5t-18 49.5t-25.5 31t-37 17t-45 6.5t-58.5 1.5h-260v-573h-246z M373 823h297q100 0 147 48t47 149q0 95 -45.5 147t-130.5 52h-315v-396zM459 1626v236h233v-236h-233z" />
<glyph unicode="&#x1e59;" horiz-adv-x="653" d="M106 0v1090h226v-195q53 125 107.5 174t140.5 49q20 0 47 -4v-291q-32 4 -60 4q-115 0 -171 -64t-56 -196v-567h-234zM225 1266v235h234v-235h-234z" />
<glyph unicode="&#x1e5a;" horiz-adv-x="1212" d="M127 0v1470h608q173 0 277 -113.5t104 -303.5q0 -122 -46 -213t-140 -135q68 -37 98.5 -80.5t42.5 -123t12 -239.5q0 -125 9.5 -165.5t44.5 -57.5v-39h-279q-29 135 -29 295q0 58 -3.5 100t-8.5 72.5t-18 49.5t-25.5 31t-37 17t-45 6.5t-58.5 1.5h-260v-573h-246z M373 823h297q100 0 147 48t47 149q0 95 -45.5 147t-130.5 52h-315v-396zM457 -174h233v-236h-233v236z" />
<glyph unicode="&#x1e5b;" horiz-adv-x="653" d="M106 0v1090h226v-195q53 125 107.5 174t140.5 49q20 0 47 -4v-291q-32 4 -60 4q-115 0 -171 -64t-56 -196v-567h-234zM109 -174h233v-236h-233v236z" />
<glyph unicode="&#x1e5c;" horiz-adv-x="1212" d="M127 0v1470h608q173 0 277 -113.5t104 -303.5q0 -122 -46 -213t-140 -135q68 -37 98.5 -80.5t42.5 -123t12 -239.5q0 -125 9.5 -165.5t44.5 -57.5v-39h-279q-29 135 -29 295q0 58 -3.5 100t-8.5 72.5t-18 49.5t-25.5 31t-37 17t-45 6.5t-58.5 1.5h-260v-573h-246z M283 1669v150h579v-150h-579zM373 823h297q100 0 147 48t47 149q0 95 -45.5 147t-130.5 52h-315v-396zM457 -174h233v-236h-233v236z" />
<glyph unicode="&#x1e5d;" horiz-adv-x="653" d="M49 1337v150h580v-150h-580zM106 0v1090h226v-195q53 125 107.5 174t140.5 49q20 0 47 -4v-291q-32 4 -60 4q-115 0 -171 -64t-56 -196v-567h-234zM109 -174h233v-236h-233v236z" />
<glyph unicode="&#x1e62;" horiz-adv-x="1120" d="M66 453h241q8 -122 72 -181t190 -59q117 0 181.5 49.5t64.5 138.5q0 72 -46 111t-173 76l-129 37q-97 28 -164 58.5t-110.5 65t-67 81t-32.5 97t-9 122.5q0 215 122 337.5t337 122.5q217 0 339.5 -122.5t135.5 -352.5h-242q-13 117 -70.5 170t-170.5 53 q-100 0 -158 -47.5t-58 -130.5q0 -63 29 -98t98 -55l295 -88q169 -51 242.5 -144t73.5 -256q0 -221 -131.5 -349t-358.5 -128q-233 0 -363.5 125t-137.5 367zM440 -174h234v-236h-234v236z" />
<glyph unicode="&#x1e63;" d="M51 348h242q3 -82 49 -120t141 -38q71 0 112.5 30.5t41.5 82.5q0 42 -47.5 71.5t-147.5 49.5q-186 35 -272 115t-86 217q0 168 99 265t272 97q177 0 272 -81.5t119 -278.5h-232q-12 79 -47 110t-112 31q-142 0 -142 -102q0 -44 45.5 -72t147.5 -47q192 -37 279 -120.5 t87 -217.5q0 -172 -106 -270.5t-291 -98.5q-188 0 -296.5 88t-127.5 289zM352 -174h234v-236h-234v236z" />
<glyph unicode="&#x1e6c;" horiz-adv-x="1026" d="M23 1210v260h981v-260h-365v-1210h-252v1210h-364zM399 -174h234v-236h-234v236z" />
<glyph unicode="&#x1e6d;" horiz-adv-x="559" d="M16 885v205h121v294h234v-294h147v-205h-147v-592q0 -57 17 -72.5t79 -15.5q24 0 51 4v-217q-80 -4 -112 -4h-31q-129 0 -183.5 53t-54.5 182v662h-121zM213 -174h233v-236h-233v236z" />
<glyph unicode="&#x1e6e;" horiz-adv-x="1026" d="M23 1210v260h981v-260h-365v-1210h-252v1210h-364zM225 -217h580v-150h-580v150z" />
<glyph unicode="&#x1e6f;" horiz-adv-x="559" d="M16 885v205h121v294h234v-294h147v-205h-147v-592q0 -57 17 -72.5t79 -15.5q24 0 51 4v-217q-80 -4 -112 -4h-31q-129 0 -183.5 53t-54.5 182v662h-121zM39 -217h579v-150h-579v150z" />
<glyph unicode="&#x1e80;" horiz-adv-x="1585" d="M27 1470h268q106 -556 140 -744.5t54 -342.5l168 1087h269l180 -1087l199 1087h256l-340 -1470h-242l-188 1157l-138 -866l-51 -291h-233zM459 1872h268l147 -258h-159z" />
<glyph unicode="&#x1e81;" horiz-adv-x="1306" d="M16 1090h250l142 -793l129 793h235l137 -793l142 793h241l-258 -1090h-241l-142 805l-141 -805h-242zM324 1532h258l157 -299h-170z" />
<glyph unicode="&#x1e82;" horiz-adv-x="1585" d="M27 1470h268q106 -556 140 -744.5t54 -342.5l168 1087h269l180 -1087l199 1087h256l-340 -1470h-242l-188 1157l-138 -866l-51 -291h-233zM713 1614l147 258h268l-256 -258h-159z" />
<glyph unicode="&#x1e83;" horiz-adv-x="1306" d="M16 1090h250l142 -793l129 793h235l137 -793l142 793h241l-258 -1090h-241l-142 805l-141 -805h-242zM567 1233l158 299h258l-246 -299h-170z" />
<glyph unicode="&#x1e84;" horiz-adv-x="1585" d="M27 1470h268q106 -556 140 -744.5t54 -342.5l168 1087h269l180 -1087l199 1087h256l-340 -1470h-242l-188 1157l-138 -866l-51 -291h-233zM526 1626v236h197v-236h-197zM864 1626v236h197v-236h-197z" />
<glyph unicode="&#x1e85;" horiz-adv-x="1306" d="M16 1090h250l142 -793l129 793h235l137 -793l142 793h241l-258 -1090h-241l-142 805l-141 -805h-242zM385 1266v235h197v-235h-197zM723 1266v235h197v-235h-197z" />
<glyph unicode="&#x1e92;" horiz-adv-x="1026" d="M41 0v260l625 950h-609v260h924v-241l-633 -969h637v-260h-944zM406 -174h233v-236h-233v236z" />
<glyph unicode="&#x1e93;" horiz-adv-x="839" d="M33 0v223l461 637h-428v230h725v-236l-453 -618h469v-236h-774zM305 -174h234v-236h-234v236z" />
<glyph unicode="&#x1e97;" horiz-adv-x="559" d="M-12 1540v236h196v-236h-196zM16 885v205h121v294h234v-294h147v-205h-147v-592q0 -57 17 -72.5t79 -15.5q24 0 51 4v-217q-80 -4 -112 -4h-31q-129 0 -183.5 53t-54.5 182v662h-121zM326 1540v236h196v-236h-196z" />
<glyph unicode="&#x1ea0;" horiz-adv-x="1212" d="M33 0l430 1470h291l426 -1470h-275l-78 303h-444l-84 -303h-266zM451 555h307l-152 590zM492 -174h233v-236h-233v236z" />
<glyph unicode="&#x1ea1;" d="M49 291q0 143 68 233t194 113l211 39q82 14 82 90q0 123 -145 123q-75 0 -110 -34.5t-46 -117.5h-225q22 207 113 294t278 87q173 0 269 -83t96 -232v-590q0 -80 11 -117.5t40 -52.5v-43h-252q-16 61 -23 129q-69 -87 -132 -122.5t-150 -35.5q-129 0 -204 86t-75 234z M285 309q0 -62 30 -97.5t82 -35.5q86 0 146.5 63t60.5 152v139q-23 -21 -55.5 -33t-104.5 -26q-88 -19 -123.5 -55t-35.5 -107zM354 -174h234v-236h-234v236z" />
<glyph unicode="&#x1ea2;" horiz-adv-x="1212" d="M33 0l430 1470h291l426 -1470h-275l-78 303h-444l-84 -303h-266zM383 1759q0 92 60.5 140.5t177.5 48.5q104 0 164.5 -38.5t60.5 -103.5q0 -39 -22 -66t-81 -61q-47 -30 -59 -41t-12 -24v-49h-127v55q0 37 23 61.5t85 57.5v-2q66 43 66 69q0 22 -29.5 37t-75.5 15 q-69 0 -92 -29v2q-14 -17 -14 -72h-125zM451 555h307l-152 590z" />
<glyph unicode="&#x1ea3;" d="M49 291q0 143 68 233t194 113l211 39q82 14 82 90q0 123 -145 123q-75 0 -110 -34.5t-46 -117.5h-225q22 207 113 294t278 87q173 0 269 -83t96 -232v-590q0 -80 11 -117.5t40 -52.5v-43h-252q-16 61 -23 129q-69 -87 -132 -122.5t-150 -35.5q-129 0 -204 86t-75 234z M244 1378q0 93 60 141t177 48q104 0 165 -38.5t61 -103.5q0 -39 -22 -66t-81 -61q-47 -30 -59.5 -41t-12.5 -24v-49h-126v55q0 37 23 61.5t85 57.5v-2q66 43 66 69q0 22 -29.5 37t-75.5 15q-69 0 -92 -29v2q-14 -17 -14 -72h-125zM285 309q0 -62 30 -97.5t82 -35.5 q86 0 146.5 63t60.5 152v139q-23 -21 -55.5 -33t-104.5 -26q-88 -19 -123.5 -55t-35.5 -107z" />
<glyph unicode="&#x1ea4;" horiz-adv-x="1212" d="M33 0l430 1470h291l426 -1470h-275l-78 303h-444l-84 -303h-266zM293 1614l211 258h211l211 -258h-191l-127 127l-125 -127h-190zM451 555h307l-152 590zM528 1913l148 258h268l-256 -258h-160z" />
<glyph unicode="&#x1ea5;" d="M49 291q0 143 68 233t194 113l211 39q82 14 82 90q0 123 -145 123q-75 0 -110 -34.5t-46 -117.5h-225q22 207 113 294t278 87q173 0 269 -83t96 -232v-590q0 -80 11 -117.5t40 -52.5v-43h-252q-16 61 -23 129q-69 -87 -132 -122.5t-150 -35.5q-129 0 -204 86t-75 234z M154 1233l211 258h210l211 -258h-190l-127 127l-125 -127h-190zM285 309q0 -62 30 -97.5t82 -35.5q86 0 146.5 63t60.5 152v139q-23 -21 -55.5 -33t-104.5 -26q-88 -19 -123.5 -55t-35.5 -107zM389 1532l148 258h268l-256 -258h-160z" />
<glyph unicode="&#x1ea6;" horiz-adv-x="1212" d="M33 0l430 1470h291l426 -1470h-275l-78 303h-444l-84 -303h-266zM274 2171h269l147 -258h-160zM293 1614l211 258h211l211 -258h-191l-127 127l-125 -127h-190zM451 555h307l-152 590z" />
<glyph unicode="&#x1ea7;" d="M49 291q0 143 68 233t194 113l211 39q82 14 82 90q0 123 -145 123q-75 0 -110 -34.5t-46 -117.5h-225q22 207 113 294t278 87q173 0 269 -83t96 -232v-590q0 -80 11 -117.5t40 -52.5v-43h-252q-16 61 -23 129q-69 -87 -132 -122.5t-150 -35.5q-129 0 -204 86t-75 234z M135 1790h268l148 -258h-160zM154 1233l211 258h210l211 -258h-190l-127 127l-125 -127h-190zM285 309q0 -62 30 -97.5t82 -35.5q86 0 146.5 63t60.5 152v139q-23 -21 -55.5 -33t-104.5 -26q-88 -19 -123.5 -55t-35.5 -107z" />
<glyph unicode="&#x1ea8;" horiz-adv-x="1212" d="M33 0l430 1470h291l426 -1470h-275l-78 303h-444l-84 -303h-266zM293 1614l211 258h211l211 -258h-191l-127 127l-125 -127h-190zM451 555h307l-152 590zM463 2089q0 82 60 125t177 43q104 0 165 -35t61 -92q0 -35 -22 -59.5t-81 -55.5q-46 -25 -58.5 -35t-12.5 -22v-45 h-127v49q0 34 23 56.5t85 52.5v-3q66 37 66 62q0 20 -29 33.5t-76 13.5q-68 0 -92 -27v2q-14 -17 -14 -63h-125z" />
<glyph unicode="&#x1ea9;" d="M49 291q0 143 68 233t194 113l211 39q82 14 82 90q0 123 -145 123q-75 0 -110 -34.5t-46 -117.5h-225q22 207 113 294t278 87q173 0 269 -83t96 -232v-590q0 -80 11 -117.5t40 -52.5v-43h-252q-16 61 -23 129q-69 -87 -132 -122.5t-150 -35.5q-129 0 -204 86t-75 234z M154 1233l211 258h210l211 -258h-190l-127 127l-125 -127h-190zM285 309q0 -62 30 -97.5t82 -35.5q86 0 146.5 63t60.5 152v139q-23 -21 -55.5 -33t-104.5 -26q-88 -19 -123.5 -55t-35.5 -107zM324 1708q0 82 60 125t177 43q103 0 164 -35t61 -92q0 -35 -21.5 -59.5 t-80.5 -55.5q-46 -25 -59 -35t-13 -22v-45h-127v49q0 34 23 56.5t86 52.5v-2q65 36 65 61q0 21 -28.5 34t-75.5 13q-68 0 -92 -27v3q-14 -17 -14 -64h-125z" />
<glyph unicode="&#x1eaa;" horiz-adv-x="1212" d="M33 0l430 1470h291l426 -1470h-275l-78 303h-444l-84 -303h-266zM293 1614l211 258h211l211 -258h-191l-127 127l-125 -127h-190zM301 1933q22 129 71.5 190.5t131.5 61.5q13 0 113.5 -37t111.5 -37q32 0 50.5 19.5t29.5 62.5h109q-40 -245 -181 -245q-23 0 -127.5 36.5 t-124.5 36.5q-58 0 -77 -88h-107zM451 555h307l-152 590z" />
<glyph unicode="&#x1eab;" d="M49 291q0 143 68 233t194 113l211 39q82 14 82 90q0 123 -145 123q-75 0 -110 -34.5t-46 -117.5h-225q22 207 113 294t278 87q173 0 269 -83t96 -232v-590q0 -80 11 -117.5t40 -52.5v-43h-252q-16 61 -23 129q-69 -87 -132 -122.5t-150 -35.5q-129 0 -204 86t-75 234z M154 1233l211 258h210l211 -258h-190l-127 127l-125 -127h-190zM162 1552q22 129 71.5 190.5t131.5 61.5q13 0 113.5 -36.5t111.5 -36.5q32 0 50.5 19t29.5 62h108q-40 -245 -180 -245q-23 0 -127.5 36.5t-124.5 36.5q-59 0 -78 -88h-106zM285 309q0 -62 30 -97.5t82 -35.5 q86 0 146.5 63t60.5 152v139q-23 -21 -55.5 -33t-104.5 -26q-88 -19 -123.5 -55t-35.5 -107z" />
<glyph unicode="&#x1eac;" horiz-adv-x="1212" d="M33 0l430 1470h291l426 -1470h-275l-78 303h-444l-84 -303h-266zM291 1614l211 258h211l211 -258h-191l-127 127l-125 -127h-190zM451 555h307l-152 590zM492 -174h233v-236h-233v236z" />
<glyph unicode="&#x1ead;" d="M49 291q0 143 68 233t194 113l211 39q82 14 82 90q0 123 -145 123q-75 0 -110 -34.5t-46 -117.5h-225q22 207 113 294t278 87q173 0 269 -83t96 -232v-590q0 -80 11 -117.5t40 -52.5v-43h-252q-16 61 -23 129q-69 -87 -132 -122.5t-150 -35.5q-129 0 -204 86t-75 234z M172 1233l190 299h211l191 -299h-191l-106 168l-105 -168h-190zM285 309q0 -62 30 -97.5t82 -35.5q86 0 146.5 63t60.5 152v139q-23 -21 -55.5 -33t-104.5 -26q-88 -19 -123.5 -55t-35.5 -107zM354 -174h234v-236h-234v236z" />
<glyph unicode="&#x1eae;" horiz-adv-x="1212" d="M33 0l430 1470h291l426 -1470h-275l-78 303h-444l-84 -303h-266zM305 1872h111q32 -52 74 -76t120 -24q79 0 117.5 24t56.5 76h129q-32 -123 -110 -190.5t-203 -67.5q-232 0 -295 258zM451 555h307l-152 590zM528 1931l148 258h268l-256 -258h-160z" />
<glyph unicode="&#x1eaf;" d="M49 291q0 143 68 233t194 113l211 39q82 14 82 90q0 123 -145 123q-75 0 -110 -34.5t-46 -117.5h-225q22 207 113 294t278 87q173 0 269 -83t96 -232v-590q0 -80 11 -117.5t40 -52.5v-43h-252q-16 61 -23 129q-69 -87 -132 -122.5t-150 -35.5q-129 0 -204 86t-75 234z M166 1491h110q32 -52 74.5 -76t120.5 -24q79 0 117.5 24t56.5 76h129q-32 -123 -110 -190.5t-203 -67.5q-232 0 -295 258zM285 309q0 -62 30 -97.5t82 -35.5q86 0 146.5 63t60.5 152v139q-23 -21 -55.5 -33t-104.5 -26q-88 -19 -123.5 -55t-35.5 -107zM389 1550l148 258h268 l-256 -258h-160z" />
<glyph unicode="&#x1eb0;" horiz-adv-x="1212" d="M33 0l430 1470h291l426 -1470h-275l-78 303h-444l-84 -303h-266zM274 2189h269l147 -258h-160zM305 1872h111q32 -52 74 -76t120 -24q79 0 117.5 24t56.5 76h129q-32 -123 -110 -190.5t-203 -67.5q-232 0 -295 258zM451 555h307l-152 590z" />
<glyph unicode="&#x1eb1;" d="M49 291q0 143 68 233t194 113l211 39q82 14 82 90q0 123 -145 123q-75 0 -110 -34.5t-46 -117.5h-225q22 207 113 294t278 87q173 0 269 -83t96 -232v-590q0 -80 11 -117.5t40 -52.5v-43h-252q-16 61 -23 129q-69 -87 -132 -122.5t-150 -35.5q-129 0 -204 86t-75 234z M135 1808h268l148 -258h-160zM166 1491h110q32 -52 74.5 -76t120.5 -24q79 0 117.5 24t56.5 76h129q-32 -123 -110 -190.5t-203 -67.5q-232 0 -295 258zM285 309q0 -62 30 -97.5t82 -35.5q86 0 146.5 63t60.5 152v139q-23 -21 -55.5 -33t-104.5 -26q-88 -19 -123.5 -55 t-35.5 -107z" />
<glyph unicode="&#x1eb2;" horiz-adv-x="1212" d="M33 0l430 1470h291l426 -1470h-275l-78 303h-444l-84 -303h-266zM305 1872h111q32 -52 74 -76t120 -24q79 0 117.5 24t56.5 76h129q-32 -123 -110 -190.5t-203 -67.5q-232 0 -295 258zM379 2028q0 82 60 124.5t177 42.5q104 0 165 -35t61 -92q0 -35 -22 -59t-81 -55 q-45 -24 -58 -35t-13 -23v-45h-127v50q0 34 22.5 56t85.5 52v-2q66 37 66 61q0 21 -29 34.5t-76 13.5q-68 0 -92 -27v2q-14 -17 -14 -63h-125zM451 555h307l-152 590z" />
<glyph unicode="&#x1eb3;" d="M49 291q0 143 68 233t194 113l211 39q82 14 82 90q0 123 -145 123q-75 0 -110 -34.5t-46 -117.5h-225q22 207 113 294t278 87q173 0 269 -83t96 -232v-590q0 -80 11 -117.5t40 -52.5v-43h-252q-16 61 -23 129q-69 -87 -132 -122.5t-150 -35.5q-129 0 -204 86t-75 234z M166 1491h110q32 -52 74.5 -76t120.5 -24q79 0 117.5 24t56.5 76h129q-32 -123 -110 -190.5t-203 -67.5q-232 0 -295 258zM240 1647q0 82 60 125t177 43q103 0 164 -35t61 -92q0 -35 -21.5 -59.5t-80.5 -55.5q-46 -25 -59 -35t-13 -22v-46h-127v50q0 34 23 55.5t86 52.5v-2 q65 36 65 62q0 21 -28.5 34t-75.5 13q-68 0 -92 -27v2q-14 -17 -14 -63h-125zM285 309q0 -62 30 -97.5t82 -35.5q86 0 146.5 63t60.5 152v139q-23 -21 -55.5 -33t-104.5 -26q-88 -19 -123.5 -55t-35.5 -107z" />
<glyph unicode="&#x1eb4;" horiz-adv-x="1212" d="M33 0l430 1470h291l426 -1470h-275l-78 303h-444l-84 -303h-266zM301 1950q22 129 71.5 190.5t131.5 61.5q13 0 113.5 -37t111.5 -37q32 0 50.5 19.5t29.5 62.5h109q-40 -246 -181 -246q-23 0 -127.5 37t-124.5 37q-58 0 -77 -88h-107zM305 1872h111q32 -52 74 -76 t120 -24q79 0 117.5 24t56.5 76h129q-32 -123 -110 -190.5t-203 -67.5q-232 0 -295 258zM451 555h307l-152 590z" />
<glyph unicode="&#x1eb5;" d="M49 291q0 143 68 233t194 113l211 39q82 14 82 90q0 123 -145 123q-75 0 -110 -34.5t-46 -117.5h-225q22 207 113 294t278 87q173 0 269 -83t96 -232v-590q0 -80 11 -117.5t40 -52.5v-43h-252q-16 61 -23 129q-69 -87 -132 -122.5t-150 -35.5q-129 0 -204 86t-75 234z M162 1569q22 129 71.5 190.5t131.5 61.5q13 0 113.5 -37t111.5 -37q32 0 50.5 19.5t29.5 62.5h108q-40 -246 -180 -246q-23 0 -127.5 37t-124.5 37q-59 0 -78 -88h-106zM166 1491h110q32 -52 74.5 -76t120.5 -24q79 0 117.5 24t56.5 76h129q-32 -123 -110 -190.5t-203 -67.5 q-232 0 -295 258zM285 309q0 -62 30 -97.5t82 -35.5q86 0 146.5 63t60.5 152v139q-23 -21 -55.5 -33t-104.5 -26q-88 -19 -123.5 -55t-35.5 -107z" />
<glyph unicode="&#x1eb6;" horiz-adv-x="1212" d="M33 0l430 1470h291l426 -1470h-275l-78 303h-444l-84 -303h-266zM303 1872h111q32 -52 74 -76t120 -24q79 0 117.5 24t56.5 76h129q-32 -123 -110 -190.5t-203 -67.5q-232 0 -295 258zM451 555h307l-152 590zM492 -174h233v-236h-233v236z" />
<glyph unicode="&#x1eb7;" d="M49 291q0 143 68 233t194 113l211 39q82 14 82 90q0 123 -145 123q-75 0 -110 -34.5t-46 -117.5h-225q22 207 113 294t278 87q173 0 269 -83t96 -232v-590q0 -80 11 -117.5t40 -52.5v-43h-252q-16 61 -23 129q-69 -87 -132 -122.5t-150 -35.5q-129 0 -204 86t-75 234z M184 1532h111q14 -78 52.5 -109.5t121.5 -31.5q82 0 119.5 30.5t54.5 110.5h109q-15 -149 -89 -224t-204 -75q-248 0 -275 299zM285 309q0 -62 30 -97.5t82 -35.5q86 0 146.5 63t60.5 152v139q-23 -21 -55.5 -33t-104.5 -26q-88 -19 -123.5 -55t-35.5 -107zM354 -174h234 v-236h-234v236z" />
<glyph unicode="&#x1eb8;" horiz-adv-x="1120" d="M127 0v1470h887v-260h-641v-309h590v-260h-590v-381h669v-260h-915zM446 -174h234v-236h-234v236z" />
<glyph unicode="&#x1eb9;" d="M39 549q0 267 113 418t311 151q204 0 314 -156t110 -446v-51h-613q10 -136 59.5 -199t145.5 -63q121 0 156 119h242q-52 -180 -151 -265.5t-251 -85.5q-209 0 -322.5 150.5t-113.5 427.5zM281 653h364q-24 230 -184 230q-78 0 -121.5 -55.5t-58.5 -174.5zM352 -174h234 v-236h-234v236z" />
<glyph unicode="&#x1eba;" horiz-adv-x="1120" d="M127 0v1470h887v-260h-641v-309h590v-260h-590v-381h669v-260h-915zM346 1759q0 92 60.5 140.5t177.5 48.5q104 0 164.5 -38.5t60.5 -103.5q0 -40 -21.5 -66.5t-80.5 -60.5q-47 -30 -59.5 -41t-12.5 -24v-49h-127v55q0 37 23 61.5t85 57.5v-2q66 43 66 69q0 22 -29 37 t-75 15q-70 0 -93 -29v2q-14 -17 -14 -72h-125z" />
<glyph unicode="&#x1ebb;" d="M39 549q0 267 113 418t311 151q204 0 314 -156t110 -446v-51h-613q10 -136 59.5 -199t145.5 -63q121 0 156 119h242q-52 -180 -151 -265.5t-251 -85.5q-209 0 -322.5 150.5t-113.5 427.5zM242 1378q0 93 60 141t177 48q104 0 165 -38.5t61 -103.5q0 -39 -22 -66t-81 -61 q-47 -30 -59.5 -41t-12.5 -24v-49h-127v55q0 37 23 61t86 58v-2q66 43 66 69q0 22 -29.5 37t-75.5 15q-69 0 -92 -29v2q-14 -17 -14 -72h-125zM281 653h364q-24 230 -184 230q-78 0 -121.5 -55.5t-58.5 -174.5z" />
<glyph unicode="&#x1ebc;" horiz-adv-x="1120" d="M127 0v1470h887v-260h-641v-309h590v-260h-590v-381h669v-260h-915zM264 1614q22 129 71.5 190.5t131.5 61.5q13 0 113.5 -37t111.5 -37q32 0 50.5 19.5t29.5 62.5h109q-41 -246 -181 -246q-23 0 -127 37t-124 37q-59 0 -78 -88h-107z" />
<glyph unicode="&#x1ebd;" d="M39 549q0 267 113 418t311 151q204 0 314 -156t110 -446v-51h-613q10 -136 59.5 -199t145.5 -63q121 0 156 119h242q-52 -180 -151 -265.5t-251 -85.5q-209 0 -322.5 150.5t-113.5 427.5zM158 1253q22 129 71 190.5t131 61.5q13 0 114 -36.5t112 -36.5q32 0 50.5 19 t29.5 62h108q-40 -245 -180 -245q-23 0 -127.5 36.5t-124.5 36.5q-59 0 -78 -88h-106zM281 653h364q-24 230 -184 230q-78 0 -121.5 -55.5t-58.5 -174.5z" />
<glyph unicode="&#x1ebe;" horiz-adv-x="1120" d="M127 0v1470h887v-260h-641v-309h590v-260h-590v-381h669v-260h-915zM256 1614l211 258h211l211 -258h-191l-127 127l-125 -127h-190zM492 1913l147 258h268l-256 -258h-159z" />
<glyph unicode="&#x1ebf;" d="M39 549q0 267 113 418t311 151q204 0 314 -156t110 -446v-51h-613q10 -136 59.5 -199t145.5 -63q121 0 156 119h242q-52 -180 -151 -265.5t-251 -85.5q-209 0 -322.5 150.5t-113.5 427.5zM152 1233l210 258h211l211 -258h-190l-127 127l-125 -127h-190zM281 653h364 q-24 230 -184 230q-78 0 -121.5 -55.5t-58.5 -174.5zM387 1532l148 258h268l-256 -258h-160z" />
<glyph unicode="&#x1ec0;" horiz-adv-x="1120" d="M127 0v1470h887v-260h-641v-309h590v-260h-590v-381h669v-260h-915zM238 2171h268l147 -258h-159zM256 1614l211 258h211l211 -258h-191l-127 127l-125 -127h-190z" />
<glyph unicode="&#x1ec1;" d="M39 549q0 267 113 418t311 151q204 0 314 -156t110 -446v-51h-613q10 -136 59.5 -199t145.5 -63q121 0 156 119h242q-52 -180 -151 -265.5t-251 -85.5q-209 0 -322.5 150.5t-113.5 427.5zM133 1790h268l148 -258h-160zM152 1233l210 258h211l211 -258h-190l-127 127 l-125 -127h-190zM281 653h364q-24 230 -184 230q-78 0 -121.5 -55.5t-58.5 -174.5z" />
<glyph unicode="&#x1ec2;" horiz-adv-x="1120" d="M127 0v1470h887v-260h-641v-309h590v-260h-590v-381h669v-260h-915zM256 1614l211 258h211l211 -258h-191l-127 127l-125 -127h-190zM426 2089q0 82 60.5 125t177.5 43q103 0 164 -35t61 -92q0 -35 -22 -59.5t-81 -55.5q-46 -25 -58.5 -35t-12.5 -22v-45h-127v49 q0 34 23 56.5t85 52.5v-3q66 37 66 62q0 20 -29 33.5t-76 13.5q-68 0 -92 -27v2q-14 -17 -14 -63h-125z" />
<glyph unicode="&#x1ec3;" d="M39 549q0 267 113 418t311 151q204 0 314 -156t110 -446v-51h-613q10 -136 59.5 -199t145.5 -63q121 0 156 119h242q-52 -180 -151 -265.5t-251 -85.5q-209 0 -322.5 150.5t-113.5 427.5zM152 1233l210 258h211l211 -258h-190l-127 127l-125 -127h-190zM281 653h364 q-24 230 -184 230q-78 0 -121.5 -55.5t-58.5 -174.5zM322 1708q0 82 60 125t177 43q103 0 164 -35t61 -92q0 -35 -21.5 -59.5t-80.5 -55.5q-46 -25 -59 -35t-13 -22v-45h-127v49q0 34 23 56.5t86 52.5v-2q65 36 65 61q0 21 -28.5 34t-75.5 13q-68 0 -92 -27v3 q-15 -18 -15 -64h-124z" />
<glyph unicode="&#x1ec4;" horiz-adv-x="1120" d="M127 0v1470h887v-260h-641v-309h590v-260h-590v-381h669v-260h-915zM256 1614l211 258h211l211 -258h-191l-127 127l-125 -127h-190zM264 1933q22 129 71.5 190.5t131.5 61.5q13 0 113.5 -37t111.5 -37q32 0 50.5 19.5t29.5 62.5h109q-40 -245 -181 -245q-23 0 -127 36.5 t-124 36.5q-59 0 -78 -88h-107z" />
<glyph unicode="&#x1ec5;" d="M39 549q0 267 113 418t311 151q204 0 314 -156t110 -446v-51h-613q10 -136 59.5 -199t145.5 -63q121 0 156 119h242q-52 -180 -151 -265.5t-251 -85.5q-209 0 -322.5 150.5t-113.5 427.5zM152 1233l210 258h211l211 -258h-190l-127 127l-125 -127h-190zM160 1552 q22 129 71 190.5t131 61.5q13 0 114 -36.5t112 -36.5q32 0 50.5 19t29.5 62h108q-40 -245 -180 -245q-23 0 -127.5 36.5t-124.5 36.5q-59 0 -78 -88h-106zM281 653h364q-24 230 -184 230q-78 0 -121.5 -55.5t-58.5 -174.5z" />
<glyph unicode="&#x1ec6;" horiz-adv-x="1120" d="M127 0v1470h887v-260h-641v-309h590v-260h-590v-381h669v-260h-915zM254 1614l211 258h211l211 -258h-191l-127 127l-125 -127h-190zM446 -174h234v-236h-234v236z" />
<glyph unicode="&#x1ec7;" d="M39 549q0 267 113 418t311 151q204 0 314 -156t110 -446v-51h-613q10 -136 59.5 -199t145.5 -63q121 0 156 119h242q-52 -180 -151 -265.5t-251 -85.5q-209 0 -322.5 150.5t-113.5 427.5zM170 1233l190 299h211l191 -299h-191l-106 168l-105 -168h-190zM281 653h364 q-24 230 -184 230q-78 0 -121.5 -55.5t-58.5 -174.5zM352 -174h234v-236h-234v236z" />
<glyph unicode="&#x1ec8;" horiz-adv-x="466" d="M8 1759q0 92 60.5 140.5t177.5 48.5q104 0 164.5 -38.5t60.5 -103.5q0 -40 -21.5 -66.5t-80.5 -60.5q-47 -30 -59.5 -41t-12.5 -24v-49h-127v55q0 37 23 61t86 58v-2q65 42 65 69q0 22 -29 37t-75 15q-70 0 -93 -29v2q-14 -17 -14 -72h-125zM106 0v1470h252v-1470h-252z " />
<glyph unicode="&#x1ec9;" horiz-adv-x="466" d="M8 1378q0 92 60.5 140.5t177.5 48.5q104 0 164.5 -38.5t60.5 -103.5q0 -40 -21.5 -66.5t-80.5 -60.5q-47 -30 -59.5 -41t-12.5 -24v-49h-127v55q0 37 23 61t86 58v-2q65 42 65 69q0 22 -29 37t-75 15q-70 0 -93 -29v2q-14 -17 -14 -72h-125zM117 0v1090h233v-1090h-233z " />
<glyph unicode="&#x1eca;" horiz-adv-x="466" d="M106 0v1470h252v-1470h-252zM119 -174h233v-236h-233v236z" />
<glyph unicode="&#x1ecb;" horiz-adv-x="466" d="M117 0v1090h233v-1090h-233zM119 -174h233v-236h-233v236zM119 1266v235h233v-235h-233z" />
<glyph unicode="&#x1ecc;" horiz-adv-x="1306" d="M74 733q0 367 159 571.5t429 204.5q255 0 413 -207t158 -567q0 -362 -158.5 -568t-421.5 -206q-266 0 -422.5 207t-156.5 565zM326 739q0 -243 86.5 -380.5t240.5 -137.5t241 138t87 382q0 232 -88.5 370t-235.5 138q-155 0 -243 -136t-88 -374zM547 -174h233v-236h-233 v236z" />
<glyph unicode="&#x1ecd;" horiz-adv-x="1026" d="M57 543q0 264 125 419.5t338 155.5q204 0 327.5 -157.5t123.5 -417.5q0 -259 -125 -415.5t-332 -156.5t-332 156.5t-125 415.5zM299 545q0 -161 55.5 -246.5t159.5 -85.5t159.5 85.5t55.5 246.5q0 160 -55 246t-158 86q-106 0 -161.5 -84.5t-55.5 -247.5zM399 -174h234 v-236h-234v236z" />
<glyph unicode="&#x1ece;" horiz-adv-x="1306" d="M74 733q0 367 159 571.5t429 204.5q255 0 413 -207t158 -567q0 -362 -158.5 -568t-421.5 -206q-266 0 -422.5 207t-156.5 565zM326 739q0 -243 86.5 -380.5t240.5 -137.5t241 138t87 382q0 232 -88.5 370t-235.5 138q-155 0 -243 -136t-88 -374zM436 1759 q0 92 60.5 140.5t177.5 48.5q104 0 164.5 -38.5t60.5 -103.5q0 -40 -21.5 -66.5t-80.5 -60.5q-47 -30 -59.5 -41t-12.5 -24v-49h-127v55q0 37 23 61t86 58v-2q65 42 65 69q0 22 -29 37t-75 15q-70 0 -93 -29v2q-14 -17 -14 -72h-125z" />
<glyph unicode="&#x1ecf;" horiz-adv-x="1026" d="M57 543q0 264 125 419.5t338 155.5q204 0 327.5 -157.5t123.5 -417.5q0 -259 -125 -415.5t-332 -156.5t-332 156.5t-125 415.5zM289 1378q0 93 60 141t177 48q104 0 165 -38.5t61 -103.5q0 -39 -22 -66t-81 -61q-47 -30 -59 -41t-12 -24v-49h-127v55q0 37 23 61.5 t85 57.5v-2q66 43 66 69q0 22 -29.5 37t-75.5 15q-69 0 -92 -29v2q-14 -17 -14 -72h-125zM299 545q0 -161 55.5 -246.5t159.5 -85.5t159.5 85.5t55.5 246.5q0 160 -55 246t-158 86q-106 0 -161.5 -84.5t-55.5 -247.5z" />
<glyph unicode="&#x1ed0;" horiz-adv-x="1306" d="M74 733q0 367 159 571.5t429 204.5q255 0 413 -207t158 -567q0 -362 -158.5 -568t-421.5 -206q-266 0 -422.5 207t-156.5 565zM326 739q0 -243 86.5 -380.5t240.5 -137.5t241 138t87 382q0 232 -88.5 370t-235.5 138q-155 0 -243 -136t-88 -374zM346 1614l211 258h211 l211 -258h-191l-126 127l-125 -127h-191zM582 1913l147 258h268l-256 -258h-159z" />
<glyph unicode="&#x1ed1;" horiz-adv-x="1026" d="M57 543q0 264 125 419.5t338 155.5q204 0 327.5 -157.5t123.5 -417.5q0 -259 -125 -415.5t-332 -156.5t-332 156.5t-125 415.5zM197 1233l211 258h210l211 -258h-190l-127 127l-125 -127h-190zM299 545q0 -161 55.5 -246.5t159.5 -85.5t159.5 85.5t55.5 246.5 q0 160 -55 246t-158 86q-106 0 -161.5 -84.5t-55.5 -247.5zM432 1532l148 258h268l-256 -258h-160z" />
<glyph unicode="&#x1ed2;" horiz-adv-x="1306" d="M74 733q0 367 159 571.5t429 204.5q255 0 413 -207t158 -567q0 -362 -158.5 -568t-421.5 -206q-266 0 -422.5 207t-156.5 565zM326 739q0 -243 86.5 -380.5t240.5 -137.5t241 138t87 382q0 232 -88.5 370t-235.5 138q-155 0 -243 -136t-88 -374zM328 2171h268l147 -258 h-159zM346 1614l211 258h211l211 -258h-191l-126 127l-125 -127h-191z" />
<glyph unicode="&#x1ed3;" horiz-adv-x="1026" d="M57 543q0 264 125 419.5t338 155.5q204 0 327.5 -157.5t123.5 -417.5q0 -259 -125 -415.5t-332 -156.5t-332 156.5t-125 415.5zM178 1790h268l148 -258h-160zM197 1233l211 258h210l211 -258h-190l-127 127l-125 -127h-190zM299 545q0 -161 55.5 -246.5t159.5 -85.5 t159.5 85.5t55.5 246.5q0 160 -55 246t-158 86q-106 0 -161.5 -84.5t-55.5 -247.5z" />
<glyph unicode="&#x1ed4;" horiz-adv-x="1306" d="M74 733q0 367 159 571.5t429 204.5q255 0 413 -207t158 -567q0 -362 -158.5 -568t-421.5 -206q-266 0 -422.5 207t-156.5 565zM326 739q0 -243 86.5 -380.5t240.5 -137.5t241 138t87 382q0 232 -88.5 370t-235.5 138q-155 0 -243 -136t-88 -374zM346 1614l211 258h211 l211 -258h-191l-126 127l-125 -127h-191zM516 2089q0 82 60.5 125t177.5 43q103 0 164 -35t61 -92q0 -35 -21.5 -59.5t-80.5 -55.5q-46 -25 -59 -35t-13 -22v-45h-127v49q0 34 23 56.5t85 52.5v-3q66 37 66 62q0 21 -28.5 34t-75.5 13q-69 0 -93 -27v2q-14 -17 -14 -63h-125 z" />
<glyph unicode="&#x1ed5;" horiz-adv-x="1026" d="M57 543q0 264 125 419.5t338 155.5q204 0 327.5 -157.5t123.5 -417.5q0 -259 -125 -415.5t-332 -156.5t-332 156.5t-125 415.5zM197 1233l211 258h210l211 -258h-190l-127 127l-125 -127h-190zM299 545q0 -161 55.5 -246.5t159.5 -85.5t159.5 85.5t55.5 246.5 q0 160 -55 246t-158 86q-106 0 -161.5 -84.5t-55.5 -247.5zM367 1708q0 82 60 125t177 43q103 0 164 -35t61 -92q0 -35 -21.5 -59.5t-80.5 -55.5q-46 -25 -59 -35t-13 -22v-45h-127v49q0 34 23 56.5t86 52.5v-2q65 36 65 61q0 21 -28.5 34t-75.5 13q-68 0 -92 -27v3 q-14 -17 -14 -64h-125z" />
<glyph unicode="&#x1ed6;" horiz-adv-x="1306" d="M74 733q0 367 159 571.5t429 204.5q255 0 413 -207t158 -567q0 -362 -158.5 -568t-421.5 -206q-266 0 -422.5 207t-156.5 565zM326 739q0 -243 86.5 -380.5t240.5 -137.5t241 138t87 382q0 232 -88.5 370t-235.5 138q-155 0 -243 -136t-88 -374zM346 1614l211 258h211 l211 -258h-191l-126 127l-125 -127h-191zM354 1933q22 129 71.5 190.5t131.5 61.5q13 0 113.5 -37t111.5 -37q32 0 50.5 19.5t29.5 62.5h109q-40 -245 -180 -245q-23 0 -127.5 36.5t-124.5 36.5q-59 0 -78 -88h-107z" />
<glyph unicode="&#x1ed7;" horiz-adv-x="1026" d="M57 543q0 264 125 419.5t338 155.5q204 0 327.5 -157.5t123.5 -417.5q0 -259 -125 -415.5t-332 -156.5t-332 156.5t-125 415.5zM197 1233l211 258h210l211 -258h-190l-127 127l-125 -127h-190zM205 1552q22 129 71.5 190.5t131.5 61.5q13 0 113.5 -36.5t111.5 -36.5 q32 0 50.5 19t29.5 62h108q-40 -245 -180 -245q-23 0 -127.5 36.5t-124.5 36.5q-59 0 -78 -88h-106zM299 545q0 -161 55.5 -246.5t159.5 -85.5t159.5 85.5t55.5 246.5q0 160 -55 246t-158 86q-106 0 -161.5 -84.5t-55.5 -247.5z" />
<glyph unicode="&#x1ed8;" horiz-adv-x="1306" d="M74 733q0 367 159 571.5t429 204.5q255 0 413 -207t158 -567q0 -362 -158.5 -568t-421.5 -206q-266 0 -422.5 207t-156.5 565zM326 739q0 -243 86.5 -380.5t240.5 -137.5t241 138t87 382q0 232 -88.5 370t-235.5 138q-155 0 -243 -136t-88 -374zM344 1614l211 258h211 l211 -258h-191l-127 127l-124 -127h-191zM547 -174h233v-236h-233v236z" />
<glyph unicode="&#x1ed9;" horiz-adv-x="1026" d="M57 543q0 264 125 419.5t338 155.5q204 0 327.5 -157.5t123.5 -417.5q0 -259 -125 -415.5t-332 -156.5t-332 156.5t-125 415.5zM217 1233l191 299h210l191 -299h-191l-106 168l-104 -168h-191zM299 545q0 -161 55.5 -246.5t159.5 -85.5t159.5 85.5t55.5 246.5 q0 160 -55 246t-158 86q-106 0 -161.5 -84.5t-55.5 -247.5zM399 -174h234v-236h-234v236z" />
<glyph unicode="&#x1eda;" horiz-adv-x="1306" d="M74 733q0 367 159 571.5t429 204.5q128 0 235 -55t182 -158q39 68 39 177h-117v235h234v-235q0 -176 -90 -289q88 -184 88 -449q0 -362 -158.5 -568t-421.5 -206q-266 0 -422.5 207t-156.5 565zM326 739q0 -243 86.5 -380.5t240.5 -137.5t241 138t87 382q0 232 -88.5 370 t-235.5 138q-155 0 -243 -136t-88 -374zM582 1614l147 258h268l-256 -258h-159z" />
<glyph unicode="&#x1edb;" horiz-adv-x="1048" d="M57 543q0 264 125 419.5t338 155.5q223 0 344 -182q29 65 29 156h-117v235h234v-235q0 -168 -82 -279q43 -116 43 -270q0 -259 -125 -415.5t-332 -156.5t-332 156.5t-125 415.5zM299 545q0 -161 55.5 -246.5t159.5 -85.5t159.5 85.5t55.5 246.5q0 160 -55 246t-158 86 q-106 0 -161.5 -84.5t-55.5 -247.5zM428 1233l158 299h258l-246 -299h-170z" />
<glyph unicode="&#x1edc;" horiz-adv-x="1306" d="M74 733q0 367 159 571.5t429 204.5q128 0 235 -55t182 -158q39 68 39 177h-117v235h234v-235q0 -176 -90 -289q88 -184 88 -449q0 -362 -158.5 -568t-421.5 -206q-266 0 -422.5 207t-156.5 565zM326 739q0 -243 86.5 -380.5t240.5 -137.5t241 138t87 382q0 232 -88.5 370 t-235.5 138q-155 0 -243 -136t-88 -374zM328 1872h268l147 -258h-159z" />
<glyph unicode="&#x1edd;" horiz-adv-x="1048" d="M57 543q0 264 125 419.5t338 155.5q223 0 344 -182q29 65 29 156h-117v235h234v-235q0 -168 -82 -279q43 -116 43 -270q0 -259 -125 -415.5t-332 -156.5t-332 156.5t-125 415.5zM182 1532h258l158 -299h-170zM299 545q0 -161 55.5 -246.5t159.5 -85.5t159.5 85.5 t55.5 246.5q0 160 -55 246t-158 86q-106 0 -161.5 -84.5t-55.5 -247.5z" />
<glyph unicode="&#x1ede;" horiz-adv-x="1306" d="M74 733q0 367 159 571.5t429 204.5q128 0 235 -55t182 -158q39 68 39 177h-117v235h234v-235q0 -176 -90 -289q88 -184 88 -449q0 -362 -158.5 -568t-421.5 -206q-266 0 -422.5 207t-156.5 565zM326 739q0 -243 86.5 -380.5t240.5 -137.5t241 138t87 382q0 232 -88.5 370 t-235.5 138q-155 0 -243 -136t-88 -374zM436 1759q0 92 60.5 140.5t177.5 48.5q104 0 164.5 -38.5t60.5 -103.5q0 -40 -21.5 -66.5t-80.5 -60.5q-47 -30 -59.5 -41t-12.5 -24v-49h-127v55q0 37 23 61t86 58v-2q65 42 65 69q0 22 -29 37t-75 15q-70 0 -93 -29v2 q-14 -17 -14 -72h-125z" />
<glyph unicode="&#x1edf;" horiz-adv-x="1048" d="M57 543q0 264 125 419.5t338 155.5q223 0 344 -182q29 65 29 156h-117v235h234v-235q0 -168 -82 -279q43 -116 43 -270q0 -259 -125 -415.5t-332 -156.5t-332 156.5t-125 415.5zM289 1378q0 93 60 141t177 48q104 0 165 -38.5t61 -103.5q0 -39 -22 -66t-81 -61 q-47 -30 -59 -41t-12 -24v-49h-127v55q0 37 23 61.5t85 57.5v-2q66 43 66 69q0 22 -29.5 37t-75.5 15q-69 0 -92 -29v2q-14 -17 -14 -72h-125zM299 545q0 -161 55.5 -246.5t159.5 -85.5t159.5 85.5t55.5 246.5q0 160 -55 246t-158 86q-106 0 -161.5 -84.5t-55.5 -247.5z" />
<glyph unicode="&#x1ee0;" horiz-adv-x="1306" d="M74 733q0 367 159 571.5t429 204.5q128 0 235 -55t182 -158q39 68 39 177h-117v235h234v-235q0 -176 -90 -289q88 -184 88 -449q0 -362 -158.5 -568t-421.5 -206q-266 0 -422.5 207t-156.5 565zM326 739q0 -243 86.5 -380.5t240.5 -137.5t241 138t87 382q0 232 -88.5 370 t-235.5 138q-155 0 -243 -136t-88 -374zM354 1614q22 129 71.5 190.5t131.5 61.5q13 0 113.5 -37t111.5 -37q32 0 50.5 19.5t29.5 62.5h109q-41 -246 -180 -246q-23 0 -127.5 37t-124.5 37q-59 0 -78 -88h-107z" />
<glyph unicode="&#x1ee1;" horiz-adv-x="1048" d="M57 543q0 264 125 419.5t338 155.5q223 0 344 -182q29 65 29 156h-117v235h234v-235q0 -168 -82 -279q43 -116 43 -270q0 -259 -125 -415.5t-332 -156.5t-332 156.5t-125 415.5zM205 1253q22 129 71.5 190.5t131.5 61.5q13 0 113.5 -36.5t111.5 -36.5q32 0 50.5 19 t29.5 62h108q-40 -245 -180 -245q-23 0 -127.5 36.5t-124.5 36.5q-59 0 -78 -88h-106zM299 545q0 -161 55.5 -246.5t159.5 -85.5t159.5 85.5t55.5 246.5q0 160 -55 246t-158 86q-106 0 -161.5 -84.5t-55.5 -247.5z" />
<glyph unicode="&#x1ee2;" horiz-adv-x="1306" d="M74 733q0 367 159 571.5t429 204.5q128 0 235 -55t182 -158q39 68 39 177h-117v235h234v-235q0 -176 -90 -289q88 -184 88 -449q0 -362 -158.5 -568t-421.5 -206q-266 0 -422.5 207t-156.5 565zM326 739q0 -243 86.5 -380.5t240.5 -137.5t241 138t87 382q0 232 -88.5 370 t-235.5 138q-155 0 -243 -136t-88 -374zM547 -174h233v-236h-233v236z" />
<glyph unicode="&#x1ee3;" horiz-adv-x="1048" d="M57 543q0 264 125 419.5t338 155.5q223 0 344 -182q29 65 29 156h-117v235h234v-235q0 -168 -82 -279q43 -116 43 -270q0 -259 -125 -415.5t-332 -156.5t-332 156.5t-125 415.5zM299 545q0 -161 55.5 -246.5t159.5 -85.5t159.5 85.5t55.5 246.5q0 160 -55 246t-158 86 q-106 0 -161.5 -84.5t-55.5 -247.5zM399 -174h234v-236h-234v236z" />
<glyph unicode="&#x1ee4;" horiz-adv-x="1212" d="M121 496v974h256v-954q0 -141 59 -218t168 -77q114 0 174 72t60 209v968h256v-956q0 -270 -125.5 -411.5t-364.5 -141.5q-230 0 -356.5 140t-126.5 395zM494 -174h233v-236h-233v236z" />
<glyph unicode="&#x1ee5;" horiz-adv-x="1026" d="M111 373v717h233v-676q0 -98 38.5 -149.5t113.5 -51.5q87 0 136.5 66t49.5 182v629h233v-1090h-225v160q-46 -97 -113 -143t-165 -46q-145 0 -223 105t-78 297zM399 -174h234v-236h-234v236z" />
<glyph unicode="&#x1ee6;" horiz-adv-x="1212" d="M121 496v974h256v-954q0 -141 59 -218t168 -77q114 0 174 72t60 209v968h256v-956q0 -270 -125.5 -411.5t-364.5 -141.5q-230 0 -356.5 140t-126.5 395zM383 1759q0 92 60.5 140.5t177.5 48.5q104 0 164.5 -38.5t60.5 -103.5q0 -39 -22 -66t-81 -61q-47 -30 -59 -41 t-12 -24v-49h-127v55q0 37 23 61.5t85 57.5v-2q66 43 66 69q0 22 -29.5 37t-75.5 15q-69 0 -92 -29v2q-14 -17 -14 -72h-125z" />
<glyph unicode="&#x1ee7;" horiz-adv-x="1026" d="M111 373v717h233v-676q0 -98 38.5 -149.5t113.5 -51.5q87 0 136.5 66t49.5 182v629h233v-1090h-225v160q-46 -97 -113 -143t-165 -46q-145 0 -223 105t-78 297zM289 1378q0 93 60 141t177 48q104 0 165 -38.5t61 -103.5q0 -39 -22 -66t-81 -61q-47 -30 -59 -41t-12 -24 v-49h-127v55q0 37 23 61.5t85 57.5v-2q66 43 66 69q0 22 -29.5 37t-75.5 15q-69 0 -92 -29v2q-14 -17 -14 -72h-125z" />
<glyph unicode="&#x1ee8;" horiz-adv-x="1404" d="M121 496v974h256v-954q0 -141 59 -218t168 -77q114 0 174 72t60 209v968h256v-251q77 0 116 74.5t39 179.5h-116v235h233v-235q0 -154 -74 -267.5t-198 -113.5v-578q0 -270 -125.5 -411.5t-364.5 -141.5q-230 0 -356.5 140t-126.5 395zM528 1614l148 258h268l-256 -258 h-160z" />
<glyph unicode="&#x1ee9;" horiz-adv-x="1226" d="M111 373v717h233v-676q0 -98 38.5 -149.5t113.5 -51.5q87 0 136.5 66t49.5 182v629h233v-252q53 0 89.5 38.5t51.5 94t15 121.5h-117v235h234v-235q0 -99 -31 -184.5t-94.5 -141t-147.5 -55.5v-711h-225v160q-46 -97 -113 -143t-165 -46q-145 0 -223 105t-78 297z M428 1233l158 299h258l-246 -299h-170z" />
<glyph unicode="&#x1eea;" horiz-adv-x="1404" d="M121 496v974h256v-954q0 -141 59 -218t168 -77q114 0 174 72t60 209v968h256v-251q77 0 116 74.5t39 179.5h-116v235h233v-235q0 -154 -74 -267.5t-198 -113.5v-578q0 -270 -125.5 -411.5t-364.5 -141.5q-230 0 -356.5 140t-126.5 395zM274 1872h269l147 -258h-160z" />
<glyph unicode="&#x1eeb;" horiz-adv-x="1226" d="M111 373v717h233v-676q0 -98 38.5 -149.5t113.5 -51.5q87 0 136.5 66t49.5 182v629h233v-252q53 0 89.5 38.5t51.5 94t15 121.5h-117v235h234v-235q0 -99 -31 -184.5t-94.5 -141t-147.5 -55.5v-711h-225v160q-46 -97 -113 -143t-165 -46q-145 0 -223 105t-78 297z M182 1532h258l158 -299h-170z" />
<glyph unicode="&#x1eec;" horiz-adv-x="1404" d="M121 496v974h256v-954q0 -141 59 -218t168 -77q114 0 174 72t60 209v968h256v-251q77 0 116 74.5t39 179.5h-116v235h233v-235q0 -154 -74 -267.5t-198 -113.5v-578q0 -270 -125.5 -411.5t-364.5 -141.5q-230 0 -356.5 140t-126.5 395zM383 1759q0 92 60.5 140.5 t177.5 48.5q104 0 164.5 -38.5t60.5 -103.5q0 -39 -22 -66t-81 -61q-47 -30 -59 -41t-12 -24v-49h-127v55q0 37 23 61.5t85 57.5v-2q66 43 66 69q0 22 -29.5 37t-75.5 15q-69 0 -92 -29v2q-14 -17 -14 -72h-125z" />
<glyph unicode="&#x1eed;" horiz-adv-x="1226" d="M111 373v717h233v-676q0 -98 38.5 -149.5t113.5 -51.5q87 0 136.5 66t49.5 182v629h233v-252q53 0 89.5 38.5t51.5 94t15 121.5h-117v235h234v-235q0 -99 -31 -184.5t-94.5 -141t-147.5 -55.5v-711h-225v160q-46 -97 -113 -143t-165 -46q-145 0 -223 105t-78 297z M289 1378q0 93 60 141t177 48q104 0 165 -38.5t61 -103.5q0 -39 -22 -66t-81 -61q-47 -30 -59 -41t-12 -24v-49h-127v55q0 37 23 61.5t85 57.5v-2q66 43 66 69q0 22 -29.5 37t-75.5 15q-69 0 -92 -29v2q-14 -17 -14 -72h-125z" />
</font>
</defs>
</svg>
