<?xml version="1.0" standalone="no"?>
<!DOCTYPE svg PUBLIC "-//W3C//DTD SVG 1.1//EN" "http://www.w3.org/Graphics/SVG/1.1/DTD/svg11.dtd" >
<svg xmlns="http://www.w3.org/2000/svg">
<metadata></metadata>
<defs>
<font id="texgyreheroscnregular" horiz-adv-x="933" >
<font-face units-per-em="2048" ascent="1624" descent="-424" />
<missing-glyph horiz-adv-x="466" />
<glyph unicode="IJ" horiz-adv-x="1218" d="M113 0v1470h161v-1470h-161zM416 328v145h153v-102q0 -123 45 -181.5t140 -58.5q188 0 188 254v1085h164v-1073q0 -209 -91.5 -322.5t-258.5 -113.5q-155 0 -247.5 100t-92.5 267z" />
<glyph unicode="ij" horiz-adv-x="745" d="M98 1243v197h176v-197h-176zM113 0v1071h147v-1071h-147zM346 -268h31q69 0 88.5 23.5t19.5 107.5v1208h148v-1229q0 -140 -53.5 -206t-165.5 -66q-30 0 -68 6v156zM471 1243v197h176v-197h-176z" />
<glyph unicode="fk" horiz-adv-x="1310" d="M23 922v149h122v184q0 115 57.5 175.5t166.5 60.5q26 0 71 -4v-162q-50 4 -61 4q-45 0 -65.5 -29.5t-20.5 -95.5v-133h147v-149h-147v-922h-148v922h-122zM580 0v1470h147v-852l379 453h186l-336 -399l357 -672h-191l-272 541l-123 -135v-406h-147z" />
<glyph unicode="ff" horiz-adv-x="897" d="M23 922v149h122v184q0 115 57.5 175.5t166.5 60.5q26 0 71 -4v-162q-50 4 -61 4q-45 0 -65.5 -29.5t-20.5 -95.5v-133h287v184q0 115 57 175.5t166 60.5q26 0 71 -4v-162q-50 4 -61 4q-45 0 -65.5 -29.5t-20.5 -95.5v-133h147v-149h-147v-922h-147v922h-287v-922h-148 v922h-122z" />
<glyph unicode="fi" horiz-adv-x="839" d="M23 922v149h122v184q0 115 57.5 175.5t166.5 60.5q26 0 71 -4v-162q-50 4 -61 4q-45 0 -65.5 -29.5t-20.5 -95.5v-133h147v-149h-147v-922h-148v922h-122zM565 1243v197h176v-197h-176zM580 0v1071h147v-1071h-147z" />
<glyph unicode="fl" horiz-adv-x="839" d="M23 922v149h122v184q0 115 57.5 175.5t166.5 60.5q26 0 71 -4v-162q-50 4 -61 4q-45 0 -65.5 -29.5t-20.5 -95.5v-133h147v-149h-147v-922h-148v922h-122zM580 0v1470h147v-1470h-147z" />
<glyph unicode="ffi" horiz-adv-x="1273" d="M23 922v149h122v184q0 115 57.5 175.5t166.5 60.5q26 0 71 -4v-162q-50 4 -61 4q-45 0 -65.5 -29.5t-20.5 -95.5v-133h287v184q0 115 57 175.5t166 60.5q26 0 71 -4v-162q-50 4 -61 4q-45 0 -65.5 -29.5t-20.5 -95.5v-133h147v-149h-147v-922h-147v922h-287v-922h-148 v922h-122zM999 1243v197h177v-197h-177zM1014 0v1071h147v-1071h-147z" />
<glyph unicode="ffl" horiz-adv-x="1273" d="M23 922v149h122v184q0 115 57.5 175.5t166.5 60.5q26 0 71 -4v-162q-50 4 -61 4q-45 0 -65.5 -29.5t-20.5 -95.5v-133h287v184q0 115 57 175.5t166 60.5q26 0 71 -4v-162q-50 4 -61 4q-45 0 -65.5 -29.5t-20.5 -95.5v-133h147v-149h-147v-922h-147v922h-287v-922h-148 v922h-122zM1014 0v1470h147v-1470h-147z" />
<glyph unicode=" "  horiz-adv-x="466" />
<glyph unicode="&#x09;" horiz-adv-x="466" />
<glyph unicode="&#xa0;" horiz-adv-x="466" />
<glyph unicode="!" horiz-adv-x="466" d="M152 0v209h161v-209h-161zM152 985v485h161v-485l-41 -635h-79z" />
<glyph unicode="&#x22;" horiz-adv-x="595" d="M117 948v522h123v-522h-123zM356 948v522h123v-522h-123z" />
<glyph unicode="#" d="M47 430l14 129h175l30 291h-172l15 129h174l49 430h112l-49 -430h209l47 430h113l-47 -430h172l-15 -129h-174l-32 -291h172l-15 -129h-174l-47 -430h-112l49 430h-209l-49 -430h-111l47 430h-172zM346 559h211l31 291h-209z" />
<glyph unicode="$" d="M53 436h148q9 -169 54 -234t171 -91v542q-198 61 -273 148t-75 248q0 169 92 282t256 125v131h78v-131q166 -19 248.5 -113.5t91.5 -275.5h-142q-12 108 -56 161.5t-142 78.5v-490q124 -44 192 -78.5t110.5 -83t55 -104t12.5 -148.5q0 -197 -95 -314.5t-275 -127.5v-197 h-78v197q-190 13 -280.5 129t-92.5 346zM225 1069q0 -92 49 -148.5t152 -82.5v469q-95 -6 -148 -69t-53 -169zM504 111q109 6 166 75t57 181q0 80 -36.5 143t-96.5 86l-90 35v-520z" />
<glyph unicode="%" horiz-adv-x="1492" d="M66 1040q0 183 66.5 283t189.5 100q118 0 184.5 -101.5t66.5 -283.5q0 -180 -67 -280.5t-187 -100.5q-121 0 -187 100t-66 283zM182 1040q0 -274 137 -274q138 0 138 274q0 134 -34.5 204.5t-100.5 70.5q-140 0 -140 -275zM369 -39l661 1479h94l-665 -1479h-90zM920 369 q0 184 66.5 283.5t189.5 99.5q118 0 184.5 -101.5t66.5 -281.5q0 -182 -66.5 -282.5t-186.5 -100.5q-121 0 -187.5 100t-66.5 283zM1036 369q0 -135 35 -205t103 -70q137 0 137 275q0 134 -34.5 204t-100.5 70q-140 0 -140 -274z" />
<glyph unicode="&#x26;" horiz-adv-x="1120" d="M74 377q0 143 56 234t216 206q-77 118 -102 180.5t-25 141.5q0 148 79.5 239.5t207.5 91.5q120 0 194 -84t74 -221q0 -114 -47.5 -198t-169.5 -185l221 -319q19 63 27.5 103.5t21.5 125.5h140q-14 -176 -99 -375l215 -317h-190l-113 168q-83 -110 -161 -154.5t-187 -44.5 q-167 0 -262.5 108.5t-95.5 299.5zM221 375q0 -107 64 -177.5t161 -70.5q146 0 254 162l-272 405q-124 -97 -165.5 -160.5t-41.5 -158.5zM362 1157q0 -110 119 -258q83 71 116.5 127.5t33.5 128.5t-36 115t-97 43t-98.5 -42.5t-37.5 -113.5z" />
<glyph unicode="'" horiz-adv-x="321" d="M98 948v522h123v-522h-123z" />
<glyph unicode="(" horiz-adv-x="559" d="M115 537q0 251 62.5 465.5t219.5 498.5h103q-134 -309 -181 -510t-47 -471q0 -234 45.5 -419.5t184.5 -524.5h-99q-168 313 -228 513t-60 448z" />
<glyph unicode=")" horiz-adv-x="559" d="M57 1501h99q169 -315 228.5 -513.5t59.5 -446.5q0 -249 -63 -464.5t-219 -500.5h-103q134 311 181 511t47 470q0 235 -45.5 421.5t-184.5 522.5z" />
<glyph unicode="*" horiz-adv-x="653" d="M66 1210l32 113l176 -78v225h101v-225l176 78l35 -113l-183 -69l113 -189l-82 -69l-108 192l-111 -192l-82 69l113 189z" />
<glyph unicode="+" horiz-adv-x="980" d="M113 453v118h319v320h119v-320h317v-118h-317v-318h-119v318h-319z" />
<glyph unicode="," horiz-adv-x="466" d="M145 0v219h177v-203q0 -276 -177 -317v94q88 12 91 207h-91z" />
<glyph unicode="-" horiz-adv-x="559" d="M74 475v184h411v-184h-411z" />
<glyph unicode="." horiz-adv-x="466" d="M145 0v219h177v-219h-177z" />
<glyph unicode="/" horiz-adv-x="466" d="M-29 -39l414 1548h111l-412 -1548h-113z" />
<glyph unicode="0" d="M61 702q0 354 106.5 546t303.5 192q190 0 295.5 -195t105.5 -547t-106 -544.5t-299 -192.5q-194 0 -300 193.5t-106 547.5zM219 702q0 -285 63 -433t185 -148t185 148t63 433q0 281 -63 429.5t-183 148.5q-123 0 -186.5 -147t-63.5 -431z" />
<glyph unicode="1" d="M170 1022v143q164 12 223 63.5t94 211.5h115v-1440h-158v1022h-274z" />
<glyph unicode="2" d="M43 0q9 202 73.5 338t202.5 233l158 111q100 70 146.5 121t58.5 93t12 116q0 122 -63.5 195t-169.5 73q-119 0 -179.5 -86t-60.5 -270h-147q0 258 104 387t295 129q170 0 274.5 -119t104.5 -313q0 -79 -11 -133t-45 -111.5t-96 -112.5t-163 -123l-123 -82 q-90 -60 -143 -131.5t-62 -144.5h643v-170h-809z" />
<glyph unicode="3" d="M57 440h154q9 -177 68 -248t178 -71q118 0 190 77t72 205q0 123 -68 193t-188 70h-21q-20 -2 -65 -2v155q58 -4 74 -4q107 0 167 61t60 171q0 107 -58.5 170t-158.5 63q-111 0 -165.5 -73t-64.5 -238h-145q9 240 103.5 355.5t273.5 115.5q167 0 267.5 -104t100.5 -277 q0 -223 -155 -297q107 -50 154 -128t47 -210q0 -210 -114.5 -336.5t-303.5 -126.5q-89 0 -155.5 23.5t-119 78t-84.5 148.5t-43 229z" />
<glyph unicode="4" d="M41 350v178l541 912h123v-932h174v-158h-174v-350h-148v350h-516zM176 508h381v657z" />
<glyph unicode="5" d="M53 358h154q13 -120 75.5 -179.5t166.5 -59.5q114 0 185 92t71 238q0 141 -72 229t-189 88q-66 0 -117.5 -32.5t-101.5 -104.5l-129 8l90 772h611v-178h-500l-51 -395q56 48 109 69t118 21q167 0 278 -132t111 -331q0 -142 -47 -254t-144.5 -180t-232.5 -68 q-168 0 -263.5 96.5t-121.5 300.5z" />
<glyph unicode="6" d="M63 659q0 365 116 573t319 208q147 0 237.5 -99t110.5 -284h-146q-20 117 -67.5 170t-132.5 53q-123 0 -198 -137.5t-87 -409.5q50 95 118 140t163 45q166 0 270 -128.5t104 -332.5q0 -135 -47.5 -247t-138.5 -180.5t-209 -68.5q-198 0 -305 181t-107 517zM238 444 q0 -142 68 -231.5t177 -89.5q104 0 169 89t65 234q0 141 -64 226.5t-170 85.5q-114 0 -179.5 -84.5t-65.5 -229.5z" />
<glyph unicode="7" d="M61 1231v178h818v-160q-376 -511 -486 -1249h-164q38 306 164 626t320 605h-652z" />
<glyph unicode="8" d="M63 399q0 138 45.5 221t155.5 144q-83 44 -121.5 111.5t-38.5 168.5q0 177 99.5 286.5t259.5 109.5q161 0 261.5 -104t100.5 -273q0 -106 -35 -175.5t-114 -121.5q101 -61 146.5 -146.5t45.5 -207.5q0 -201 -109 -326t-284 -125q-186 0 -299 120t-113 318zM221 403 q0 -130 68 -206t184 -76q115 0 176.5 69.5t61.5 200.5q0 132 -65 208.5t-179 76.5q-110 0 -178 -75t-68 -198zM258 1057q0 -98 58.5 -162t146.5 -64q91 0 150 65t59 165q0 98 -58 158.5t-153 60.5t-149 -59.5t-54 -163.5z" />
<glyph unicode="9" d="M70 946q0 222 106 358t279 136q198 0 302.5 -170t104.5 -494q0 -376 -113.5 -595.5t-320.5 -219.5q-154 0 -244.5 101.5t-99.5 283.5h147q21 -235 199 -235q46 0 79 12t66 47t57.5 96t46 160.5t38.5 239.5q-81 -185 -279 -185q-166 0 -267 128t-101 337zM223 946 q0 -149 60 -227t174 -78q109 0 170 85.5t61 238.5q0 146 -61.5 230.5t-167.5 84.5q-110 0 -173 -88.5t-63 -245.5z" />
<glyph unicode=":" horiz-adv-x="466" d="M145 0v219h177v-219h-177zM145 838v219h177v-219h-177z" />
<glyph unicode=";" horiz-adv-x="466" d="M145 0v219h177v-203q0 -276 -177 -317v94q88 12 91 207h-91zM145 838v219h177v-219h-177z" />
<glyph unicode="&#x3c;" horiz-adv-x="980" d="M182 471v82l574 604v-172l-449 -473l449 -473v-172z" />
<glyph unicode="=" horiz-adv-x="980" d="M113 268v119h755v-119h-755zM113 637v119h755v-119h-755z" />
<glyph unicode="&#x3e;" horiz-adv-x="980" d="M182 39l449 473l-449 473v172l574 -604v-82l-574 -604v172z" />
<glyph unicode="?" d="M94 1010q0 133 19.5 203.5t68.5 134.5q52 67 127.5 104t159.5 37q157 0 256.5 -111t99.5 -288q0 -95 -30.5 -162t-126.5 -178q-96 -109 -121 -174t-25 -201h-147q0 159 27.5 235.5t129.5 204.5q91 113 113.5 157.5t22.5 114.5q0 114 -55 179t-150 65q-221 0 -221 -321 h-148zM371 0v209h164v-209h-164z" />
<glyph unicode="@" horiz-adv-x="1703" d="M248 737q0 158 50 301t135 246t202.5 164t247.5 61q158 0 290.5 -85t208.5 -232.5t76 -323.5q0 -143 -58 -280t-152.5 -223t-194.5 -86q-46 0 -73 33.5t-30 97.5q-57 -69 -106.5 -100t-104.5 -31q-103 0 -172 96t-69 241q0 147 52.5 275t142 204t192.5 76 q68 0 112.5 -36.5t81.5 -122.5l33 127h115l-80 -336q-72 -301 -72 -336q0 -55 35 -55q58 0 114 65.5t91 170t35 212.5q0 224 -133 373t-334 149q-144 0 -261 -85t-184 -234.5t-67 -333.5q0 -178 68 -325.5t187.5 -231.5t264.5 -84q238 0 409 234h113q-194 -361 -526 -361 q-175 0 -322 103t-232 281.5t-85 391.5zM635 618q0 -83 39.5 -137.5t99.5 -54.5q57 0 115.5 58.5t97.5 154t39 192.5q0 79 -41 136t-98 57q-63 0 -121.5 -58t-94.5 -152.5t-36 -195.5z" />
<glyph unicode="A" horiz-adv-x="1120" d="M23 0l452 1470h187l436 -1470h-178l-119 428h-484l-127 -428h-167zM367 606h374l-180 651z" />
<glyph unicode="B" horiz-adv-x="1120" d="M125 0v1470h530q154 0 247 -101.5t93 -268.5q0 -106 -38 -179.5t-121 -127.5q118 -58 167.5 -139t49.5 -216q0 -198 -112 -318t-296 -120h-520zM289 170h348q120 0 186 70t66 198q0 250 -281 250h-319v-518zM289 848h293q128 0 188.5 56.5t60.5 176.5q0 113 -60 166 t-187 53h-295v-452z" />
<glyph unicode="C" horiz-adv-x="1212" d="M74 733q0 356 152.5 566t410.5 210q200 0 332 -126.5t161 -354.5h-157q-36 158 -119 230.5t-213 72.5q-187 0 -293 -160.5t-106 -443.5q0 -280 102 -434t287 -154q137 0 224.5 95t129.5 307h158q-30 -172 -69.5 -266t-108.5 -166q-142 -148 -349 -148 q-249 0 -395.5 208.5t-146.5 563.5z" />
<glyph unicode="D" horiz-adv-x="1212" d="M135 0v1470h490q232 0 370 -195.5t138 -522.5q0 -158 -33 -294t-96.5 -238.5t-162.5 -161t-223 -58.5h-483zM299 170h315q163 0 257 151.5t94 413.5q0 273 -93.5 419t-267.5 146h-305v-1130z" />
<glyph unicode="E" horiz-adv-x="1120" d="M145 0v1470h877v-178h-713v-448h658v-178h-658v-488h725v-178h-889z" />
<glyph unicode="F" horiz-adv-x="1026" d="M145 0v1470h834v-178h-670v-448h590v-178h-590v-666h-164z" />
<glyph unicode="G" horiz-adv-x="1306" d="M80 717q0 234 71 414t200.5 279t297.5 99q200 0 339.5 -129t172.5 -356h-157q-73 307 -353 307q-186 0 -294.5 -164t-108.5 -444q0 -289 104 -440.5t303 -151.5q79 0 145 28t118 85t81 152t29 220h-375v170h529v-786h-107l-37 190q-85 -123 -183.5 -176t-223.5 -53 q-128 0 -234 61.5t-174.5 166t-105.5 240.5t-37 288z" />
<glyph unicode="H" horiz-adv-x="1212" d="M129 0v1470h164v-608h629v608h163v-1470h-163v684h-629v-684h-164z" />
<glyph unicode="I" horiz-adv-x="466" d="M154 0v1470h161v-1470h-161z" />
<glyph unicode="J" horiz-adv-x="839" d="M29 328v145h153v-102q0 -123 45 -181.5t140 -58.5q188 0 188 254v1085h164v-1073q0 -209 -91.5 -322.5t-258.5 -113.5q-155 0 -247.5 100t-92.5 267z" />
<glyph unicode="K" horiz-adv-x="1120" d="M127 0v1470h164v-712l586 712h225l-504 -593l516 -877h-211l-422 737l-190 -221v-516h-164z" />
<glyph unicode="L" d="M127 0v1470h164v-1292h610v-178h-774z" />
<glyph unicode="M" horiz-adv-x="1398" d="M123 0v1470h233l346 -1249l345 1249h231v-1470h-154v868v379l-344 -1247h-159l-340 1245v-282v-963h-158z" />
<glyph unicode="N" horiz-adv-x="1212" d="M127 0v1470h192l609 -1194v1194h157v-1470h-182l-618 1194v-1194h-158z" />
<glyph unicode="O" horiz-adv-x="1306" d="M66 733q0 219 67 392.5t204 278.5t325 105q167 0 299 -97t206 -274.5t74 -404.5q0 -158 -38.5 -296.5t-111 -245t-185.5 -168.5t-253 -62t-253 62t-185 168.5t-110.5 245t-38.5 296.5zM233 733q0 -267 115.5 -430.5t304.5 -163.5t304.5 164t115.5 432q0 266 -115 431 t-299 165q-195 0 -310.5 -162t-115.5 -436z" />
<glyph unicode="P" horiz-adv-x="1120" d="M145 0v1470h541q161 0 259.5 -114t98.5 -301q0 -197 -97.5 -315.5t-260.5 -118.5h-377v-621h-164zM309 791h322q246 0 246 258q0 127 -59 189t-181 62h-328v-509z" />
<glyph unicode="Q" horiz-adv-x="1306" d="M66 735q0 127 24 242t72.5 212t118 168.5t165 111.5t207.5 40q140 0 253 -62t185.5 -168.5t111 -245t38.5 -296.5q0 -166 -39 -304.5t-135 -272.5l164 -156l-82 -119l-184 174q-73 -52 -146 -75t-166 -23q-112 0 -207.5 40t-165 111.5t-118 168.5t-72.5 212t-24 242z M233 735q0 -268 115.5 -432t304.5 -164q92 0 178 45l-126 119l83 123l152 -145q71 97 102 203t31 251q0 268 -115.5 432t-304.5 164t-304.5 -164t-115.5 -432z" />
<glyph unicode="R" horiz-adv-x="1212" d="M147 0v1470h560q192 0 293.5 -102t101.5 -295q0 -125 -37 -202.5t-131 -147.5q78 -37 107.5 -94t37.5 -183l8 -266q1 -67 13 -93.5t49 -53.5v-33h-201q-26 110 -26 369q0 139 -51.5 200.5t-163.5 61.5h-396v-631h-164zM311 801h377q126 0 186 62.5t60 193.5 q0 243 -217 243h-406v-499z" />
<glyph unicode="S" horiz-adv-x="1120" d="M82 475h154q0 -170 88 -257t249 -87q147 0 228.5 66.5t81.5 187.5q0 105 -54 159t-202 95l-248 70q-256 71 -256 352q0 200 113 324t317 124q218 0 336.5 -116t118.5 -353h-154q0 146 -81.5 222.5t-219.5 76.5q-129 0 -200.5 -67t-71.5 -187q0 -78 34.5 -124t106.5 -66 l344 -96q135 -38 204.5 -138.5t69.5 -257.5q0 -206 -127 -324t-348 -118q-222 0 -352.5 127t-130.5 387z" />
<glyph unicode="T" horiz-adv-x="1026" d="M23 1292v178h981v-178h-408v-1292h-164v1292h-409z" />
<glyph unicode="U" horiz-adv-x="1212" d="M133 489v981h164v-925q0 -195 79.5 -300.5t227.5 -105.5q149 0 231.5 105t82.5 297v929h163v-954q0 -254 -131 -404.5t-352 -150.5q-214 0 -339.5 142.5t-125.5 385.5z" />
<glyph unicode="V" horiz-adv-x="1120" d="M33 1470h182l346 -1259l342 1259h184l-440 -1470h-174z" />
<glyph unicode="W" horiz-adv-x="1585" d="M27 1470h176l227 -1204l272 1204h179l272 -1204l225 1204h181l-318 -1470h-172l-276 1227l-281 -1227h-172z" />
<glyph unicode="X" horiz-adv-x="1120" d="M33 0l430 754l-404 716h205l305 -563l305 563h195l-403 -716l421 -754h-200l-324 604l-334 -604h-196z" />
<glyph unicode="Y" horiz-adv-x="1120" d="M23 1470h190l346 -706l346 706h191l-455 -878v-592h-164v592z" />
<glyph unicode="Z" horiz-adv-x="1026" d="M39 0v168l739 1124h-684v178h893v-174l-741 -1118h741v-178h-948z" />
<glyph unicode="[" horiz-adv-x="466" d="M106 -401v1880h314v-148h-180v-1585h180v-147h-314z" />
<glyph unicode="\" horiz-adv-x="466" d="M-29 1509h111l414 -1548h-113z" />
<glyph unicode="]" horiz-adv-x="466" d="M47 -254h180v1585h-180v148h313v-1880h-313v147z" />
<glyph unicode="^" horiz-adv-x="788" d="M-23 541l357 868h121l356 -868h-129l-287 704l-286 -704h-132z" />
<glyph unicode="_" d="M0 -154h934v-102h-934v102z" />
<glyph unicode="`" horiz-adv-x="559" d="M4 1485h182l150 -289h-113z" />
<glyph unicode="a" d="M61 283q0 139 69.5 225t197.5 106l243 37q41 6 59.5 35t18.5 88q0 88 -51.5 133t-151.5 45q-101 0 -153.5 -49t-52.5 -158h-136q0 357 353 357q157 0 246.5 -80t89.5 -219v-617q0 -63 47 -63q10 0 51 8v-131q-59 -20 -86 -20q-75 0 -109.5 37.5t-42.5 125.5 q-72 -92 -144.5 -133t-166.5 -41q-127 0 -204 86.5t-77 227.5zM215 299q0 -86 41.5 -133t116.5 -47q110 0 191 75.5t81 176.5v176q-23 -21 -67.5 -33t-174.5 -35q-101 -17 -144.5 -58.5t-43.5 -121.5z" />
<glyph unicode="b" d="M98 0v1470h148v-538q57 91 118 130.5t144 39.5q161 0 260.5 -149t99.5 -392q0 -268 -105 -430t-278 -162q-86 0 -143 39t-104 131v-139h-140zM240 510q0 -183 65 -283t174 -100q112 0 174 111t62 311q0 393 -234 393q-118 0 -179.5 -110t-61.5 -322z" />
<glyph unicode="c" horiz-adv-x="839" d="M51 516q0 268 112.5 427t303.5 159q294 0 334 -391h-144q-19 121 -67.5 176t-136.5 55q-115 0 -179.5 -108.5t-64.5 -303.5q0 -194 60.5 -298.5t172.5 -104.5q168 0 215 252h144q-53 -410 -357 -410q-180 0 -286.5 148t-106.5 399z" />
<glyph unicode="d" d="M59 561q0 243 100 392t263 149q91 0 153 -45t115 -148v561h148v-1470h-140v154q-47 -100 -106 -142.5t-148 -42.5q-175 0 -280 161.5t-105 430.5zM213 551q0 -201 61.5 -312.5t171.5 -111.5q112 0 177 100t65 281q0 211 -60.5 322.5t-174.5 111.5q-240 0 -240 -391z" />
<glyph unicode="e" d="M68 516q0 269 112.5 427.5t302.5 158.5q118 0 198.5 -60t129 -200.5t55.5 -364.5h-641q6 -184 69.5 -267t180.5 -83q89 0 155.5 59t76.5 150h147q-29 -173 -130 -270t-253 -97q-187 0 -295 146.5t-108 400.5zM225 621h488q-23 321 -236 321q-106 0 -176 -88.5t-76 -232.5 z" />
<glyph unicode="f" horiz-adv-x="466" d="M23 922v149h122v184q0 115 57.5 175.5t166.5 60.5q26 0 71 -4v-162q-50 4 -61 4q-45 0 -65.5 -29.5t-20.5 -95.5v-133h147v-149h-147v-922h-148v922h-122z" />
<glyph unicode="g" d="M68 561q0 243 99.5 392t262.5 149q89 0 148.5 -42t119.5 -147v158h140v-983q0 -281 -100.5 -410t-305.5 -129q-145 0 -227.5 73.5t-110.5 246.5h148q20 -91 65.5 -130.5t130.5 -39.5q134 0 193 82.5t59 294.5v43q-43 -78 -100 -114t-139 -36q-173 0 -278 162.5 t-105 429.5zM221 551q0 -201 62 -312.5t172 -111.5q114 0 177.5 100.5t63.5 278.5q0 212 -60.5 324t-174.5 112q-240 0 -240 -391z" />
<glyph unicode="h" d="M109 0v1470h147v-546q64 100 124 139t148 39q140 0 218.5 -98t78.5 -275v-729h-147v700q0 128 -40.5 185t-131.5 57q-120 0 -185 -93.5t-65 -264.5v-584h-147z" />
<glyph unicode="i" horiz-adv-x="372" d="M98 1243v197h176v-197h-176zM113 0v1071h147v-1071h-147z" />
<glyph unicode="j" horiz-adv-x="372" d="M-27 -268h31q69 0 89 23.5t20 107.5v1208h147v-1229q0 -140 -53.5 -206t-165.5 -66q-31 0 -68 6v156zM98 1243v197h176v-197h-176z" />
<glyph unicode="k" horiz-adv-x="839" d="M109 0v1470h147v-852l379 453h186l-336 -399l357 -672h-191l-272 541l-123 -135v-406h-147z" />
<glyph unicode="l" horiz-adv-x="372" d="M113 0v1470h147v-1470h-147z" />
<glyph unicode="m" horiz-adv-x="1398" d="M109 0v1071h139v-158q57 100 121 144.5t151 44.5q82 0 136.5 -40.5t95.5 -133.5q75 102 129.5 138t134.5 36q128 0 202 -97t74 -264v-741h-147v692q0 250 -160 250q-89 0 -150 -83.5t-61 -205.5v-653h-147v741q0 95 -36.5 148t-101.5 53q-106 0 -169.5 -97.5 t-63.5 -260.5v-584h-147z" />
<glyph unicode="n" d="M109 0v1071h139v-158q57 100 123 144.5t157 44.5q140 0 218.5 -98t78.5 -275v-729h-147v659q0 148 -43 215.5t-137 67.5q-113 0 -177.5 -95.5t-64.5 -262.5v-584h-147z" />
<glyph unicode="o" d="M59 537q0 254 114 409.5t300 155.5q177 0 289 -158.5t112 -406.5q0 -251 -113 -408.5t-294 -157.5q-180 0 -294 158t-114 408zM213 537q0 -186 69 -297t185 -111t185 111t69 297q0 184 -68.5 295.5t-181.5 111.5q-120 0 -189 -109.5t-69 -297.5z" />
<glyph unicode="p" d="M98 -424v1495h140v-158q58 104 118.5 146.5t149.5 42.5q163 0 262.5 -149t99.5 -392q0 -267 -105 -429.5t-278 -162.5q-81 0 -138 36t-101 114v-543h-148zM240 502q0 -174 64 -274.5t175 -100.5q112 0 174 112.5t62 315.5q0 189 -60 288t-174 99q-241 0 -241 -440z" />
<glyph unicode="q" d="M59 561q0 243 100 392t263 149q89 0 148.5 -42t119.5 -147v158h139v-1495h-147v543q-44 -78 -101.5 -114t-138.5 -36q-173 0 -278 162.5t-105 429.5zM213 553q0 -201 61.5 -313.5t171.5 -112.5q114 0 178 100t64 275q0 215 -60 327.5t-175 112.5q-240 0 -240 -389z" />
<glyph unicode="r" horiz-adv-x="559" d="M129 0v1071h139v-182q58 115 115.5 164t134.5 49q18 0 39 -6v-185h-55q-98 0 -162 -81t-64 -205v-625h-147z" />
<glyph unicode="s" horiz-adv-x="839" d="M53 344h144q8 -114 61.5 -165.5t165.5 -51.5q97 0 152 45t55 123q0 60 -36 91.5t-138 62.5l-172 51q-203 61 -203 264q0 154 92 246t244 92q151 0 237 -87.5t95 -248.5h-144q-5 91 -53 134.5t-145 43.5q-85 0 -134 -40.5t-49 -110.5q0 -57 31 -85t127 -57l149 -45 q133 -40 189.5 -105.5t56.5 -178.5q0 -161 -98.5 -257t-265.5 -96q-172 0 -261.5 90.5t-99.5 284.5z" />
<glyph unicode="t" horiz-adv-x="466" d="M23 922v149h118v299h148v-299h143v-149h-143v-697q0 -45 20.5 -64.5t69.5 -19.5h51v-141q-33 -4 -58 -7t-33 -4.5t-14 -2t-12 -0.5q-88 0 -130 56t-42 173v707h-118z" />
<glyph unicode="u" d="M115 301v770h147v-711q0 -233 170 -233q110 0 176 96t66 258v590h147v-1071h-139v166q-59 -110 -120 -153.5t-159 -43.5q-135 0 -211.5 88t-76.5 244z" />
<glyph unicode="v" horiz-adv-x="839" d="M14 1071h170l230 -878l250 878h161l-333 -1071h-158z" />
<glyph unicode="w" horiz-adv-x="1212" d="M23 1071h161l170 -850l170 850h166l172 -850l180 850h148l-256 -1071h-152l-180 838l-174 -838h-152z" />
<glyph unicode="x" horiz-adv-x="839" d="M18 0l310 551l-295 520h190l203 -377l205 377h180l-297 -520l309 -551h-188l-219 403l-211 -403h-187z" />
<glyph unicode="y" horiz-adv-x="839" d="M18 1071h166l236 -878l237 878h164l-317 -1051q-36 -116 -58 -182t-48 -124t-44 -83t-48.5 -43.5t-58.5 -22t-77 -3.5q-27 0 -59 12l-13 4v164q44 -18 90 -18t68 26.5t51 110.5l37 110z" />
<glyph unicode="z" horiz-adv-x="839" d="M51 0v141l531 781h-490v149h682v-147l-526 -774h540v-150h-737z" />
<glyph unicode="{" horiz-adv-x="561" d="M70 479v123q69 10 102 82t33 178v352q0 113 49.5 189t122.5 76h112v-133h-73q-78 0 -78 -168v-349q0 -98 -43 -178.5t-109 -109.5q70 -34 111 -113t41 -182v-346q0 -168 78 -168h73v-133h-112q-73 0 -122.5 75.5t-49.5 188.5v350q0 108 -34 182t-101 84z" />
<glyph unicode="|" horiz-adv-x="436" d="M160 -401v1880h119v-1880h-119z" />
<glyph unicode="}" horiz-adv-x="561" d="M70 -268h73q78 0 78 168v346q0 103 41 182t111 113q-66 29 -109 109.5t-43 178.5v349q0 168 -78 168h-73v133h112q73 0 122.5 -76t49.5 -189v-352q0 -107 33 -178.5t102 -81.5v-123q-68 -11 -101.5 -84t-33.5 -182v-350q0 -113 -49.5 -188.5t-122.5 -75.5h-112v133z" />
<glyph unicode="~" horiz-adv-x="980" d="M102 483q43 93 92 134.5t115 41.5q43 0 88.5 -17.5t149.5 -74.5q83 -47 127 -47q31 0 59.5 24.5t61.5 80.5l84 -78q-53 -94 -101.5 -135t-109.5 -41q-69 0 -170 67q-110 72 -191 72q-40 0 -68.5 -23t-56.5 -77z" />
<glyph unicode="&#xa1;" horiz-adv-x="466" d="M154 86l41 635h79l41 -635v-485h-161v485zM154 862v209h161v-209h-161z" />
<glyph unicode="&#xa2;" d="M86 514q0 275 110 431.5t302 156.5q43 0 73 -12l43 186h66l-41 -205q91 -37 148 -132.5t69 -231.5h-139q-17 90 -43 137.5t-70 70.5l-186 -790q27 -6 57 -6q103 0 158 57.5t86 198.5h143q-29 -201 -126 -307.5t-249 -106.5q-35 0 -106 14l-51 -211h-70l57 234 q-121 82 -176 204.5t-55 311.5zM233 516q0 -248 123 -356l183 780q-20 4 -37 4q-128 0 -198.5 -112t-70.5 -316z" />
<glyph unicode="&#xa3;" d="M55 649v129h117q-45 110 -59.5 165t-14.5 114q0 183 112.5 298t291.5 115q177 0 274.5 -121.5t97.5 -314.5v-30h-147v18q0 129 -65 210t-170 81q-98 0 -167 -74.5t-69 -181.5q0 -50 18.5 -111t67.5 -168h281v-129h-232q15 -77 15 -131q0 -105 -50 -200t-161 -193 q128 84 229 84q30 0 148 -36t135 -36q68 0 129 64l69 -135q-60 -54 -108 -76.5t-103 -22.5q-27 0 -173.5 46t-176.5 46q-86 0 -201 -82l-82 142q205 179 205 379q0 56 -30 151h-181z" />
<glyph unicode="&#xa4;" d="M139 289l66 63q-58 83 -58 185q0 99 58 182l-66 63l84 84l66 -63q83 57 182 57t182 -57l66 63l84 -84l-66 -63q58 -83 58 -182q0 -102 -58 -185l66 -63l-84 -84l-66 63q-80 -55 -182 -55t-182 55l-66 -63zM266 537q0 -86 60 -145.5t145 -59.5t145 59.5t60 145.5 q0 85 -60 144.5t-145 59.5t-145 -59.5t-60 -144.5z" />
<glyph unicode="&#xa5;" d="M4 1409h168l293 -604l295 604h168l-326 -623h262v-116h-325v-174h325v-117h-325v-379h-148v379h-321v117h321v174h-321v116h258z" />
<glyph unicode="&#xa6;" horiz-adv-x="436" d="M160 350h119v-751h-119v751zM160 727v752h119v-752h-119z" />
<glyph unicode="&#xa7;" d="M72 641q0 106 37 176t131 139q-46 63 -62 105.5t-16 99.5q0 154 85 251t220 97q290 0 305 -374h-141q-7 114 -46.5 165.5t-117.5 51.5q-69 0 -113.5 -45t-44.5 -117q0 -54 28.5 -97t94.5 -89l246 -177q97 -70 139.5 -147t42.5 -180q0 -104 -39.5 -178.5t-134.5 -149.5 q50 -66 69 -116.5t19 -116.5q0 -141 -90.5 -235.5t-226.5 -94.5q-148 0 -229.5 96.5t-88.5 288.5h148q3 -117 43.5 -172t122.5 -55q80 0 127 44.5t47 120.5q0 50 -20.5 86.5t-71.5 77.5l-355 287q-108 88 -108 258zM211 676q0 -111 76 -172l317 -250q66 54 91.5 98.5 t25.5 106.5q0 119 -105 198l-292 220q-60 -42 -86.5 -88t-26.5 -113z" />
<glyph unicode="&#xa8;" horiz-adv-x="559" d="M25 1243v197h180v-197h-180zM354 1243v197h181v-197h-181z" />
<glyph unicode="&#xa9;" horiz-adv-x="1236" d="M41 674q0 186 71 348t205 263t301 101q126 0 235.5 -59t183.5 -157.5t116.5 -227.5t42.5 -268t-42.5 -268t-116.5 -227.5t-183.5 -158t-235.5 -59.5q-167 0 -301 101t-205 263.5t-71 348.5zM123 674q0 -164 60 -307.5t175 -233.5t260 -90q110 0 204 53t157.5 140.5 t99 201.5t35.5 236t-35.5 236t-99 201.5t-157.5 140.5t-204 53q-145 0 -260 -90t-175 -233.5t-60 -307.5zM299 674q0 193 91 306.5t245 113.5q123 0 202.5 -71.5t94.5 -199.5h-107q-38 160 -188 160q-106 0 -165.5 -83.5t-59.5 -229.5q0 -145 57.5 -224t161.5 -79 q79 0 128 49.5t72 163.5h109q-18 -97 -42.5 -150t-66.5 -94q-86 -80 -208 -80q-148 0 -236 113t-88 305z" />
<glyph unicode="&#xaa;" horiz-adv-x="620" d="M41 1020q0 86 48.5 139.5t139.5 65.5l148 20q41 6 41 72q0 41 -33 63.5t-94 22.5t-92 -26t-37 -83h-92q8 111 63.5 163t167.5 52q102 0 160.5 -48t58.5 -132v-364q0 -39 31 -39q3 0 7 0.5t11 1.5t13 2v-90l-13 -4q-31 -7 -43 -7q-51 0 -72 23t-26 82q-47 -55 -95 -80 t-108 -25q-83 0 -133.5 52.5t-50.5 138.5zM59 623v98h498v-98h-498zM147 1034q0 -47 25 -72.5t72 -25.5q75 0 124.5 43t49.5 108v80q-17 -20 -154 -41q-64 -10 -90.5 -31t-26.5 -61z" />
<glyph unicode="&#xab;" d="M164 473v189l262 251v-180l-176 -166l176 -166v-180zM508 473v189l262 251v-180l-176 -166l176 -166v-180z" />
<glyph unicode="&#xac;" horiz-adv-x="980" d="M113 637v119h755v-428h-118v309h-637z" />
<glyph unicode="&#xad;" horiz-adv-x="559" d="M74 475v184h411v-184h-411z" />
<glyph unicode="&#xae;" horiz-adv-x="1236" d="M41 674q0 186 71 348t205 263t301 101q126 0 235.5 -59t183.5 -157.5t116.5 -227.5t42.5 -268t-42.5 -268t-116.5 -227.5t-183.5 -158t-235.5 -59.5q-167 0 -301 101t-205 263.5t-71 348.5zM123 674q0 -164 60 -307.5t175 -233.5t260 -90q110 0 204 53t157.5 140.5 t99 201.5t35.5 236t-35.5 236t-99 201.5t-157.5 140.5t-204 53q-145 0 -260 -90t-175 -233.5t-60 -307.5zM317 276v797h334q117 0 178.5 -56.5t61.5 -162.5q0 -64 -20 -105.5t-70 -78.5q40 -20 56.5 -52t19.5 -96l6 -141q0 -35 6.5 -48.5t28.5 -27.5v-29h-130 q-18 49 -18 203q0 70 -28.5 101.5t-90.5 31.5h-223v-336h-111zM428 717h213q137 0 137 129q0 121 -121 121h-229v-250z" />
<glyph unicode="&#xaf;" horiz-adv-x="559" d="M16 1284v117h527v-117h-527z" />
<glyph unicode="&#xb0;" horiz-adv-x="671" d="M90 1141q0 129 71.5 214t178.5 85q101 0 171.5 -86.5t70.5 -212.5q0 -127 -71 -213t-175 -86t-175 86t-71 213zM172 1141q0 -83 49.5 -147t114.5 -64t114.5 64t49.5 147q0 82 -50 146.5t-114 64.5q-65 0 -114.5 -64t-49.5 -147z" />
<glyph unicode="&#xb1;" horiz-adv-x="980" d="M113 0v119h755v-119h-755zM113 571v119h319v320h119v-320h317v-119h-317v-317h-119v317h-319z" />
<glyph unicode="&#xb2;" horiz-adv-x="559" d="M6 573q6 122 47 204.5t127 140.5l103 67q94 62 117.5 97.5t25.5 111.5q0 71 -37 110t-104 39q-74 0 -110 -50.5t-42 -162.5h-102q12 332 262 332q110 0 180 -78t70 -202q0 -96 -43 -158.5t-158 -132.5l-76 -47q-86 -52 -133 -144h410v-127h-537z" />
<glyph unicode="&#xb3;" horiz-adv-x="559" d="M8 862h115q6 -104 39 -147t108 -43t116.5 44t41.5 124q0 78 -40 111.5t-132 33.5h-39v107h45q67 0 103 34t36 99q0 57 -34.5 87.5t-98.5 30.5q-68 0 -100.5 -38t-38.5 -125h-102q12 282 252 282q109 0 174 -62.5t65 -166.5q0 -135 -104 -178q71 -28 101 -74.5t30 -128.5 q0 -135 -76 -217t-201 -82q-114 0 -180.5 70t-79.5 239z" />
<glyph unicode="&#xb4;" horiz-adv-x="559" d="M223 1196l150 289h182l-219 -289h-113z" />
<glyph unicode="&#xb5;" d="M115 -424v1495h147v-711q0 -233 170 -233q110 0 176 96t66 258v590h147v-1071h-139v166q-57 -109 -118 -153t-156 -44q-52 0 -85 17t-61 57v-467h-147z" />
<glyph unicode="&#xb6;" horiz-adv-x="901" d="M31 1092q0 182 101 280t288 98h416v-1824h-123v1702h-199v-1702h-123v1059q-174 9 -267 113.5t-93 273.5z" />
<glyph unicode="&#xb7;" horiz-adv-x="466" d="M145 512q0 37 25.5 62.5t62.5 25.5t63 -25.5t26 -62.5t-26 -62.5t-63 -25.5t-62.5 25.5t-25.5 62.5z" />
<glyph unicode="&#xb8;" horiz-adv-x="559" d="M76 -426l28 82q58 -31 107 -31q45 0 70.5 23t25.5 63q0 36 -24 64t-58 28q-21 0 -63 -18l-29 39l107 180h96l-66 -123h25q62 0 100.5 -47t38.5 -117q0 -83 -54 -135.5t-142 -52.5q-72 0 -162 45z" />
<glyph unicode="&#xb9;" horiz-adv-x="559" d="M72 1182v94q107 8 146 38.5t61 125.5h94v-865h-119v607h-182z" />
<glyph unicode="&#xba;" horiz-adv-x="612" d="M41 1167q0 165 70 253.5t200 88.5q123 0 192.5 -90t69.5 -250q0 -161 -70 -250.5t-196 -89.5t-196 89t-70 249zM57 623v98h498v-98h-498zM154 1169q0 -111 40 -172t113 -61t113.5 61.5t40.5 171.5t-40.5 172t-111.5 62q-75 0 -115 -60.5t-40 -173.5z" />
<glyph unicode="&#xbb;" d="M164 221v180l176 166l-176 166v180l262 -251v-189zM508 221v180l176 166l-176 166v180l262 -251v-189z" />
<glyph unicode="&#xbc;" horiz-adv-x="1400" d="M123 1188v88q107 8 146 38.5t61 125.5h90v-865h-115v613h-182zM258 -51l743 1491h97l-744 -1491h-96zM705 193v122l346 549h106v-553h113v-118h-113v-193h-106v193h-346zM809 311h242v389z" />
<glyph unicode="&#xbd;" horiz-adv-x="1400" d="M72 1182v94q107 8 146 38.5t61 125.5h94v-865h-119v607h-182zM199 -51l741 1491h96l-743 -1491h-94zM762 0q6 122 47.5 203t128.5 139l100 68q96 65 120 99.5t24 108.5q0 71 -37.5 110.5t-104.5 39.5q-72 0 -108.5 -51.5t-42.5 -161.5h-101q3 166 71 249t190 83 q112 0 180.5 -78t68.5 -203q0 -96 -42.5 -157.5t-157.5 -131.5l-76 -47q-92 -60 -133 -143h409v-127h-536z" />
<glyph unicode="&#xbe;" horiz-adv-x="1400" d="M76 862h114q6 -104 40.5 -147t109.5 -43t116.5 44t41.5 124q0 78 -40 111.5t-134 33.5h-39v107h45q67 0 103 34t36 99q0 57 -34 87.5t-97 30.5q-69 0 -102 -38t-39 -125h-103q12 282 252 282q109 0 174.5 -62.5t65.5 -166.5q0 -135 -105 -178q72 -29 102.5 -76t30.5 -129 q0 -134 -76 -215.5t-200 -81.5q-115 0 -180.5 68.5t-81.5 240.5zM356 -51l744 1491h96l-743 -1491h-97zM795 193v122l346 549h106v-553h113v-118h-113v-193h-106v193h-346zM899 311h242v389z" />
<glyph unicode="&#xbf;" d="M109 -18q0 95 30.5 162t126.5 178q96 110 121 174t25 200h147q0 -111 -12.5 -174.5t-43 -119.5t-102.5 -146q-91 -113 -113 -157.5t-22 -114.5q0 -114 55 -179t150 -65q221 0 221 321h148q0 -133 -19.5 -203t-68.5 -134q-52 -67 -128 -104.5t-159 -37.5 q-157 0 -256.5 111.5t-99.5 288.5zM399 862v209h164v-209h-164z" />
<glyph unicode="&#xc0;" horiz-adv-x="1120" d="M23 0l452 1470h187l436 -1470h-178l-119 428h-484l-127 -428h-167zM291 1843h192l150 -248h-123zM367 606h374l-180 651z" />
<glyph unicode="&#xc1;" horiz-adv-x="1120" d="M23 0l452 1470h187l436 -1470h-178l-119 428h-484l-127 -428h-167zM367 606h374l-180 651zM508 1595l149 248h193l-219 -248h-123z" />
<glyph unicode="&#xc2;" horiz-adv-x="1120" d="M23 0l452 1470h187l436 -1470h-178l-119 428h-484l-127 -428h-167zM293 1597l196 248h158l197 -248h-135l-142 150l-141 -150h-133zM367 606h374l-180 651z" />
<glyph unicode="&#xc3;" horiz-adv-x="1120" d="M23 0l452 1470h187l436 -1470h-178l-119 428h-484l-127 -428h-167zM285 1602q15 113 57.5 166t116.5 53q43 0 114 -31l37 -18q56 -27 84 -27q33 0 51 21.5t27 72.5h84q-30 -223 -170 -223q-31 0 -96 26l-43 19q-69 31 -105 31q-29 0 -46 -20t-31 -70h-80zM367 606h374 l-180 651z" />
<glyph unicode="&#xc4;" horiz-adv-x="1120" d="M23 0l452 1470h187l436 -1470h-178l-119 428h-484l-127 -428h-167zM315 1622v197h181v-197h-181zM367 606h374l-180 651zM645 1622v197h180v-197h-180z" />
<glyph unicode="&#xc5;" horiz-adv-x="1120" d="M23 0l452 1470h187l436 -1470h-178l-119 428h-484l-127 -428h-167zM362 1761q0 72 60 120t149 48t148 -48.5t59 -123.5q0 -72 -59 -120t-148 -48q-91 0 -150 48.5t-59 123.5zM367 606h374l-180 651zM453 1761q0 -41 34 -69.5t84 -28.5q47 0 82 28t35 66q0 41 -34.5 69.5 t-82.5 28.5q-47 0 -82.5 -28t-35.5 -66z" />
<glyph unicode="&#xc6;" horiz-adv-x="1679" d="M14 0l490 1470h1081v-178h-653v-448h596v-178h-596v-488h665v-178h-829v428h-444l-134 -428h-176zM381 606h387v686h-164z" />
<glyph unicode="&#xc7;" horiz-adv-x="1212" d="M74 733q0 356 152.5 566t410.5 210q200 0 332 -126.5t161 -354.5h-157q-36 158 -119 230.5t-213 72.5q-187 0 -293 -160.5t-106 -443.5q0 -280 102 -434t287 -154q137 0 224.5 95t129.5 307h158q-30 -172 -69.5 -266t-108.5 -166q-116 -122 -281 -144l-45 -84h25 q62 0 100.5 -47t38.5 -117q0 -83 -54.5 -135.5t-142.5 -52.5q-72 0 -162 45l29 82q58 -31 107 -31q45 0 70.5 23t25.5 63q0 36 -24 64t-58 28q-22 0 -64 -18l-28 39l82 137q-235 15 -372.5 222.5t-137.5 549.5z" />
<glyph unicode="&#xc8;" horiz-adv-x="1120" d="M145 0v1470h877v-178h-713v-448h658v-178h-658v-488h725v-178h-889zM305 1843h193l149 -248h-123z" />
<glyph unicode="&#xc9;" horiz-adv-x="1120" d="M145 0v1470h877v-178h-713v-448h658v-178h-658v-488h725v-178h-889zM522 1595l150 248h192l-219 -248h-123z" />
<glyph unicode="&#xca;" horiz-adv-x="1120" d="M145 0v1470h877v-178h-713v-448h658v-178h-658v-488h725v-178h-889zM307 1597l197 248h158l196 -248h-135l-141 150l-142 -150h-133z" />
<glyph unicode="&#xcb;" horiz-adv-x="1120" d="M145 0v1470h877v-178h-713v-448h658v-178h-658v-488h725v-178h-889zM330 1622v197h180v-197h-180zM659 1622v197h181v-197h-181z" />
<glyph unicode="&#xcc;" horiz-adv-x="466" d="M-27 1843h193l149 -248h-122zM154 0v1470h161v-1470h-161z" />
<glyph unicode="&#xcd;" horiz-adv-x="466" d="M154 0v1470h161v-1470h-161zM156 1595l149 248h193l-219 -248h-123z" />
<glyph unicode="&#xce;" horiz-adv-x="466" d="M-41 1597l197 248h157l197 -248h-135l-142 150l-141 -150h-133zM154 0v1470h161v-1470h-161z" />
<glyph unicode="&#xcf;" horiz-adv-x="466" d="M-18 1622v197h180v-197h-180zM154 0v1470h161v-1470h-161zM311 1622v197h181v-197h-181z" />
<glyph unicode="&#xd0;" horiz-adv-x="1212" d="M0 666v178h135v626h492q151 0 266 -87.5t177.5 -248.5t62.5 -372q0 -347 -137.5 -554.5t-377.5 -207.5h-483v666h-135zM299 170h317q161 0 255 151.5t94 413.5q0 273 -93.5 419t-267.5 146h-305v-456h324v-178h-324v-496z" />
<glyph unicode="&#xd1;" horiz-adv-x="1212" d="M127 0v1470h192l609 -1194v1194h157v-1470h-182l-618 1194v-1194h-158zM322 1602q15 113 57.5 166t116.5 53q43 0 114 -31l37 -18q56 -27 84 -27q33 0 51 21.5t27 72.5h84q-30 -223 -170 -223q-31 0 -96 26l-43 19q-69 31 -105 31q-29 0 -47 -20.5t-31 -69.5h-79z" />
<glyph unicode="&#xd2;" horiz-adv-x="1306" d="M66 733q0 219 67 392.5t204 278.5t325 105q167 0 299 -97t206 -274.5t74 -404.5q0 -158 -38.5 -296.5t-111 -245t-185.5 -168.5t-253 -62t-253 62t-185 168.5t-110.5 245t-38.5 296.5zM233 733q0 -267 115.5 -430.5t304.5 -163.5t304.5 164t115.5 432q0 266 -115 431 t-299 165q-195 0 -310.5 -162t-115.5 -436zM383 1843h192l150 -248h-123z" />
<glyph unicode="&#xd3;" horiz-adv-x="1306" d="M66 733q0 219 67 392.5t204 278.5t325 105q167 0 299 -97t206 -274.5t74 -404.5q0 -158 -38.5 -296.5t-111 -245t-185.5 -168.5t-253 -62t-253 62t-185 168.5t-110.5 245t-38.5 296.5zM233 733q0 -267 115.5 -430.5t304.5 -163.5t304.5 164t115.5 432q0 266 -115 431 t-299 165q-195 0 -310.5 -162t-115.5 -436zM600 1595l150 248h192l-219 -248h-123z" />
<glyph unicode="&#xd4;" horiz-adv-x="1306" d="M66 733q0 219 67 392.5t204 278.5t325 105q167 0 299 -97t206 -274.5t74 -404.5q0 -158 -38.5 -296.5t-111 -245t-185.5 -168.5t-253 -62t-253 62t-185 168.5t-110.5 245t-38.5 296.5zM233 733q0 -267 115.5 -430.5t304.5 -163.5t304.5 164t115.5 432q0 266 -115 431 t-299 165q-195 0 -310.5 -162t-115.5 -436zM385 1597l197 248h157l197 -248h-135l-142 150l-141 -150h-133z" />
<glyph unicode="&#xd5;" horiz-adv-x="1306" d="M66 733q0 219 67 392.5t204 278.5t325 105q167 0 299 -97t206 -274.5t74 -404.5q0 -158 -38.5 -296.5t-111 -245t-185.5 -168.5t-253 -62t-253 62t-185 168.5t-110.5 245t-38.5 296.5zM233 733q0 -267 115.5 -430.5t304.5 -163.5t304.5 164t115.5 432q0 266 -115 431 t-299 165q-195 0 -310.5 -162t-115.5 -436zM377 1602q15 113 57.5 166t116.5 53q44 0 115 -31l36 -18q56 -27 84 -27q33 0 51 21.5t27 72.5h84q-30 -223 -170 -223q-31 0 -96 26l-43 19q-69 31 -104 31q-29 0 -47 -20.5t-31 -69.5h-80z" />
<glyph unicode="&#xd6;" horiz-adv-x="1306" d="M66 733q0 219 67 392.5t204 278.5t325 105q167 0 299 -97t206 -274.5t74 -404.5q0 -158 -38.5 -296.5t-111 -245t-185.5 -168.5t-253 -62t-253 62t-185 168.5t-110.5 245t-38.5 296.5zM233 733q0 -267 115.5 -430.5t304.5 -163.5t304.5 164t115.5 432q0 266 -115 431 t-299 165q-195 0 -310.5 -162t-115.5 -436zM408 1622v197h180v-197h-180zM737 1622v197h181v-197h-181z" />
<glyph unicode="&#xd7;" horiz-adv-x="980" d="M182 287l226 227l-226 225l84 84l226 -225l225 223l84 -84l-226 -223l226 -225l-84 -84l-225 223l-226 -225z" />
<glyph unicode="&#xd8;" horiz-adv-x="1306" d="M66 737q0 158 38.5 296.5t110.5 245t185.5 168.5t254.5 62q125 0 218.5 -42.5t181.5 -139.5l137 182l51 -61l-139 -186q72 -128 104.5 -252.5t32.5 -276.5q0 -126 -24 -240t-73 -211.5t-118.5 -168.5t-165.5 -111.5t-209 -40.5q-122 0 -213.5 41.5t-179.5 136.5 l-135 -178l-53 57l139 185q-76 130 -109.5 255t-33.5 279zM233 735q0 -112 20 -201.5t66 -183.5l629 834q-66 78 -135 112.5t-158 34.5q-190 0 -306 -163.5t-116 -432.5zM365 283q65 -76 132 -110t154 -34q190 0 306 163.5t116 432.5q0 114 -19 201t-63 176z" />
<glyph unicode="&#xd9;" horiz-adv-x="1212" d="M133 489v981h164v-925q0 -195 79.5 -300.5t227.5 -105.5q149 0 231.5 105t82.5 297v929h163v-954q0 -254 -131 -404.5t-352 -150.5q-214 0 -339.5 142.5t-125.5 385.5zM330 1843h192l150 -248h-123z" />
<glyph unicode="&#xda;" horiz-adv-x="1212" d="M133 489v981h164v-925q0 -195 79.5 -300.5t227.5 -105.5q149 0 231.5 105t82.5 297v929h163v-954q0 -254 -131 -404.5t-352 -150.5q-214 0 -339.5 142.5t-125.5 385.5zM547 1595l149 248h193l-219 -248h-123z" />
<glyph unicode="&#xdb;" horiz-adv-x="1212" d="M133 489v981h164v-925q0 -195 79.5 -300.5t227.5 -105.5q149 0 231.5 105t82.5 297v929h163v-954q0 -254 -131 -404.5t-352 -150.5q-214 0 -339.5 142.5t-125.5 385.5zM332 1597l196 248h158l197 -248h-135l-142 150l-141 -150h-133z" />
<glyph unicode="&#xdc;" horiz-adv-x="1212" d="M133 489v981h164v-925q0 -195 79.5 -300.5t227.5 -105.5q149 0 231.5 105t82.5 297v929h163v-954q0 -254 -131 -404.5t-352 -150.5q-214 0 -339.5 142.5t-125.5 385.5zM354 1622v197h181v-197h-181zM684 1622v197h180v-197h-180z" />
<glyph unicode="&#xdd;" horiz-adv-x="1120" d="M23 1470h190l346 -706l346 706h191l-455 -878v-592h-164v592zM498 1595l149 248h193l-219 -248h-123z" />
<glyph unicode="&#xde;" horiz-adv-x="1120" d="M145 0v1470h164v-243h377q161 0 259.5 -114.5t98.5 -301.5q0 -197 -97.5 -315.5t-260.5 -118.5h-377v-377h-164zM309 547h322q246 0 246 258q0 128 -59.5 190t-180.5 62h-328v-510z" />
<glyph unicode="&#xdf;" horiz-adv-x="1026" d="M113 0v1090q0 189 104 295t289 106q181 0 288 -101t107 -272q0 -100 -32.5 -171t-104.5 -128q94 -40 144 -133.5t50 -228.5q0 -100 -27 -187t-78 -155t-132.5 -107t-183.5 -39q-41 0 -84 13l-7 2v153q40 -8 72 -8q141 0 214 78.5t73 230.5q0 146 -70.5 216.5t-216.5 70.5 q-36 0 -63 -8v162q25 -5 47 -5q120 0 186 60t66 168q0 107 -68 169t-186 62q-126 0 -183 -68.5t-57 -220.5v-1044h-147z" />
<glyph unicode="&#xe0;" d="M61 283q0 139 69.5 225t197.5 106l243 37q41 6 59.5 35t18.5 88q0 88 -51.5 133t-151.5 45q-101 0 -153.5 -49t-52.5 -158h-136q0 357 353 357q157 0 246.5 -80t89.5 -219v-617q0 -63 47 -63q10 0 51 8v-131q-59 -20 -86 -20q-75 0 -109.5 37.5t-42.5 125.5 q-72 -92 -144.5 -133t-166.5 -41q-127 0 -204 86.5t-77 227.5zM182 1485h183l149 -289h-113zM215 299q0 -86 41.5 -133t116.5 -47q110 0 191 75.5t81 176.5v176q-23 -21 -67.5 -33t-174.5 -35q-101 -17 -144.5 -58.5t-43.5 -121.5z" />
<glyph unicode="&#xe1;" d="M61 283q0 139 69.5 225t197.5 106l243 37q41 6 59.5 35t18.5 88q0 88 -51.5 133t-151.5 45q-101 0 -153.5 -49t-52.5 -158h-136q0 357 353 357q157 0 246.5 -80t89.5 -219v-617q0 -63 47 -63q10 0 51 8v-131q-59 -20 -86 -20q-75 0 -109.5 37.5t-42.5 125.5 q-72 -92 -144.5 -133t-166.5 -41q-127 0 -204 86.5t-77 227.5zM215 299q0 -86 41.5 -133t116.5 -47q110 0 191 75.5t81 176.5v176q-23 -21 -67.5 -33t-174.5 -35q-101 -17 -144.5 -58.5t-43.5 -121.5zM399 1196l150 289h182l-219 -289h-113z" />
<glyph unicode="&#xe2;" d="M61 283q0 139 69.5 225t197.5 106l243 37q41 6 59.5 35t18.5 88q0 88 -51.5 133t-151.5 45q-101 0 -153.5 -49t-52.5 -158h-136q0 357 353 357q157 0 246.5 -80t89.5 -219v-617q0 -63 47 -63q10 0 51 8v-131q-59 -20 -86 -20q-75 0 -109.5 37.5t-42.5 125.5 q-72 -92 -144.5 -133t-166.5 -41q-127 0 -204 86.5t-77 227.5zM211 1198l166 289h158l165 -289h-135l-110 191l-111 -191h-133zM215 299q0 -86 41.5 -133t116.5 -47q110 0 191 75.5t81 176.5v176q-23 -21 -67.5 -33t-174.5 -35q-101 -17 -144.5 -58.5t-43.5 -121.5z" />
<glyph unicode="&#xe3;" d="M61 283q0 139 69.5 225t197.5 106l243 37q41 6 59.5 35t18.5 88q0 88 -51.5 133t-151.5 45q-101 0 -153.5 -49t-52.5 -158h-136q0 357 353 357q157 0 246.5 -80t89.5 -219v-617q0 -63 47 -63q10 0 51 8v-131q-59 -20 -86 -20q-75 0 -109.5 37.5t-42.5 125.5 q-72 -92 -144.5 -133t-166.5 -41q-127 0 -204 86.5t-77 227.5zM170 1223q15 113 57.5 166t116.5 53q44 0 115 -31l37 -18q56 -27 84 -27q32 0 50 21.5t27 72.5h84q-30 -223 -170 -223q-29 0 -96 27l-43 18q-69 31 -104 31q-29 0 -47 -20.5t-31 -69.5h-80zM215 299 q0 -86 41.5 -133t116.5 -47q110 0 191 75.5t81 176.5v176q-23 -21 -67.5 -33t-174.5 -35q-101 -17 -144.5 -58.5t-43.5 -121.5z" />
<glyph unicode="&#xe4;" d="M61 283q0 139 69.5 225t197.5 106l243 37q41 6 59.5 35t18.5 88q0 88 -51.5 133t-151.5 45q-101 0 -153.5 -49t-52.5 -158h-136q0 357 353 357q157 0 246.5 -80t89.5 -219v-617q0 -63 47 -63q10 0 51 8v-131q-59 -20 -86 -20q-75 0 -109.5 37.5t-42.5 125.5 q-72 -92 -144.5 -133t-166.5 -41q-127 0 -204 86.5t-77 227.5zM201 1243v197h180v-197h-180zM215 299q0 -86 41.5 -133t116.5 -47q110 0 191 75.5t81 176.5v176q-23 -21 -67.5 -33t-174.5 -35q-101 -17 -144.5 -58.5t-43.5 -121.5zM530 1243v197h181v-197h-181z" />
<glyph unicode="&#xe5;" d="M61 283q0 139 69.5 225t197.5 106l243 37q41 6 59.5 35t18.5 88q0 88 -51.5 133t-151.5 45q-101 0 -153.5 -49t-52.5 -158h-136q0 357 353 357q157 0 246.5 -80t89.5 -219v-617q0 -63 47 -63q10 0 51 8v-131q-59 -20 -86 -20q-75 0 -109.5 37.5t-42.5 125.5 q-72 -92 -144.5 -133t-166.5 -41q-127 0 -204 86.5t-77 227.5zM215 299q0 -86 41.5 -133t116.5 -47q110 0 191 75.5t81 176.5v176q-23 -21 -67.5 -33t-174.5 -35q-101 -17 -144.5 -58.5t-43.5 -121.5zM248 1343q0 72 60 120t149 48t148 -48.5t59 -123.5q0 -72 -59 -120 t-148 -48q-91 0 -150 48.5t-59 123.5zM338 1343q0 -41 34.5 -69.5t84.5 -28.5q47 0 81.5 28t34.5 66q0 41 -34.5 70t-81.5 29t-83 -28.5t-36 -66.5z" />
<glyph unicode="&#xe6;" horiz-adv-x="1492" d="M61 283q0 139 69.5 225t197.5 106l243 37q41 6 59.5 35t18.5 88q0 88 -51.5 133t-151.5 45q-97 0 -143 -46.5t-63 -160.5h-136q10 188 98.5 272.5t264.5 84.5q99 0 158.5 -31.5t126.5 -120.5q72 86 134 119t154 33q118 0 197.5 -58.5t128 -199t57.5 -367.5h-643 q11 -350 250 -350q89 0 155.5 59t78.5 150h147q-27 -168 -127.5 -267.5t-259.5 -99.5q-118 0 -195.5 52.5t-134.5 171.5q-70 -119 -151.5 -171.5t-192.5 -52.5q-132 0 -210.5 85t-78.5 229zM215 299q0 -86 41.5 -133t116.5 -47q110 0 191 75.5t81 176.5v176 q-21 -21 -65.5 -33t-176.5 -35q-100 -17 -144 -59.5t-44 -120.5zM780 621h490q-23 321 -238 321q-106 0 -175.5 -88t-76.5 -233z" />
<glyph unicode="&#xe7;" horiz-adv-x="839" d="M51 516q0 268 112.5 427t303.5 159q294 0 334 -391h-144q-19 121 -67.5 176t-136.5 55q-115 0 -179.5 -108.5t-64.5 -303.5q0 -194 60.5 -298.5t172.5 -104.5q168 0 215 252h144q-46 -365 -297 -406l-49 -92h24q62 0 100.5 -47t38.5 -117q0 -83 -54 -135.5t-142 -52.5 q-72 0 -162 45l29 82q58 -31 106 -31q46 0 71.5 23t25.5 63q0 36 -24 64t-58 28q-22 0 -64 -18l-29 39l89 147q-163 17 -259 163.5t-96 381.5z" />
<glyph unicode="&#xe8;" d="M68 516q0 269 112.5 427.5t302.5 158.5q118 0 198.5 -60t129 -200.5t55.5 -364.5h-641q6 -184 69.5 -267t180.5 -83q89 0 155.5 59t76.5 150h147q-29 -173 -130 -270t-253 -97q-187 0 -295 146.5t-108 400.5zM193 1485h182l149 -289h-112zM225 621h488q-23 321 -236 321 q-106 0 -176 -88.5t-76 -232.5z" />
<glyph unicode="&#xe9;" d="M68 516q0 269 112.5 427.5t302.5 158.5q118 0 198.5 -60t129 -200.5t55.5 -364.5h-641q6 -184 69.5 -267t180.5 -83q89 0 155.5 59t76.5 150h147q-29 -173 -130 -270t-253 -97q-187 0 -295 146.5t-108 400.5zM225 621h488q-23 321 -236 321q-106 0 -176 -88.5t-76 -232.5 zM410 1196l149 289h182l-219 -289h-112z" />
<glyph unicode="&#xea;" d="M68 516q0 269 112.5 427.5t302.5 158.5q118 0 198.5 -60t129 -200.5t55.5 -364.5h-641q6 -184 69.5 -267t180.5 -83q89 0 155.5 59t76.5 150h147q-29 -173 -130 -270t-253 -97q-187 0 -295 146.5t-108 400.5zM221 1198l166 289h158l166 -289h-136l-110 191l-111 -191 h-133zM225 621h488q-23 321 -236 321q-106 0 -176 -88.5t-76 -232.5z" />
<glyph unicode="&#xeb;" d="M68 516q0 269 112.5 427.5t302.5 158.5q118 0 198.5 -60t129 -200.5t55.5 -364.5h-641q6 -184 69.5 -267t180.5 -83q89 0 155.5 59t76.5 150h147q-29 -173 -130 -270t-253 -97q-187 0 -295 146.5t-108 400.5zM211 1243v197h180v-197h-180zM225 621h488q-23 321 -236 321 q-106 0 -176 -88.5t-76 -232.5zM541 1243v197h180v-197h-180z" />
<glyph unicode="&#xec;" horiz-adv-x="466" d="M-25 1485h183l149 -289h-112zM160 0v1071h147v-1071h-147z" />
<glyph unicode="&#xed;" horiz-adv-x="466" d="M160 0v1071h147v-1071h-147zM160 1196l149 289h183l-220 -289h-112z" />
<glyph unicode="&#xee;" horiz-adv-x="466" d="M-12 1198l166 289h157l166 -289h-135l-111 191l-110 -191h-133zM160 0v1071h147v-1071h-147z" />
<glyph unicode="&#xef;" horiz-adv-x="466" d="M-23 1243v197h181v-197h-181zM160 0v1071h147v-1071h-147zM307 1243v197h180v-197h-180z" />
<glyph unicode="&#xf0;" d="M59 518q0 239 110.5 396t279.5 157q70 0 120 -27t107 -96q-32 91 -77 162t-116 143l-207 -127l-71 86l198 117q-69 64 -149 107l125 73q85 -43 151 -104l179 104l79 -82l-180 -104q145 -180 207 -351.5t62 -377.5q0 -286 -110 -455.5t-296 -169.5q-181 0 -296.5 153.5 t-115.5 395.5zM213 520q0 -171 70 -282t184 -111q115 0 185.5 111.5t70.5 281.5q0 171 -71.5 282t-180.5 111q-116 0 -187 -111t-71 -282z" />
<glyph unicode="&#xf1;" d="M109 0v1071h139v-158q57 100 123 144.5t157 44.5q140 0 218.5 -98t78.5 -275v-729h-147v659q0 148 -43 215.5t-137 67.5q-113 0 -177.5 -95.5t-64.5 -262.5v-584h-147zM180 1223q15 113 57.5 166t116.5 53q44 0 115 -31l37 -18q56 -27 84 -27q33 0 51 21.5t27 72.5h84 q-30 -223 -170 -223q-30 0 -97 27l-43 18q-69 31 -104 31q-29 0 -47 -20.5t-31 -69.5h-80z" />
<glyph unicode="&#xf2;" d="M59 537q0 254 114 409.5t300 155.5q177 0 289 -158.5t112 -406.5q0 -251 -113 -408.5t-294 -157.5q-180 0 -294 158t-114 408zM193 1485h182l149 -289h-112zM213 537q0 -186 69 -297t185 -111t185 111t69 297q0 184 -68.5 295.5t-181.5 111.5q-120 0 -189 -109.5 t-69 -297.5z" />
<glyph unicode="&#xf3;" d="M59 537q0 254 114 409.5t300 155.5q177 0 289 -158.5t112 -406.5q0 -251 -113 -408.5t-294 -157.5q-180 0 -294 158t-114 408zM213 537q0 -186 69 -297t185 -111t185 111t69 297q0 184 -68.5 295.5t-181.5 111.5q-120 0 -189 -109.5t-69 -297.5zM410 1196l149 289h182 l-219 -289h-112z" />
<glyph unicode="&#xf4;" d="M59 537q0 254 114 409.5t300 155.5q177 0 289 -158.5t112 -406.5q0 -251 -113 -408.5t-294 -157.5q-180 0 -294 158t-114 408zM213 537q0 -186 69 -297t185 -111t185 111t69 297q0 184 -68.5 295.5t-181.5 111.5q-120 0 -189 -109.5t-69 -297.5zM221 1198l166 289h158 l166 -289h-136l-110 191l-111 -191h-133z" />
<glyph unicode="&#xf5;" d="M59 537q0 254 114 409.5t300 155.5q177 0 289 -158.5t112 -406.5q0 -251 -113 -408.5t-294 -157.5q-180 0 -294 158t-114 408zM180 1223q15 113 57.5 166t116.5 53q44 0 115 -31l37 -18q56 -27 84 -27q33 0 51 21.5t27 72.5h84q-30 -223 -170 -223q-30 0 -97 27l-43 18 q-69 31 -104 31q-29 0 -47 -20.5t-31 -69.5h-80zM213 537q0 -186 69 -297t185 -111t185 111t69 297q0 184 -68.5 295.5t-181.5 111.5q-120 0 -189 -109.5t-69 -297.5z" />
<glyph unicode="&#xf6;" d="M59 537q0 254 114 409.5t300 155.5q177 0 289 -158.5t112 -406.5q0 -251 -113 -408.5t-294 -157.5q-180 0 -294 158t-114 408zM211 1243v197h180v-197h-180zM213 537q0 -186 69 -297t185 -111t185 111t69 297q0 184 -68.5 295.5t-181.5 111.5q-120 0 -189 -109.5 t-69 -297.5zM541 1243v197h180v-197h-180z" />
<glyph unicode="&#xf7;" horiz-adv-x="980" d="M113 453v118h755v-118h-755zM403 145q0 35 26.5 61.5t62.5 26.5q35 0 61.5 -26.5t26.5 -61.5q0 -36 -26 -62t-62 -26q-37 0 -63 25.5t-26 62.5zM403 881q0 35 26.5 61.5t62.5 26.5q35 0 61.5 -26.5t26.5 -61.5q0 -36 -26 -62t-62 -26q-37 0 -63 25.5t-26 62.5z" />
<glyph unicode="&#xf8;" d="M47 8l107 148q-95 174 -95 381q0 252 113.5 408.5t296.5 156.5q83 0 146.5 -31t125.5 -102l109 147l51 -53l-117 -160q48 -90 69 -176t21 -192q0 -250 -113.5 -407t-295.5 -157q-79 0 -141.5 29t-122.5 94l-103 -139zM213 537q0 -128 41 -244l395 547q-38 55 -80.5 79.5 t-101.5 24.5q-116 0 -185 -110.5t-69 -296.5zM293 221q69 -92 172 -92q117 0 186.5 111t69.5 297q0 120 -37 227z" />
<glyph unicode="&#xf9;" d="M115 301v770h147v-711q0 -233 170 -233q110 0 176 96t66 258v590h147v-1071h-139v166q-59 -110 -120 -153.5t-159 -43.5q-135 0 -211.5 88t-76.5 244zM193 1485h182l149 -289h-112z" />
<glyph unicode="&#xfa;" d="M115 301v770h147v-711q0 -233 170 -233q110 0 176 96t66 258v590h147v-1071h-139v166q-59 -110 -120 -153.5t-159 -43.5q-135 0 -211.5 88t-76.5 244zM410 1196l149 289h182l-219 -289h-112z" />
<glyph unicode="&#xfb;" d="M115 301v770h147v-711q0 -233 170 -233q110 0 176 96t66 258v590h147v-1071h-139v166q-59 -110 -120 -153.5t-159 -43.5q-135 0 -211.5 88t-76.5 244zM221 1198l166 289h158l166 -289h-136l-110 191l-111 -191h-133z" />
<glyph unicode="&#xfc;" d="M115 301v770h147v-711q0 -233 170 -233q110 0 176 96t66 258v590h147v-1071h-139v166q-59 -110 -120 -153.5t-159 -43.5q-135 0 -211.5 88t-76.5 244zM211 1243v197h180v-197h-180zM541 1243v197h180v-197h-180z" />
<glyph unicode="&#xfd;" horiz-adv-x="839" d="M18 1071h166l236 -878l237 878h164l-317 -1051q-36 -116 -58 -182t-48 -124t-44 -83t-48.5 -43.5t-58.5 -22t-77 -3.5q-27 0 -59 12l-13 4v164q44 -18 90 -18t68 26.5t51 110.5l37 110zM362 1196l150 289h182l-219 -289h-113z" />
<glyph unicode="&#xfe;" d="M98 -424v1894h148v-552q54 100 112.5 142t145.5 42q164 0 264 -148.5t100 -392.5q0 -267 -105 -429.5t-278 -162.5q-81 0 -138 36t-101 114v-543h-148zM240 500q0 -173 64.5 -273t174.5 -100q112 0 174 112.5t62 315.5q0 189 -60 288t-174 99q-241 0 -241 -442z" />
<glyph unicode="&#xff;" horiz-adv-x="839" d="M18 1071h166l236 -878l237 878h164l-317 -1051q-36 -116 -58 -182t-48 -124t-44 -83t-48.5 -43.5t-58.5 -22t-77 -3.5q-27 0 -59 12l-13 4v164q44 -18 90 -18t68 26.5t51 110.5l37 110zM164 1243v197h180v-197h-180zM494 1243v197h180v-197h-180z" />
<glyph unicode="&#x100;" horiz-adv-x="1120" d="M23 0l452 1470h187l436 -1470h-178l-119 428h-484l-127 -428h-167zM307 1663v117h527v-117h-527zM367 606h374l-180 651z" />
<glyph unicode="&#x101;" d="M61 283q0 139 69.5 225t197.5 106l243 37q41 6 59.5 35t18.5 88q0 88 -51.5 133t-151.5 45q-101 0 -153.5 -49t-52.5 -158h-136q0 357 353 357q157 0 246.5 -80t89.5 -219v-617q0 -63 47 -63q10 0 51 8v-131q-59 -20 -86 -20q-75 0 -109.5 37.5t-42.5 125.5 q-72 -92 -144.5 -133t-166.5 -41q-127 0 -204 86.5t-77 227.5zM193 1284v117h526v-117h-526zM215 299q0 -86 41.5 -133t116.5 -47q110 0 191 75.5t81 176.5v176q-23 -21 -67.5 -33t-174.5 -35q-101 -17 -144.5 -58.5t-43.5 -121.5z" />
<glyph unicode="&#x102;" horiz-adv-x="1120" d="M23 0l452 1470h187l436 -1470h-178l-119 428h-484l-127 -428h-167zM291 1839h82l4 -14q40 -52 84.5 -79.5t111.5 -27.5q72 0 111.5 29t63.5 92h100q-35 -119 -102 -178t-183 -59q-112 0 -176 59t-96 178zM367 606h374l-180 651z" />
<glyph unicode="&#x103;" d="M61 283q0 139 69.5 225t197.5 106l243 37q41 6 59.5 35t18.5 88q0 88 -51.5 133t-151.5 45q-101 0 -153.5 -49t-52.5 -158h-136q0 357 353 357q157 0 246.5 -80t89.5 -219v-617q0 -63 47 -63q10 0 51 8v-131q-59 -20 -86 -20q-75 0 -109.5 37.5t-42.5 125.5 q-72 -92 -144.5 -133t-166.5 -41q-127 0 -204 86.5t-77 227.5zM199 1481h82l4 -15q20 -77 62 -112t114 -35q75 0 113 35.5t61 126.5h80q-19 -145 -81.5 -212t-182.5 -67q-116 0 -176.5 67t-75.5 212zM215 299q0 -86 41.5 -133t116.5 -47q110 0 191 75.5t81 176.5v176 q-23 -21 -67.5 -33t-174.5 -35q-101 -17 -144.5 -58.5t-43.5 -121.5z" />
<glyph unicode="&#x104;" horiz-adv-x="1120" d="M23 0l452 1470h187l436 -1470q-47 -9 -85.5 -39.5t-58.5 -75.5q-24 -59 -24 -121q0 -49 24 -67.5t80 -18.5h64v-149h-64q-102 0 -177 55.5t-75 143.5q0 79 33 136.5t111 135.5q-3 0 -34 107t-61 214l-30 107h-484l-127 -428h-167zM367 606h374l-180 651z" />
<glyph unicode="&#x105;" d="M61 283q0 139 69.5 225t197.5 106l243 37q41 6 59.5 35t18.5 88q0 88 -51.5 133t-151.5 45q-101 0 -153.5 -49t-52.5 -158h-136q0 357 353 357q157 0 246.5 -80t89.5 -219v-617q0 -63 47 -63q10 0 51 8v-131q-47 -9 -85 -39.5t-58 -75.5q-25 -61 -25 -121q0 -49 24 -67.5 t80 -18.5h64v-149h-64q-102 0 -177 55.5t-75 143.5q0 79 33 136.5t111 135.5q-57 32 -66 143q-72 -92 -144.5 -133t-166.5 -41q-127 0 -204 86.5t-77 227.5zM215 299q0 -86 41.5 -133t116.5 -47q110 0 191 75.5t81 176.5v176q-23 -21 -67.5 -33t-174.5 -35 q-101 -17 -144.5 -58.5t-43.5 -121.5z" />
<glyph unicode="&#x106;" horiz-adv-x="1212" d="M74 733q0 356 152.5 566t410.5 210q200 0 332 -126.5t161 -354.5h-157q-36 158 -119 230.5t-213 72.5q-187 0 -293 -160.5t-106 -443.5q0 -280 102 -434t287 -154q137 0 224.5 95t129.5 307h158q-30 -172 -69.5 -266t-108.5 -166q-142 -148 -349 -148 q-249 0 -395.5 208.5t-146.5 563.5zM575 1595l150 248h193l-220 -248h-123z" />
<glyph unicode="&#x107;" horiz-adv-x="839" d="M51 516q0 268 112.5 427t303.5 159q294 0 334 -391h-144q-19 121 -67.5 176t-136.5 55q-115 0 -179.5 -108.5t-64.5 -303.5q0 -194 60.5 -298.5t172.5 -104.5q168 0 215 252h144q-53 -410 -357 -410q-180 0 -286.5 148t-106.5 399zM362 1196l150 289h182l-219 -289h-113z " />
<glyph unicode="&#x108;" horiz-adv-x="1212" d="M74 733q0 356 152.5 566t410.5 210q200 0 332 -126.5t161 -354.5h-157q-36 158 -119 230.5t-213 72.5q-187 0 -293 -160.5t-106 -443.5q0 -280 102 -434t287 -154q137 0 224.5 95t129.5 307h158q-30 -172 -69.5 -266t-108.5 -166q-142 -148 -349 -148 q-249 0 -395.5 208.5t-146.5 563.5zM360 1597l197 248h158l196 -248h-135l-141 150l-141 -150h-134z" />
<glyph unicode="&#x109;" horiz-adv-x="839" d="M51 516q0 268 112.5 427t303.5 159q294 0 334 -391h-144q-19 121 -67.5 176t-136.5 55q-115 0 -179.5 -108.5t-64.5 -303.5q0 -194 60.5 -298.5t172.5 -104.5q168 0 215 252h144q-53 -410 -357 -410q-180 0 -286.5 148t-106.5 399zM174 1198l166 289h158l166 -289h-136 l-110 191l-111 -191h-133z" />
<glyph unicode="&#x10a;" horiz-adv-x="1212" d="M74 733q0 356 152.5 566t410.5 210q200 0 332 -126.5t161 -354.5h-157q-36 158 -119 230.5t-213 72.5q-187 0 -293 -160.5t-106 -443.5q0 -280 102 -434t287 -154q137 0 224.5 95t129.5 307h158q-30 -172 -69.5 -266t-108.5 -166q-142 -148 -349 -148 q-249 0 -395.5 208.5t-146.5 563.5zM551 1622v197h176v-197h-176z" />
<glyph unicode="&#x10b;" horiz-adv-x="839" d="M51 516q0 268 112.5 427t303.5 159q294 0 334 -391h-144q-19 121 -67.5 176t-136.5 55q-115 0 -179.5 -108.5t-64.5 -303.5q0 -194 60.5 -298.5t172.5 -104.5q168 0 215 252h144q-53 -410 -357 -410q-180 0 -286.5 148t-106.5 399zM332 1243v197h176v-197h-176z" />
<glyph unicode="&#x10c;" horiz-adv-x="1212" d="M74 733q0 356 152.5 566t410.5 210q200 0 332 -126.5t161 -354.5h-157q-36 158 -119 230.5t-213 72.5q-187 0 -293 -160.5t-106 -443.5q0 -280 102 -434t287 -154q137 0 224.5 95t129.5 307h158q-30 -172 -69.5 -266t-108.5 -166q-142 -148 -349 -148 q-249 0 -395.5 208.5t-146.5 563.5zM362 1845h136l141 -149l141 149h133l-196 -248h-158z" />
<glyph unicode="&#x10d;" horiz-adv-x="839" d="M51 516q0 268 112.5 427t303.5 159q294 0 334 -391h-144q-19 121 -67.5 176t-136.5 55q-115 0 -179.5 -108.5t-64.5 -303.5q0 -194 60.5 -298.5t172.5 -104.5q168 0 215 252h144q-53 -410 -357 -410q-180 0 -286.5 148t-106.5 399zM174 1487h135l111 -191l110 191h134 l-166 -289h-158z" />
<glyph unicode="&#x10e;" horiz-adv-x="1212" d="M135 0v1470h490q232 0 370 -195.5t138 -522.5q0 -158 -33 -294t-96.5 -238.5t-162.5 -161t-223 -58.5h-483zM299 170h315q163 0 257 151.5t94 413.5q0 273 -93.5 419t-267.5 146h-305v-1130zM330 1845h135l141 -149l142 149h133l-197 -248h-158z" />
<glyph unicode="&#x10f;" d="M59 561q0 243 100 392t263 149q91 0 153 -45t115 -148v561h148v-1470h-140v154q-47 -100 -106 -142.5t-148 -42.5q-175 0 -280 161.5t-105 430.5zM213 551q0 -201 61.5 -312.5t171.5 -111.5q112 0 177 100t65 281q0 211 -60.5 322.5t-174.5 111.5q-240 0 -240 -391z M950 1272v198h170v-190q0 -264 -168 -264v74q92 0 92 161v21h-94z" />
<glyph unicode="&#x110;" horiz-adv-x="1212" d="M0 666v178h135v626h492q151 0 266 -87.5t177.5 -248.5t62.5 -372q0 -347 -137.5 -554.5t-377.5 -207.5h-483v666h-135zM299 170h317q161 0 255 151.5t94 413.5q0 273 -93.5 419t-267.5 146h-305v-456h324v-178h-324v-496z" />
<glyph unicode="&#x111;" horiz-adv-x="985" d="M59 561q0 243 100 392t263 149q91 0 153 -45t115 -148v303h-231v117h231v141h148v-141h147v-117h-147v-1212h-140v154q-47 -100 -106 -142.5t-148 -42.5q-175 0 -280 161.5t-105 430.5zM213 551q0 -201 61.5 -312.5t171.5 -111.5q112 0 177 100t65 281q0 211 -60.5 322.5 t-174.5 111.5q-240 0 -240 -391z" />
<glyph unicode="&#x112;" horiz-adv-x="1120" d="M145 0v1470h877v-178h-713v-448h658v-178h-658v-488h725v-178h-889zM322 1663v117h526v-117h-526z" />
<glyph unicode="&#x113;" d="M68 516q0 269 112.5 427.5t302.5 158.5q118 0 198.5 -60t129 -200.5t55.5 -364.5h-641q6 -184 69.5 -267t180.5 -83q89 0 155.5 59t76.5 150h147q-29 -173 -130 -270t-253 -97q-187 0 -295 146.5t-108 400.5zM203 1284v117h526v-117h-526zM225 621h488q-23 321 -236 321 q-106 0 -176 -88.5t-76 -232.5z" />
<glyph unicode="&#x114;" horiz-adv-x="1120" d="M145 0v1470h877v-178h-713v-448h658v-178h-658v-488h725v-178h-889zM305 1839h82l4 -14q40 -52 85 -79.5t112 -27.5q72 0 111 29t63 92h100q-35 -119 -101.5 -178t-182.5 -59q-112 0 -176.5 59.5t-96.5 177.5z" />
<glyph unicode="&#x115;" d="M68 516q0 269 112.5 427.5t302.5 158.5q118 0 198.5 -60t129 -200.5t55.5 -364.5h-641q6 -184 69.5 -267t180.5 -83q89 0 155.5 59t76.5 150h147q-29 -173 -130 -270t-253 -97q-187 0 -295 146.5t-108 400.5zM209 1481h82l4 -15q20 -77 62 -112t114 -35q75 0 113 35.5 t61 126.5h80q-19 -145 -81.5 -212t-182.5 -67q-116 0 -176.5 67t-75.5 212zM225 621h488q-23 321 -236 321q-106 0 -176 -88.5t-76 -232.5z" />
<glyph unicode="&#x116;" horiz-adv-x="1120" d="M145 0v1470h877v-178h-713v-448h658v-178h-658v-488h725v-178h-889zM498 1622v197h176v-197h-176z" />
<glyph unicode="&#x117;" d="M68 516q0 269 112.5 427.5t302.5 158.5q118 0 198.5 -60t129 -200.5t55.5 -364.5h-641q6 -184 69.5 -267t180.5 -83q89 0 155.5 59t76.5 150h147q-29 -173 -130 -270t-253 -97q-187 0 -295 146.5t-108 400.5zM225 621h488q-23 321 -236 321q-106 0 -176 -88.5t-76 -232.5 zM379 1243v197h176v-197h-176z" />
<glyph unicode="&#x118;" horiz-adv-x="1120" d="M145 0v1470h877v-178h-713v-448h658v-178h-658v-488h725v-178q-47 -9 -85 -39.5t-58 -75.5q-25 -61 -25 -121q0 -49 24.5 -67.5t80.5 -18.5h63v-149h-63q-102 0 -177 55.5t-75 143.5q0 79 33 137t110 135h-717z" />
<glyph unicode="&#x119;" d="M68 516q0 269 112.5 427.5t302.5 158.5q118 0 198.5 -60t129 -200.5t55.5 -364.5h-641q6 -184 69.5 -267t180.5 -83q89 0 155.5 59t76.5 150h147q-35 -210 -172 -305q-70 -48 -113 -118t-43 -149q0 -49 24.5 -67.5t80.5 -18.5h63v-149h-63q-102 0 -177 55.5t-75 143.5 q0 72 27 125.5t88 115.5h-23q-187 0 -295 146.5t-108 400.5zM225 621h488q-23 321 -236 321q-106 0 -176 -88.5t-76 -232.5z" />
<glyph unicode="&#x11a;" horiz-adv-x="1120" d="M145 0v1470h877v-178h-713v-448h658v-178h-658v-488h725v-178h-889zM309 1845h135l142 -149l141 149h133l-196 -248h-158z" />
<glyph unicode="&#x11b;" d="M68 516q0 269 112.5 427.5t302.5 158.5q118 0 198.5 -60t129 -200.5t55.5 -364.5h-641q6 -184 69.5 -267t180.5 -83q89 0 155.5 59t76.5 150h147q-29 -173 -130 -270t-253 -97q-187 0 -295 146.5t-108 400.5zM221 1487h135l111 -191l111 191h133l-166 -289h-158zM225 621 h488q-23 321 -236 321q-106 0 -176 -88.5t-76 -232.5z" />
<glyph unicode="&#x11c;" horiz-adv-x="1306" d="M80 717q0 234 71 414t200.5 279t297.5 99q200 0 339.5 -129t172.5 -356h-157q-73 307 -353 307q-186 0 -294.5 -164t-108.5 -444q0 -289 104 -440.5t303 -151.5q79 0 145 28t118 85t81 152t29 220h-375v170h529v-786h-107l-37 190q-85 -123 -183.5 -176t-223.5 -53 q-128 0 -234 61.5t-174.5 166t-105.5 240.5t-37 288zM373 1597l196 248h158l197 -248h-136l-141 150l-141 -150h-133z" />
<glyph unicode="&#x11d;" d="M68 561q0 243 99.5 392t262.5 149q89 0 148.5 -42t119.5 -147v158h140v-983q0 -281 -100.5 -410t-305.5 -129q-145 0 -227.5 73.5t-110.5 246.5h148q20 -91 65.5 -130.5t130.5 -39.5q134 0 193 82.5t59 294.5v43q-43 -78 -100 -114t-139 -36q-173 0 -278 162.5 t-105 429.5zM221 551q0 -201 62 -312.5t172 -111.5q114 0 177.5 100.5t63.5 278.5q0 212 -60.5 324t-174.5 112q-240 0 -240 -391zM221 1198l166 289h158l166 -289h-136l-110 191l-111 -191h-133z" />
<glyph unicode="&#x11e;" horiz-adv-x="1306" d="M80 717q0 234 71 414t200.5 279t297.5 99q200 0 339.5 -129t172.5 -356h-157q-73 307 -353 307q-186 0 -294.5 -164t-108.5 -444q0 -289 104 -440.5t303 -151.5q79 0 145 28t118 85t81 152t29 220h-375v170h529v-786h-107l-37 190q-85 -123 -183.5 -176t-223.5 -53 q-128 0 -234 61.5t-174.5 166t-105.5 240.5t-37 288zM371 1839h82l4 -14q40 -52 84.5 -79.5t111.5 -27.5q72 0 111 29t63 92h101q-35 -119 -102 -178t-183 -59q-112 0 -176 59t-96 178z" />
<glyph unicode="&#x11f;" d="M68 561q0 243 99.5 392t262.5 149q89 0 148.5 -42t119.5 -147v158h140v-983q0 -281 -100.5 -410t-305.5 -129q-145 0 -227.5 73.5t-110.5 246.5h148q20 -91 65.5 -130.5t130.5 -39.5q134 0 193 82.5t59 294.5v43q-43 -78 -100 -114t-139 -36q-173 0 -278 162.5 t-105 429.5zM209 1481h82l4 -15q20 -77 62 -112t114 -35q75 0 113 35.5t61 126.5h80q-19 -145 -81.5 -212t-182.5 -67q-116 0 -176.5 67t-75.5 212zM221 551q0 -201 62 -312.5t172 -111.5q114 0 177.5 100.5t63.5 278.5q0 212 -60.5 324t-174.5 112q-240 0 -240 -391z" />
<glyph unicode="&#x120;" horiz-adv-x="1306" d="M80 717q0 234 71 414t200.5 279t297.5 99q200 0 339.5 -129t172.5 -356h-157q-73 307 -353 307q-186 0 -294.5 -164t-108.5 -444q0 -289 104 -440.5t303 -151.5q79 0 145 28t118 85t81 152t29 220h-375v170h529v-786h-107l-37 190q-85 -123 -183.5 -176t-223.5 -53 q-128 0 -234 61.5t-174.5 166t-105.5 240.5t-37 288zM563 1622v197h176v-197h-176z" />
<glyph unicode="&#x121;" d="M68 561q0 243 99.5 392t262.5 149q89 0 148.5 -42t119.5 -147v158h140v-983q0 -281 -100.5 -410t-305.5 -129q-145 0 -227.5 73.5t-110.5 246.5h148q20 -91 65.5 -130.5t130.5 -39.5q134 0 193 82.5t59 294.5v43q-43 -78 -100 -114t-139 -36q-173 0 -278 162.5 t-105 429.5zM221 551q0 -201 62 -312.5t172 -111.5q114 0 177.5 100.5t63.5 278.5q0 212 -60.5 324t-174.5 112q-240 0 -240 -391zM379 1243v197h176v-197h-176z" />
<glyph unicode="&#x122;" horiz-adv-x="1306" d="M80 717q0 234 71 414t200.5 279t297.5 99q200 0 339.5 -129t172.5 -356h-157q-73 307 -353 307q-186 0 -294.5 -164t-108.5 -444q0 -289 104 -440.5t303 -151.5q79 0 145 28t118 85t81 152t29 220h-375v170h529v-786h-107l-37 190q-85 -123 -183.5 -176t-223.5 -53 q-128 0 -234 61.5t-174.5 166t-105.5 240.5t-37 288zM563 -123h170v-190q0 -265 -168 -265v74q92 0 92 162v20h-94v199z" />
<glyph unicode="&#x123;" d="M68 561q0 243 99.5 392t262.5 149q89 0 148.5 -42t119.5 -147v158h140v-983q0 -281 -100.5 -410t-305.5 -129q-145 0 -227.5 73.5t-110.5 246.5h148q20 -91 65.5 -130.5t130.5 -39.5q134 0 193 82.5t59 294.5v43q-43 -78 -100 -114t-139 -36q-173 0 -278 162.5 t-105 429.5zM221 551q0 -201 62 -312.5t172 -111.5q114 0 177.5 100.5t63.5 278.5q0 212 -60.5 324t-174.5 112q-240 0 -240 -391zM383 1171v191q0 264 168 264v-74q-92 0 -92 -161v-21h94v-199h-170z" />
<glyph unicode="&#x124;" horiz-adv-x="1212" d="M129 0v1470h164v-608h629v608h163v-1470h-163v684h-629v-684h-164zM332 1597l196 248h158l197 -248h-135l-142 150l-141 -150h-133z" />
<glyph unicode="&#x125;" d="M109 0v1470h147v-546q64 100 124 139t148 39q140 0 218.5 -98t78.5 -275v-729h-147v700q0 128 -40.5 185t-131.5 57q-120 0 -185 -93.5t-65 -264.5v-584h-147zM190 1597l197 248h158l196 -248h-135l-141 150l-141 -150h-134z" />
<glyph unicode="&#x126;" horiz-adv-x="1212" d="M47 1130v93h82v247h164v-247h629v247h163v-247h82v-93h-82v-1130h-163v684h-629v-684h-164v1130h-82zM293 862h629v268h-629v-268z" />
<glyph unicode="&#x127;" horiz-adv-x="1015" d="M113 1020v102l73 35v313h148v-245l211 98v-104l-211 -97v-198q64 100 124 139t148 39q140 0 218.5 -98t78.5 -275v-729h-147v700q0 128 -40.5 185t-131.5 57q-120 0 -185 -93.5t-65 -264.5v-584h-148v1055z" />
<glyph unicode="&#x128;" horiz-adv-x="466" d="M-49 1602q15 113 57.5 166t116.5 53q44 0 115 -31l36 -18q56 -27 84 -27q33 0 51 21.5t27 72.5h84q-30 -223 -170 -223q-31 0 -96 26l-43 19q-69 31 -104 31q-29 0 -47 -20.5t-31 -69.5h-80zM154 0v1470h161v-1470h-161z" />
<glyph unicode="&#x129;" horiz-adv-x="466" d="M-53 1223q15 113 57.5 166t116.5 53q44 0 115 -31l36 -18q56 -27 84 -27q33 0 51 21.5t27 72.5h84q-30 -223 -170 -223q-28 0 -96 27l-43 18q-69 31 -105 31q-29 0 -46 -20t-31 -70h-80zM160 0v1071h147v-1071h-147z" />
<glyph unicode="&#x12a;" horiz-adv-x="466" d="M-27 1663v117h527v-117h-527zM154 0v1470h161v-1470h-161z" />
<glyph unicode="&#x12b;" horiz-adv-x="466" d="M-31 1284v117h527v-117h-527zM160 0v1071h147v-1071h-147z" />
<glyph unicode="&#x12c;" horiz-adv-x="466" d="M-43 1839h82l4 -14q40 -52 85 -79.5t112 -27.5q72 0 111 29t63 92h100q-35 -119 -102 -178t-183 -59q-112 0 -176 59t-96 178zM154 0v1470h161v-1470h-161z" />
<glyph unicode="&#x12d;" horiz-adv-x="466" d="M-25 1481h82l4 -15q20 -77 62.5 -112t114.5 -35q75 0 113 35.5t61 126.5h80q-19 -145 -82 -212t-183 -67q-116 0 -176.5 67t-75.5 212zM160 0v1071h147v-1071h-147z" />
<glyph unicode="&#x12e;" horiz-adv-x="466" d="M41 -272q0 79 33 137t110 135h-30v1470h161v-1470q-65 -39 -102 -115q-25 -61 -25 -121q0 -49 24.5 -67.5t80.5 -18.5h63v-149h-63q-102 0 -177 55.5t-75 143.5z" />
<glyph unicode="&#x12f;" horiz-adv-x="466" d="M53 -272q0 79 33 136.5t111 135.5h-37v1071h147v-1071q-51 -48 -82 -115q-24 -59 -24 -121q0 -49 24 -67.5t80 -18.5h64v-149h-64q-102 0 -177 55.5t-75 143.5zM145 1243v197h177v-197h-177z" />
<glyph unicode="&#x130;" horiz-adv-x="466" d="M150 1622v197h176v-197h-176zM154 0v1470h161v-1470h-161z" />
<glyph unicode="&#x131;" horiz-adv-x="372" d="M113 0v1071h147v-1071h-147z" />
<glyph unicode="&#x134;" horiz-adv-x="839" d="M29 328v145h153v-102q0 -123 45 -181.5t140 -58.5q188 0 188 254v1085h164v-1073q0 -209 -91.5 -322.5t-258.5 -113.5q-155 0 -247.5 100t-92.5 267zM360 1597l197 248h158l196 -248h-135l-141 150l-141 -150h-134z" />
<glyph unicode="&#x135;" horiz-adv-x="372" d="M-59 1198l165 289h158l166 -289h-135l-111 191l-110 -191h-133zM-27 -268h31q69 0 89 23.5t20 107.5v1208h147v-1229q0 -140 -53.5 -206t-165.5 -66q-31 0 -68 6v156z" />
<glyph unicode="&#x136;" horiz-adv-x="1120" d="M127 0v1470h164v-712l586 712h225l-504 -593l516 -877h-211l-422 737l-190 -221v-516h-164zM455 -123h170v-190q0 -265 -168 -265v74q92 0 92 162v20h-94v199z" />
<glyph unicode="&#x137;" horiz-adv-x="839" d="M109 0v1470h147v-852l379 453h186l-336 -399l357 -672h-191l-272 541l-123 -135v-406h-147zM334 -123h170v-190q0 -265 -168 -265v74q92 0 92 162v20h-94v199z" />
<glyph unicode="&#x139;" d="M127 0v1470h164v-1292h610v-178h-774zM129 1595l150 248h192l-219 -248h-123z" />
<glyph unicode="&#x13a;" horiz-adv-x="372" d="M113 0v1470h147v-1470h-147zM115 1595l149 248h193l-219 -248h-123z" />
<glyph unicode="&#x13b;" d="M127 0v1470h164v-1292h610v-178h-774zM428 -123h170v-190q0 -265 -168 -265v74q92 0 92 162v20h-94v199z" />
<glyph unicode="&#x13c;" horiz-adv-x="372" d="M100 -123h170v-190q0 -265 -168 -265v74q93 0 93 162v20h-95v199zM113 0v1470h147v-1470h-147z" />
<glyph unicode="&#x13d;" d="M127 0v1470h164v-1292h610v-178h-774zM403 1272v198h170v-190q0 -264 -167 -264v74q92 0 92 161v21h-95z" />
<glyph unicode="&#x13e;" horiz-adv-x="372" d="M113 0v1470h147v-1470h-147zM373 1272v198h170v-190q0 -264 -168 -264v74q92 0 92 161v21h-94z" />
<glyph unicode="&#x13f;" d="M127 0v1470h164v-1292h610v-178h-774zM588 676v196h176v-196h-176z" />
<glyph unicode="&#x140;" horiz-adv-x="548" d="M113 0v1470h147v-1470h-147zM373 676v196h176v-196h-176z" />
<glyph unicode="&#x141;" horiz-adv-x="1130" d="M145 375v182l117 133v780h164v-614l307 352v-180l-307 -352v-498h610v-178h-774v508z" />
<glyph unicode="&#x142;" horiz-adv-x="643" d="M109 662v161l139 131v516h147v-399l140 131v-164l-140 -129v-909h-147v793z" />
<glyph unicode="&#x143;" horiz-adv-x="1212" d="M127 0v1470h192l609 -1194v1194h157v-1470h-182l-618 1194v-1194h-158zM545 1595l149 248h193l-219 -248h-123z" />
<glyph unicode="&#x144;" d="M109 0v1071h139v-158q57 100 123 144.5t157 44.5q140 0 218.5 -98t78.5 -275v-729h-147v659q0 148 -43 215.5t-137 67.5q-113 0 -177.5 -95.5t-64.5 -262.5v-584h-147zM410 1196l149 289h182l-219 -289h-112z" />
<glyph unicode="&#x145;" horiz-adv-x="1212" d="M127 0v1470h192l609 -1194v1194h157v-1470h-182l-618 1194v-1194h-158zM520 -123h170v-190q0 -265 -168 -265v74q92 0 92 162v20h-94v199z" />
<glyph unicode="&#x146;" d="M109 0v1071h139v-158q57 100 123 144.5t157 44.5q140 0 218.5 -98t78.5 -275v-729h-147v659q0 148 -43 215.5t-137 67.5q-113 0 -177.5 -95.5t-64.5 -262.5v-584h-147zM381 -123h170v-190q0 -265 -168 -265v74q92 0 92 162v20h-94v199z" />
<glyph unicode="&#x147;" horiz-adv-x="1212" d="M127 0v1470h192l609 -1194v1194h157v-1470h-182l-618 1194v-1194h-158zM332 1845h135l141 -149l142 149h133l-197 -248h-158z" />
<glyph unicode="&#x148;" d="M109 0v1071h139v-158q57 100 123 144.5t157 44.5q140 0 218.5 -98t78.5 -275v-729h-147v659q0 148 -43 215.5t-137 67.5q-113 0 -177.5 -95.5t-64.5 -262.5v-584h-147zM221 1487h135l111 -191l111 191h133l-166 -289h-158z" />
<glyph unicode="&#x14a;" horiz-adv-x="1212" d="M127 0v1470h192l609 -1194v1194h157v-1546q0 -209 -91.5 -322.5t-258.5 -113.5q-155 0 -247.5 100t-92.5 267l154 43q0 -123 44.5 -181.5t139.5 -58.5q63 0 108.5 44t66 109.5t20.5 141.5l-643 1241v-1194h-158z" />
<glyph unicode="&#x14b;" d="M109 0v1071h139v-158q57 100 123 144.5t157 44.5q140 0 218.5 -98t78.5 -275v-887q0 -140 -53.5 -206t-165.5 -66q-30 0 -67 6v156h30q69 0 89 23.5t20 107.5v796q0 148 -43 215.5t-137 67.5q-113 0 -177.5 -95.5t-64.5 -262.5v-584h-147z" />
<glyph unicode="&#x14c;" horiz-adv-x="1306" d="M66 733q0 219 67 392.5t204 278.5t325 105q167 0 299 -97t206 -274.5t74 -404.5q0 -158 -38.5 -296.5t-111 -245t-185.5 -168.5t-253 -62t-253 62t-185 168.5t-110.5 245t-38.5 296.5zM233 733q0 -267 115.5 -430.5t304.5 -163.5t304.5 164t115.5 432q0 266 -115 431 t-299 165q-195 0 -310.5 -162t-115.5 -436zM399 1663v117h527v-117h-527z" />
<glyph unicode="&#x14d;" d="M59 537q0 254 114 409.5t300 155.5q177 0 289 -158.5t112 -406.5q0 -251 -113 -408.5t-294 -157.5q-180 0 -294 158t-114 408zM203 1284v117h526v-117h-526zM213 537q0 -186 69 -297t185 -111t185 111t69 297q0 184 -68.5 295.5t-181.5 111.5q-120 0 -189 -109.5 t-69 -297.5z" />
<glyph unicode="&#x14e;" horiz-adv-x="1306" d="M66 733q0 219 67 392.5t204 278.5t325 105q167 0 299 -97t206 -274.5t74 -404.5q0 -158 -38.5 -296.5t-111 -245t-185.5 -168.5t-253 -62t-253 62t-185 168.5t-110.5 245t-38.5 296.5zM233 733q0 -267 115.5 -430.5t304.5 -163.5t304.5 164t115.5 432q0 266 -115 431 t-299 165q-195 0 -310.5 -162t-115.5 -436zM383 1839h82l4 -14q40 -52 85 -79.5t112 -27.5q72 0 111 29t63 92h100q-35 -119 -102 -178t-183 -59q-112 0 -176 59t-96 178z" />
<glyph unicode="&#x14f;" d="M59 537q0 254 114 409.5t300 155.5q177 0 289 -158.5t112 -406.5q0 -251 -113 -408.5t-294 -157.5q-180 0 -294 158t-114 408zM209 1481h82l4 -15q20 -77 62 -112t114 -35q75 0 113 35.5t61 126.5h80q-19 -145 -81.5 -212t-182.5 -67q-116 0 -176.5 67t-75.5 212z M213 537q0 -186 69 -297t185 -111t185 111t69 297q0 184 -68.5 295.5t-181.5 111.5q-120 0 -189 -109.5t-69 -297.5z" />
<glyph unicode="&#x150;" horiz-adv-x="1306" d="M66 733q0 219 67 392.5t204 278.5t325 105q167 0 299 -97t206 -274.5t74 -404.5q0 -158 -38.5 -296.5t-111 -245t-185.5 -168.5t-253 -62t-253 62t-185 168.5t-110.5 245t-38.5 296.5zM233 733q0 -267 115.5 -430.5t304.5 -163.5t304.5 164t115.5 432q0 266 -115 431 t-299 165q-195 0 -310.5 -162t-115.5 -436zM453 1597l149 289h182l-219 -289h-112zM756 1597l149 289h182l-219 -289h-112z" />
<glyph unicode="&#x151;" d="M59 537q0 254 114 409.5t300 155.5q177 0 289 -158.5t112 -406.5q0 -251 -113 -408.5t-294 -157.5q-180 0 -294 158t-114 408zM213 537q0 -186 69 -297t185 -111t185 111t69 297q0 184 -68.5 295.5t-181.5 111.5q-120 0 -189 -109.5t-69 -297.5zM258 1198l150 289h182 l-219 -289h-113zM561 1198l150 289h182l-219 -289h-113z" />
<glyph unicode="&#x152;" horiz-adv-x="1679" d="M61 719q0 234 62.5 413t178.5 278t269 99q110 0 179.5 -43.5t130.5 -152.5v157h735v-178h-584v-448h557v-178h-557v-488h588v-178h-741v160q-75 -114 -143 -156.5t-177 -42.5q-227 0 -362.5 206t-135.5 552zM229 702q0 -278 90.5 -424.5t260.5 -146.5q130 0 209 93 t79 247v537q0 149 -79.5 240t-210.5 91q-169 0 -259 -164t-90 -473z" />
<glyph unicode="&#x153;" horiz-adv-x="1585" d="M59 537q0 251 113.5 408t294.5 157q109 0 189 -52.5t141 -164.5q69 119 144 168t189 49q88 0 155 -33t118 -105.5t79.5 -194t33.5 -292.5h-644q6 -181 69 -265.5t183 -84.5q89 0 154.5 59t77.5 150h147q-29 -174 -130.5 -270.5t-254.5 -96.5q-112 0 -188.5 47t-147.5 160 q-50 -106 -124.5 -155.5t-184.5 -49.5q-186 0 -300 156t-114 410zM213 537q0 -186 69 -297t185 -111q117 0 186.5 111t69.5 297q0 184 -69 295.5t-183 111.5q-119 0 -188.5 -110t-69.5 -297zM872 621h490q-23 321 -236 321q-108 0 -178 -88.5t-76 -232.5z" />
<glyph unicode="&#x154;" horiz-adv-x="1212" d="M147 0v1470h560q192 0 293.5 -102t101.5 -295q0 -125 -37 -202.5t-131 -147.5q78 -37 107.5 -94t37.5 -183l8 -266q1 -67 13 -93.5t49 -53.5v-33h-201q-26 110 -26 369q0 139 -51.5 200.5t-163.5 61.5h-396v-631h-164zM311 801h377q126 0 186 62.5t60 193.5 q0 243 -217 243h-406v-499zM516 1595l150 248h192l-219 -248h-123z" />
<glyph unicode="&#x155;" horiz-adv-x="559" d="M129 0v1071h139v-182q58 115 115.5 164t134.5 49q18 0 39 -6v-185h-55q-98 0 -162 -81t-64 -205v-625h-147zM219 1196l150 289h182l-219 -289h-113z" />
<glyph unicode="&#x156;" horiz-adv-x="1212" d="M147 0v1470h560q192 0 293.5 -102t101.5 -295q0 -125 -37 -202.5t-131 -147.5q78 -37 107.5 -94t37.5 -183l8 -266q1 -67 13 -93.5t49 -53.5v-33h-201q-26 110 -26 369q0 139 -51.5 200.5t-163.5 61.5h-396v-631h-164zM311 801h377q126 0 186 62.5t60 193.5 q0 243 -217 243h-406v-499zM492 -123h170v-190q0 -265 -168 -265v74q92 0 92 162v20h-94v199z" />
<glyph unicode="&#x157;" horiz-adv-x="559" d="M117 -123h170v-190q0 -265 -168 -265v74q92 0 92 162v20h-94v199zM129 0v1071h139v-182q58 115 115.5 164t134.5 49q18 0 39 -6v-185h-55q-98 0 -162 -81t-64 -205v-625h-147z" />
<glyph unicode="&#x158;" horiz-adv-x="1212" d="M147 0v1470h560q192 0 293.5 -102t101.5 -295q0 -125 -37 -202.5t-131 -147.5q78 -37 107.5 -94t37.5 -183l8 -266q1 -67 13 -93.5t49 -53.5v-33h-201q-26 110 -26 369q0 139 -51.5 200.5t-163.5 61.5h-396v-631h-164zM303 1845h135l142 -149l141 149h133l-197 -248h-157 zM311 801h377q126 0 186 62.5t60 193.5q0 243 -217 243h-406v-499z" />
<glyph unicode="&#x159;" horiz-adv-x="559" d="M31 1487h135l110 -191l111 191h133l-166 -289h-157zM129 0v1071h139v-182q58 115 115.5 164t134.5 49q18 0 39 -6v-185h-55q-98 0 -162 -81t-64 -205v-625h-147z" />
<glyph unicode="&#x15a;" horiz-adv-x="1120" d="M82 475h154q0 -170 88 -257t249 -87q147 0 228.5 66.5t81.5 187.5q0 105 -54 159t-202 95l-248 70q-256 71 -256 352q0 200 113 324t317 124q218 0 336.5 -116t118.5 -353h-154q0 146 -81.5 222.5t-219.5 76.5q-129 0 -200.5 -67t-71.5 -187q0 -78 34.5 -124t106.5 -66 l344 -96q135 -38 204.5 -138.5t69.5 -257.5q0 -206 -127 -324t-348 -118q-222 0 -352.5 127t-130.5 387zM498 1595l149 248h193l-219 -248h-123z" />
<glyph unicode="&#x15b;" horiz-adv-x="839" d="M53 344h144q8 -114 61.5 -165.5t165.5 -51.5q97 0 152 45t55 123q0 60 -36 91.5t-138 62.5l-172 51q-203 61 -203 264q0 154 92 246t244 92q151 0 237 -87.5t95 -248.5h-144q-5 91 -53 134.5t-145 43.5q-85 0 -134 -40.5t-49 -110.5q0 -57 31 -85t127 -57l149 -45 q133 -40 189.5 -105.5t56.5 -178.5q0 -161 -98.5 -257t-265.5 -96q-172 0 -261.5 90.5t-99.5 284.5zM358 1196l150 289h182l-219 -289h-113z" />
<glyph unicode="&#x15c;" horiz-adv-x="1120" d="M82 475h154q0 -170 88 -257t249 -87q147 0 228.5 66.5t81.5 187.5q0 105 -54 159t-202 95l-248 70q-256 71 -256 352q0 200 113 324t317 124q218 0 336.5 -116t118.5 -353h-154q0 146 -81.5 222.5t-219.5 76.5q-129 0 -200.5 -67t-71.5 -187q0 -78 34.5 -124t106.5 -66 l344 -96q135 -38 204.5 -138.5t69.5 -257.5q0 -206 -127 -324t-348 -118q-222 0 -352.5 127t-130.5 387zM283 1597l196 248h158l197 -248h-136l-141 150l-141 -150h-133z" />
<glyph unicode="&#x15d;" horiz-adv-x="839" d="M53 344h144q8 -114 61.5 -165.5t165.5 -51.5q97 0 152 45t55 123q0 60 -36 91.5t-138 62.5l-172 51q-203 61 -203 264q0 154 92 246t244 92q151 0 237 -87.5t95 -248.5h-144q-5 91 -53 134.5t-145 43.5q-85 0 -134 -40.5t-49 -110.5q0 -57 31 -85t127 -57l149 -45 q133 -40 189.5 -105.5t56.5 -178.5q0 -161 -98.5 -257t-265.5 -96q-172 0 -261.5 90.5t-99.5 284.5zM170 1198l166 289h158l165 -289h-135l-110 191l-111 -191h-133z" />
<glyph unicode="&#x15e;" horiz-adv-x="1120" d="M82 475h154q0 -170 88 -257t249 -87q147 0 228.5 66.5t81.5 187.5q0 105 -54 159t-202 95l-248 70q-256 71 -256 352q0 200 113 324t317 124q218 0 336.5 -116t118.5 -353h-154q0 146 -81.5 222.5t-219.5 76.5q-129 0 -200.5 -67t-71.5 -187q0 -78 34.5 -124t106.5 -66 l344 -96q135 -38 204.5 -138.5t69.5 -257.5q0 -192 -111 -308.5t-308 -131.5l-43 -82h24q62 0 100.5 -47t38.5 -117q0 -83 -54 -135.5t-142 -52.5q-72 0 -162 45l29 82q58 -31 106 -31q45 0 70.5 23t25.5 63q0 36 -24 64t-58 28q-21 0 -63 -18l-29 39l82 139 q-204 11 -322 137.5t-118 374.5z" />
<glyph unicode="&#x15f;" horiz-adv-x="839" d="M53 344h144q8 -114 61.5 -165.5t165.5 -51.5q97 0 152 45t55 123q0 60 -36 91.5t-138 62.5l-172 51q-203 61 -203 264q0 154 92 246t244 92q151 0 237 -87.5t95 -248.5h-144q-5 91 -53 134.5t-145 43.5q-85 0 -134 -40.5t-49 -110.5q0 -57 31 -85t127 -57l149 -45 q133 -40 189.5 -105.5t56.5 -178.5q0 -144 -79 -236.5t-216 -112.5l-49 -92h25q62 0 100.5 -47t38.5 -117q0 -83 -54.5 -135.5t-142.5 -52.5q-71 0 -161 45l28 82q58 -31 107 -31q45 0 70.5 23t25.5 63q0 36 -24 64t-58 28q-21 0 -63 -18l-29 39l86 145q-157 8 -238.5 98.5 t-91.5 276.5z" />
<glyph unicode="&#x160;" horiz-adv-x="1120" d="M82 475h154q0 -170 88 -257t249 -87q147 0 228.5 66.5t81.5 187.5q0 105 -54 159t-202 95l-248 70q-256 71 -256 352q0 200 113 324t317 124q218 0 336.5 -116t118.5 -353h-154q0 146 -81.5 222.5t-219.5 76.5q-129 0 -200.5 -67t-71.5 -187q0 -78 34.5 -124t106.5 -66 l344 -96q135 -38 204.5 -138.5t69.5 -257.5q0 -206 -127 -324t-348 -118q-222 0 -352.5 127t-130.5 387zM285 1845h135l141 -149l141 149h134l-197 -248h-158z" />
<glyph unicode="&#x161;" horiz-adv-x="839" d="M53 344h144q8 -114 61.5 -165.5t165.5 -51.5q97 0 152 45t55 123q0 60 -36 91.5t-138 62.5l-172 51q-203 61 -203 264q0 154 92 246t244 92q151 0 237 -87.5t95 -248.5h-144q-5 91 -53 134.5t-145 43.5q-85 0 -134 -40.5t-49 -110.5q0 -57 31 -85t127 -57l149 -45 q133 -40 189.5 -105.5t56.5 -178.5q0 -161 -98.5 -257t-265.5 -96q-172 0 -261.5 90.5t-99.5 284.5zM170 1487h135l111 -191l110 191h133l-165 -289h-158z" />
<glyph unicode="&#x162;" horiz-adv-x="1026" d="M23 1292v178h981v-178h-408v-1292h-37l-63 -119h24q62 0 100.5 -47t38.5 -117q0 -83 -54 -135.5t-142 -52.5q-72 0 -162 45l29 82q58 -31 106 -31q45 0 70.5 23t25.5 63q0 36 -23.5 64t-57.5 28q-22 0 -64 -18l-29 39l105 176h-31v1292h-409z" />
<glyph unicode="&#x163;" horiz-adv-x="466" d="M23 922v149h118v299h148v-299h143v-149h-143v-697q0 -45 20.5 -64.5t69.5 -19.5h51v-141q-57 -6 -104 -14l-56 -105h25q62 0 100.5 -47t38.5 -117q0 -83 -54 -135.5t-142 -52.5q-72 0 -162 45l28 82q58 -31 107 -31q45 0 70.5 23t25.5 63q0 36 -24 64t-58 28 q-21 0 -63 -18l-29 39l105 176q-97 43 -97 215v707h-118z" />
<glyph unicode="&#x164;" horiz-adv-x="1026" d="M23 1292v178h981v-178h-408v-1292h-164v1292h-409zM240 1845h135l141 -149l141 149h134l-197 -248h-158z" />
<glyph unicode="&#x165;" horiz-adv-x="466" d="M23 922v149h118v299h148v-299h143v-149h-143v-697q0 -45 20.5 -64.5t69.5 -19.5h51v-141q-33 -4 -58 -7t-33 -4.5t-14 -2t-12 -0.5q-88 0 -130 56t-42 173v707h-118zM346 1384v199h170v-190q0 -265 -168 -265v74q92 0 92 162v20h-94z" />
<glyph unicode="&#x168;" horiz-adv-x="1212" d="M133 489v981h164v-925q0 -195 79.5 -300.5t227.5 -105.5q149 0 231.5 105t82.5 297v929h163v-954q0 -254 -131 -404.5t-352 -150.5q-214 0 -339.5 142.5t-125.5 385.5zM324 1602q15 113 57.5 166t116.5 53q43 0 114 -31l37 -18q56 -27 84 -27q33 0 51 21.5t27 72.5h84 q-30 -223 -170 -223q-31 0 -96 26l-43 19q-69 31 -105 31q-29 0 -47 -20.5t-31 -69.5h-79z" />
<glyph unicode="&#x169;" d="M115 301v770h147v-711q0 -233 170 -233q110 0 176 96t66 258v590h147v-1071h-139v166q-59 -110 -120 -153.5t-159 -43.5q-135 0 -211.5 88t-76.5 244zM180 1223q15 113 57.5 166t116.5 53q44 0 115 -31l37 -18q56 -27 84 -27q33 0 51 21.5t27 72.5h84q-30 -223 -170 -223 q-30 0 -97 27l-43 18q-69 31 -104 31q-29 0 -47 -20.5t-31 -69.5h-80z" />
<glyph unicode="&#x16a;" horiz-adv-x="1212" d="M133 489v981h164v-925q0 -195 79.5 -300.5t227.5 -105.5q149 0 231.5 105t82.5 297v929h163v-954q0 -254 -131 -404.5t-352 -150.5q-214 0 -339.5 142.5t-125.5 385.5zM346 1663v117h526v-117h-526z" />
<glyph unicode="&#x16b;" d="M115 301v770h147v-711q0 -233 170 -233q110 0 176 96t66 258v590h147v-1071h-139v166q-59 -110 -120 -153.5t-159 -43.5q-135 0 -211.5 88t-76.5 244zM203 1284v117h526v-117h-526z" />
<glyph unicode="&#x16c;" horiz-adv-x="1212" d="M133 489v981h164v-925q0 -195 79.5 -300.5t227.5 -105.5q149 0 231.5 105t82.5 297v929h163v-954q0 -254 -131 -404.5t-352 -150.5q-214 0 -339.5 142.5t-125.5 385.5zM330 1839h82l4 -14q40 -52 84.5 -79.5t111.5 -27.5q72 0 111 29t63 92h101q-35 -119 -102 -178 t-183 -59q-112 0 -176 59t-96 178z" />
<glyph unicode="&#x16d;" d="M115 301v770h147v-711q0 -233 170 -233q110 0 176 96t66 258v590h147v-1071h-139v166q-59 -110 -120 -153.5t-159 -43.5q-135 0 -211.5 88t-76.5 244zM209 1481h82l4 -15q20 -77 62 -112t114 -35q75 0 113 35.5t61 126.5h80q-19 -145 -81.5 -212t-182.5 -67 q-116 0 -176.5 67t-75.5 212z" />
<glyph unicode="&#x16e;" horiz-adv-x="1212" d="M133 489v981h164v-925q0 -195 79.5 -300.5t227.5 -105.5q149 0 231.5 105t82.5 297v929h163v-954q0 -254 -131 -404.5t-352 -150.5q-214 0 -339.5 142.5t-125.5 385.5zM401 1761q0 72 60 120t149 48t148 -48.5t59 -123.5q0 -72 -59 -120t-148 -48q-91 0 -150 48.5 t-59 123.5zM492 1761q0 -41 34 -69.5t84 -28.5q47 0 82 28t35 66q0 41 -34.5 69.5t-82.5 28.5q-47 0 -82.5 -28t-35.5 -66z" />
<glyph unicode="&#x16f;" d="M115 301v770h147v-711q0 -233 170 -233q110 0 176 96t66 258v590h147v-1071h-139v166q-59 -110 -120 -153.5t-159 -43.5q-135 0 -211.5 88t-76.5 244zM258 1343q0 72 60 120t149 48t148 -48.5t59 -123.5q0 -72 -59 -120t-148 -48q-91 0 -150 48.5t-59 123.5zM348 1343 q0 -41 34.5 -69.5t84.5 -28.5q47 0 82 28t35 66q0 41 -34.5 70t-82.5 29q-47 0 -83 -28.5t-36 -66.5z" />
<glyph unicode="&#x170;" horiz-adv-x="1212" d="M133 489v981h164v-925q0 -195 79.5 -300.5t227.5 -105.5q149 0 231.5 105t82.5 297v929h163v-954q0 -254 -131 -404.5t-352 -150.5q-214 0 -339.5 142.5t-125.5 385.5zM399 1597l150 289h182l-219 -289h-113zM702 1597l150 289h182l-219 -289h-113z" />
<glyph unicode="&#x171;" d="M115 301v770h147v-711q0 -233 170 -233q110 0 176 96t66 258v590h147v-1071h-139v166q-59 -110 -120 -153.5t-159 -43.5q-135 0 -211.5 88t-76.5 244zM258 1198l150 289h182l-219 -289h-113zM561 1198l150 289h182l-219 -289h-113z" />
<glyph unicode="&#x172;" horiz-adv-x="1212" d="M133 489v981h164v-925q0 -195 79.5 -300.5t227.5 -105.5q149 0 231.5 105t82.5 297v929h163v-954q0 -197 -80.5 -334t-224.5 -190q-67 -26 -105 -89t-38 -139q0 -49 24 -67.5t80 -18.5h64v-149h-64q-102 0 -177 55.5t-75 143.5q0 68 25.5 120t81.5 113q-211 3 -335 145 t-124 383z" />
<glyph unicode="&#x173;" d="M115 301v770h147v-711q0 -233 170 -233q110 0 176 96t66 258v590h147v-1071q-83 -30 -123 -115q-24 -59 -24 -121q0 -49 24 -67.5t80 -18.5h64v-149h-64q-102 0 -177 55.5t-75 143.5q0 84 42 156.5t114 115.5v166q-59 -110 -120 -153.5t-159 -43.5q-135 0 -211.5 88 t-76.5 244z" />
<glyph unicode="&#x174;" horiz-adv-x="1585" d="M27 1470h176l227 -1204l272 1204h179l272 -1204l225 1204h181l-318 -1470h-172l-276 1227l-281 -1227h-172zM516 1597l197 248h157l197 -248h-135l-141 150l-142 -150h-133z" />
<glyph unicode="&#x175;" horiz-adv-x="1212" d="M23 1071h161l170 -850l170 850h166l172 -850l180 850h148l-256 -1071h-152l-180 838l-174 -838h-152zM360 1198l166 289h158l166 -289h-135l-111 191l-110 -191h-134z" />
<glyph unicode="&#x176;" horiz-adv-x="1120" d="M23 1470h190l346 -706l346 706h191l-455 -878v-592h-164v592zM283 1597l196 248h158l197 -248h-136l-141 150l-141 -150h-133z" />
<glyph unicode="&#x177;" horiz-adv-x="839" d="M18 1071h166l236 -878l237 878h164l-317 -1051q-36 -116 -58 -182t-48 -124t-44 -83t-48.5 -43.5t-58.5 -22t-77 -3.5q-27 0 -59 12l-13 4v164q44 -18 90 -18t68 26.5t51 110.5l37 110zM174 1198l166 289h158l166 -289h-136l-110 191l-111 -191h-133z" />
<glyph unicode="&#x178;" horiz-adv-x="1120" d="M23 1470h190l346 -706l346 706h191l-455 -878v-592h-164v592zM305 1622v197h180v-197h-180zM635 1622v197h180v-197h-180z" />
<glyph unicode="&#x179;" horiz-adv-x="1026" d="M39 0v168l739 1124h-684v178h893v-174l-741 -1118h741v-178h-948zM479 1595l150 248h192l-219 -248h-123z" />
<glyph unicode="&#x17a;" horiz-adv-x="839" d="M51 0v141l531 781h-490v149h682v-147l-526 -774h540v-150h-737zM362 1196l150 289h182l-219 -289h-113z" />
<glyph unicode="&#x17b;" horiz-adv-x="1026" d="M39 0v168l739 1124h-684v178h893v-174l-741 -1118h741v-178h-948zM455 1622v197h176v-197h-176z" />
<glyph unicode="&#x17c;" horiz-adv-x="839" d="M51 0v141l531 781h-490v149h682v-147l-526 -774h540v-150h-737zM332 1243v197h176v-197h-176z" />
<glyph unicode="&#x17d;" horiz-adv-x="1026" d="M39 0v168l739 1124h-684v178h893v-174l-741 -1118h741v-178h-948zM266 1845h135l142 -149l141 149h133l-196 -248h-158z" />
<glyph unicode="&#x17e;" horiz-adv-x="839" d="M51 0v141l531 781h-490v149h682v-147l-526 -774h540v-150h-737zM174 1487h135l111 -191l110 191h134l-166 -289h-158z" />
<glyph unicode="&#x17f;" horiz-adv-x="466" d="M145 0v1255q0 115 57.5 175.5t166.5 60.5q26 0 71 -4v-162q-50 4 -61 4q-45 0 -65.5 -29.5t-20.5 -95.5v-1204h-148z" />
<glyph unicode="&#x18e;" horiz-adv-x="1120" d="M145 0v178h725v488h-657v178h657v448h-712v178h876v-1470h-889z" />
<glyph unicode="&#x192;" d="M-18 -399l26 166q44 -31 86 -31q68 0 106 76.5t68 281.5l107 707h-182v143h206l47 254q26 139 101 225t170 86q61 0 125 -30l-25 -160l-14 6q-53 27 -82 27q-50 0 -85 -51.5t-50 -145.5l-35 -211h192v-143h-213l-100 -670q-43 -287 -127 -421t-221 -134q-54 0 -100 25z " />
<glyph unicode="&#x1a0;" horiz-adv-x="1306" d="M66 733q0 219 67 392.5t204 278.5t325 105q248 0 407 -204q40 18 63 64.5t23 103.5h-88v196h176v-196q0 -77 -33 -142.5t-90 -97.5q121 -209 121 -500q0 -158 -38.5 -296.5t-111 -245t-185.5 -168.5t-253 -62t-253 62t-185 168.5t-110.5 245t-38.5 296.5zM233 733 q0 -267 115.5 -430.5t304.5 -163.5t304.5 164t115.5 432q0 266 -115 431t-299 165q-195 0 -310.5 -162t-115.5 -436z" />
<glyph unicode="&#x1a1;" horiz-adv-x="952" d="M59 537q0 254 114 409.5t300 155.5q91 0 167.5 -45.5t131.5 -128.5q53 50 53 145h-88v197h176v-197q0 -68 -26 -128t-72 -95q59 -133 59 -313q0 -251 -113 -408.5t-294 -157.5q-180 0 -294 158t-114 408zM213 537q0 -186 69 -297t185 -111t185 111t69 297 q0 184 -68.5 295.5t-181.5 111.5q-120 0 -189 -109.5t-69 -297.5z" />
<glyph unicode="&#x1af;" horiz-adv-x="1335" d="M133 489v981h164v-925q0 -195 79.5 -300.5t227.5 -105.5q149 0 231.5 105t82.5 297v929h163v-174q57 0 92 53t35 124h-88v196h176v-196q0 -107 -60.5 -186t-154.5 -79v-692q0 -254 -131 -404.5t-352 -150.5q-214 0 -339.5 142.5t-125.5 385.5z" />
<glyph unicode="&#x1b0;" horiz-adv-x="1075" d="M115 301v770h147v-711q0 -233 170 -233q110 0 176 96t66 258v590h147v-174q57 0 92 52.5t35 123.5h-88v197h176v-197q0 -107 -60.5 -185.5t-154.5 -78.5v-809h-139v166q-59 -110 -120 -153.5t-159 -43.5q-135 0 -211.5 88t-76.5 244z" />
<glyph unicode="&#x1dd;" d="M68 594h641q-6 184 -69.5 267t-180.5 83q-89 0 -155.5 -59t-76.5 -150h-147q29 173 130 270t253 97q187 0 295 -146.5t108 -400.5q0 -269 -112.5 -427.5t-302.5 -158.5q-118 0 -198.5 60t-129 200.5t-55.5 364.5zM221 451q23 -322 236 -322q106 0 176 89t76 233h-488z " />
<glyph unicode="&#x1e6;" horiz-adv-x="1306" d="M80 717q0 234 71 414t200.5 279t297.5 99q200 0 339.5 -129t172.5 -356h-157q-73 307 -353 307q-186 0 -294.5 -164t-108.5 -444q0 -289 104 -440.5t303 -151.5q79 0 145 28t118 85t81 152t29 220h-375v170h529v-786h-107l-37 190q-85 -123 -183.5 -176t-223.5 -53 q-128 0 -234 61.5t-174.5 166t-105.5 240.5t-37 288zM375 1845h135l141 -149l142 149h133l-197 -248h-158z" />
<glyph unicode="&#x1e7;" d="M68 561q0 243 99.5 392t262.5 149q89 0 148.5 -42t119.5 -147v158h140v-983q0 -281 -100.5 -410t-305.5 -129q-145 0 -227.5 73.5t-110.5 246.5h148q20 -91 65.5 -130.5t130.5 -39.5q134 0 193 82.5t59 294.5v43q-43 -78 -100 -114t-139 -36q-173 0 -278 162.5 t-105 429.5zM221 551q0 -201 62 -312.5t172 -111.5q114 0 177.5 100.5t63.5 278.5q0 212 -60.5 324t-174.5 112q-240 0 -240 -391zM221 1487h135l111 -191l111 191h133l-166 -289h-158z" />
<glyph unicode="&#x1ea;" horiz-adv-x="1306" d="M66 733q0 219 67 392.5t204 278.5t325 105q167 0 299 -97t206 -274.5t74 -404.5q0 -257 -99 -456t-280 -275q-75 -31 -122.5 -96t-47.5 -142q0 -49 24.5 -67.5t80.5 -18.5h63v-149h-63q-102 0 -177 55.5t-75 143.5q0 69 25 120.5t81 112.5q-139 1 -251.5 63t-184.5 168 t-110.5 245t-38.5 296zM233 733q0 -267 115.5 -430.5t304.5 -163.5t304.5 164t115.5 432q0 266 -115 431t-299 165q-195 0 -310.5 -162t-115.5 -436z" />
<glyph unicode="&#x1eb;" d="M59 537q0 254 114 409.5t300 155.5q177 0 289 -158.5t112 -406.5q0 -185 -64.5 -324t-176.5 -201q-67 -36 -105.5 -103.5t-38.5 -144.5q0 -49 24.5 -67.5t80.5 -18.5h63v-149h-63q-102 0 -177 55.5t-75 143.5q0 71 27 125t88 118q-175 5 -286.5 162t-111.5 404zM213 537 q0 -186 69 -297t185 -111t185 111t69 297q0 184 -68.5 295.5t-181.5 111.5q-120 0 -189 -109.5t-69 -297.5z" />
<glyph unicode="&#x1f4;" horiz-adv-x="1306" d="M80 717q0 234 71 414t200.5 279t297.5 99q200 0 339.5 -129t172.5 -356h-157q-73 307 -353 307q-186 0 -294.5 -164t-108.5 -444q0 -289 104 -440.5t303 -151.5q79 0 145 28t118 85t81 152t29 220h-375v170h529v-786h-107l-37 190q-85 -123 -183.5 -176t-223.5 -53 q-128 0 -234 61.5t-174.5 166t-105.5 240.5t-37 288zM588 1595l149 248h193l-219 -248h-123z" />
<glyph unicode="&#x1f5;" d="M68 561q0 243 99.5 392t262.5 149q89 0 148.5 -42t119.5 -147v158h140v-983q0 -281 -100.5 -410t-305.5 -129q-145 0 -227.5 73.5t-110.5 246.5h148q20 -91 65.5 -130.5t130.5 -39.5q134 0 193 82.5t59 294.5v43q-43 -78 -100 -114t-139 -36q-173 0 -278 162.5 t-105 429.5zM221 551q0 -201 62 -312.5t172 -111.5q114 0 177.5 100.5t63.5 278.5q0 212 -60.5 324t-174.5 112q-240 0 -240 -391zM410 1196l149 289h182l-219 -289h-112z" />
<glyph unicode="&#x1fa;" horiz-adv-x="1120" d="M23 0l452 1470h187l436 -1470h-178l-119 428h-484l-127 -428h-167zM362 1761q0 72 60 120t149 48t148 -48.5t59 -123.5q0 -72 -59 -120t-148 -48q-91 0 -150 48.5t-59 123.5zM367 606h374l-180 651zM453 1761q0 -41 34 -69.5t84 -28.5q47 0 82 28t35 66q0 41 -34.5 69.5 t-82.5 28.5q-47 0 -82.5 -28t-35.5 -66zM508 1970l149 248h193l-219 -248h-123z" />
<glyph unicode="&#x1fb;" d="M61 283q0 139 69.5 225t197.5 106l243 37q41 6 59.5 35t18.5 88q0 88 -51.5 133t-151.5 45q-101 0 -153.5 -49t-52.5 -158h-136q0 357 353 357q157 0 246.5 -80t89.5 -219v-617q0 -63 47 -63q10 0 51 8v-131q-59 -20 -86 -20q-75 0 -109.5 37.5t-42.5 125.5 q-72 -92 -144.5 -133t-166.5 -41q-127 0 -204 86.5t-77 227.5zM215 299q0 -86 41.5 -133t116.5 -47q110 0 191 75.5t81 176.5v176q-23 -21 -67.5 -33t-174.5 -35q-101 -17 -144.5 -58.5t-43.5 -121.5zM250 1362q0 72 60 120t149 48t148 -48.5t59 -123.5q0 -72 -59 -120 t-148 -48q-91 0 -150 48.5t-59 123.5zM340 1362q0 -41 34.5 -69.5t84.5 -28.5q47 0 81.5 28t34.5 66q0 41 -34 69.5t-82 28.5t-83.5 -28t-35.5 -66zM395 1571l150 248h192l-219 -248h-123z" />
<glyph unicode="&#x1fc;" horiz-adv-x="1679" d="M14 0l490 1470h1081v-178h-653v-448h596v-178h-596v-488h665v-178h-829v428h-444l-134 -428h-176zM381 606h387v686h-164zM788 1595l150 248h192l-219 -248h-123z" />
<glyph unicode="&#x1fd;" horiz-adv-x="1492" d="M61 283q0 139 69.5 225t197.5 106l243 37q41 6 59.5 35t18.5 88q0 88 -51.5 133t-151.5 45q-97 0 -143 -46.5t-63 -160.5h-136q10 188 98.5 272.5t264.5 84.5q99 0 158.5 -31.5t126.5 -120.5q72 86 134 119t154 33q118 0 197.5 -58.5t128 -199t57.5 -367.5h-643 q11 -350 250 -350q89 0 155.5 59t78.5 150h147q-27 -168 -127.5 -267.5t-259.5 -99.5q-118 0 -195.5 52.5t-134.5 171.5q-70 -119 -151.5 -171.5t-192.5 -52.5q-132 0 -210.5 85t-78.5 229zM215 299q0 -86 41.5 -133t116.5 -47q110 0 191 75.5t81 176.5v176 q-21 -21 -65.5 -33t-176.5 -35q-100 -17 -144 -59.5t-44 -120.5zM690 1196l150 289h182l-219 -289h-113zM780 621h490q-23 321 -238 321q-106 0 -175.5 -88t-76.5 -233z" />
<glyph unicode="&#x1fe;" horiz-adv-x="1306" d="M66 737q0 158 38.5 296.5t110.5 245t185.5 168.5t254.5 62q125 0 218.5 -42.5t181.5 -139.5l137 182l51 -61l-139 -186q72 -128 104.5 -252.5t32.5 -276.5q0 -126 -24 -240t-73 -211.5t-118.5 -168.5t-165.5 -111.5t-209 -40.5q-122 0 -213.5 41.5t-179.5 136.5 l-135 -178l-53 57l139 185q-76 130 -109.5 255t-33.5 279zM233 735q0 -112 20 -201.5t66 -183.5l629 834q-66 78 -135 112.5t-158 34.5q-190 0 -306 -163.5t-116 -432.5zM365 283q65 -76 132 -110t154 -34q190 0 306 163.5t116 432.5q0 114 -19 201t-63 176zM592 1595 l149 248h193l-219 -248h-123z" />
<glyph unicode="&#x1ff;" d="M47 8l107 148q-95 174 -95 381q0 252 113.5 408.5t296.5 156.5q83 0 146.5 -31t125.5 -102l109 147l51 -53l-117 -160q48 -90 69 -176t21 -192q0 -250 -113.5 -407t-295.5 -157q-79 0 -141.5 29t-122.5 94l-103 -139zM213 537q0 -128 41 -244l395 547q-38 55 -80.5 79.5 t-101.5 24.5q-116 0 -185 -110.5t-69 -296.5zM293 221q69 -92 172 -92q117 0 186.5 111t69.5 297q0 120 -37 227zM457 1196l149 289h182l-219 -289h-112z" />
<glyph unicode="&#x200;" horiz-adv-x="1120" d="M23 0l452 1470h187l436 -1470h-178l-119 428h-484l-127 -428h-167zM143 1886h183l149 -289h-113zM367 606h374l-180 651zM446 1886h183l149 -289h-112z" />
<glyph unicode="&#x201;" d="M31 1487h182l149 -289h-112zM61 283q0 139 69.5 225t197.5 106l243 37q41 6 59.5 35t18.5 88q0 88 -51.5 133t-151.5 45q-101 0 -153.5 -49t-52.5 -158h-136q0 357 353 357q157 0 246.5 -80t89.5 -219v-617q0 -63 47 -63q10 0 51 8v-131q-59 -20 -86 -20 q-75 0 -109.5 37.5t-42.5 125.5q-72 -92 -144.5 -133t-166.5 -41q-127 0 -204 86.5t-77 227.5zM215 299q0 -86 41.5 -133t116.5 -47q110 0 191 75.5t81 176.5v176q-23 -21 -67.5 -33t-174.5 -35q-101 -17 -144.5 -58.5t-43.5 -121.5zM334 1487h182l150 -289h-113z" />
<glyph unicode="&#x204;" horiz-adv-x="1120" d="M145 0v1470h877v-178h-713v-448h658v-178h-658v-488h725v-178h-889zM158 1886h182l149 -289h-112zM461 1886h182l150 -289h-113z" />
<glyph unicode="&#x205;" d="M41 1487h182l150 -289h-113zM68 516q0 269 112.5 427.5t302.5 158.5q118 0 198.5 -60t129 -200.5t55.5 -364.5h-641q6 -184 69.5 -267t180.5 -83q89 0 155.5 59t76.5 150h147q-29 -173 -130 -270t-253 -97q-187 0 -295 146.5t-108 400.5zM225 621h488q-23 321 -236 321 q-106 0 -176 -88.5t-76 -232.5zM344 1487h182l150 -289h-113z" />
<glyph unicode="&#x208;" horiz-adv-x="466" d="M-190 1886h182l149 -289h-112zM113 1886h182l149 -289h-112zM154 0v1470h161v-1470h-161z" />
<glyph unicode="&#x209;" horiz-adv-x="466" d="M-193 1487h183l149 -289h-112zM111 1487h182l149 -289h-112zM160 0v1071h147v-1071h-147z" />
<glyph unicode="&#x20c;" horiz-adv-x="1306" d="M66 733q0 219 67 392.5t204 278.5t325 105q167 0 299 -97t206 -274.5t74 -404.5q0 -158 -38.5 -296.5t-111 -245t-185.5 -168.5t-253 -62t-253 62t-185 168.5t-110.5 245t-38.5 296.5zM233 733q0 -267 115.5 -430.5t304.5 -163.5t304.5 164t115.5 432q0 266 -115 431 t-299 165q-195 0 -310.5 -162t-115.5 -436zM236 1886h182l149 -289h-112zM539 1886h182l149 -289h-112z" />
<glyph unicode="&#x20d;" d="M41 1487h182l150 -289h-113zM59 537q0 254 114 409.5t300 155.5q177 0 289 -158.5t112 -406.5q0 -251 -113 -408.5t-294 -157.5q-180 0 -294 158t-114 408zM213 537q0 -186 69 -297t185 -111t185 111t69 297q0 184 -68.5 295.5t-181.5 111.5q-120 0 -189 -109.5 t-69 -297.5zM344 1487h182l150 -289h-113z" />
<glyph unicode="&#x210;" horiz-adv-x="1212" d="M147 0v1470h560q192 0 293.5 -102t101.5 -295q0 -125 -37 -202.5t-131 -147.5q78 -37 107.5 -94t37.5 -183l8 -266q1 -67 13 -93.5t49 -53.5v-33h-201q-26 110 -26 369q0 139 -51.5 200.5t-163.5 61.5h-396v-631h-164zM152 1886h182l149 -289h-112zM311 801h377 q126 0 186 62.5t60 193.5q0 243 -217 243h-406v-499zM455 1886h182l149 -289h-112z" />
<glyph unicode="&#x211;" horiz-adv-x="559" d="M-150 1487h183l149 -289h-112zM129 0v1071h139v-182q58 115 115.5 164t134.5 49q18 0 39 -6v-185h-55q-98 0 -162 -81t-64 -205v-625h-147zM154 1487h182l149 -289h-112z" />
<glyph unicode="&#x214;" horiz-adv-x="1212" d="M133 489v981h164v-925q0 -195 79.5 -300.5t227.5 -105.5q149 0 231.5 105t82.5 297v929h163v-954q0 -254 -131 -404.5t-352 -150.5q-214 0 -339.5 142.5t-125.5 385.5zM182 1886h183l149 -289h-113zM485 1886h183l149 -289h-112z" />
<glyph unicode="&#x215;" d="M41 1487h182l150 -289h-113zM115 301v770h147v-711q0 -233 170 -233q110 0 176 96t66 258v590h147v-1071h-139v166q-59 -110 -120 -153.5t-159 -43.5q-135 0 -211.5 88t-76.5 244zM344 1487h182l150 -289h-113z" />
<glyph unicode="&#x218;" horiz-adv-x="1120" d="M82 475h154q0 -170 88 -257t249 -87q147 0 228.5 66.5t81.5 187.5q0 105 -54 159t-202 95l-248 70q-256 71 -256 352q0 200 113 324t317 124q218 0 336.5 -116t118.5 -353h-154q0 146 -81.5 222.5t-219.5 76.5q-129 0 -200.5 -67t-71.5 -187q0 -78 34.5 -124t106.5 -66 l344 -96q135 -38 204.5 -138.5t69.5 -257.5q0 -206 -127 -324t-348 -118q-222 0 -352.5 127t-130.5 387zM473 -123h170v-190q0 -265 -168 -265v74q92 0 92 162v20h-94v199z" />
<glyph unicode="&#x219;" horiz-adv-x="839" d="M53 344h144q8 -114 61.5 -165.5t165.5 -51.5q97 0 152 45t55 123q0 60 -36 91.5t-138 62.5l-172 51q-203 61 -203 264q0 154 92 246t244 92q151 0 237 -87.5t95 -248.5h-144q-5 91 -53 134.5t-145 43.5q-85 0 -134 -40.5t-49 -110.5q0 -57 31 -85t127 -57l149 -45 q133 -40 189.5 -105.5t56.5 -178.5q0 -161 -98.5 -257t-265.5 -96q-172 0 -261.5 90.5t-99.5 284.5zM330 -123h170v-190q0 -265 -168 -265v74q92 0 92 162v20h-94v199z" />
<glyph unicode="&#x21a;" horiz-adv-x="1026" d="M23 1292v178h981v-178h-408v-1292h-164v1292h-409zM428 -123h170v-190q0 -265 -168 -265v74q92 0 92 162v20h-94v199z" />
<glyph unicode="&#x21b;" horiz-adv-x="466" d="M23 922v149h118v299h148v-299h143v-149h-143v-697q0 -45 20.5 -64.5t69.5 -19.5h51v-141q-33 -4 -58 -7t-33 -4.5t-14 -2t-12 -0.5q-88 0 -130 56t-42 173v707h-118zM203 -123h170v-190q0 -265 -168 -265v74q92 0 92 162v20h-94v199z" />
<glyph unicode="&#x258;" d="M68 477q7 224 55.5 364.5t129 200.5t198.5 60q190 0 302.5 -158.5t112.5 -427.5q0 -254 -108 -400.5t-295 -146.5q-152 0 -253 97t-130 270h147q10 -91 76.5 -150t155.5 -59q117 0 180.5 83t69.5 267h-641zM221 621h488q-6 144 -76 232.5t-176 88.5q-213 0 -236 -321z " />
<glyph unicode="&#x259;" d="M68 594h641q-6 184 -69.5 267t-180.5 83q-89 0 -155.5 -59t-76.5 -150h-147q29 173 130 270t253 97q187 0 295 -146.5t108 -400.5q0 -269 -112.5 -427.5t-302.5 -158.5q-118 0 -198.5 60t-129 200.5t-55.5 364.5zM221 451q23 -322 236 -322q106 0 176 89t76 233h-488z " />
<glyph unicode="&#x2be;" horiz-adv-x="757" d="M113 920q0 18 16 18h96q13 0 17 -14q11 -73 38.5 -106.5t79.5 -33.5q71 0 109.5 68t38.5 190q0 120 -35.5 186t-103.5 66q-100 0 -127 -155q-4 -13 -17 -13h-96q-8 0 -12.5 6t-3.5 13q37 287 254 287q126 0 202 -103.5t76 -277.5q0 -187 -80 -297.5t-213 -110.5 q-212 0 -239 277z" />
<glyph unicode="&#x2bf;" horiz-adv-x="757" d="M113 1024q0 187 80 297.5t213 110.5q212 0 239 -277q0 -18 -16 -18h-97q-12 0 -16 14q-11 72 -39 105.5t-80 33.5q-71 0 -109 -67.5t-38 -190.5q0 -120 35.5 -186t103.5 -66q99 0 127 156q4 12 16 12h97q8 0 12.5 -5.5t3.5 -12.5q-37 -287 -254 -287q-126 0 -202 103.5 t-76 277.5z" />
<glyph unicode="&#x2c6;" horiz-adv-x="559" d="M35 1198l166 289h157l166 -289h-135l-110 191l-111 -191h-133z" />
<glyph unicode="&#x2c7;" horiz-adv-x="559" d="M35 1487h135l111 -191l110 191h133l-166 -289h-157z" />
<glyph unicode="&#x2d8;" horiz-adv-x="559" d="M23 1481h81l5 -15q20 -77 62 -112t114 -35q75 0 113 35.5t61 126.5h80q-19 -145 -82 -212t-183 -67q-115 0 -175.5 67t-75.5 212z" />
<glyph unicode="&#x2d9;" horiz-adv-x="559" d="M193 1243v197h176v-197h-176z" />
<glyph unicode="&#x2da;" horiz-adv-x="559" d="M72 1343q0 72 60 120t149 48t147.5 -48.5t58.5 -123.5q0 -72 -58.5 -120t-147.5 -48q-91 0 -150 48.5t-59 123.5zM162 1343q0 -41 34.5 -69.5t84.5 -28.5q47 0 81.5 28t34.5 66q0 41 -34.5 70t-81.5 29t-83 -28.5t-36 -66.5z" />
<glyph unicode="&#x2db;" horiz-adv-x="559" d="M102 -272q0 79 33 136.5t111 135.5h119q-115 -96 -115 -236q0 -49 24 -67.5t80 -18.5h64v-149h-64q-102 0 -177 55.5t-75 143.5z" />
<glyph unicode="&#x2dc;" horiz-adv-x="559" d="M-6 1223q15 113 57.5 166t116.5 53q44 0 115 -31l36 -18q56 -27 84 -27q33 0 51 21.5t27 72.5h84q-30 -223 -170 -223q-28 0 -96 27l-43 18q-69 31 -104 31q-29 0 -47 -20.5t-31 -69.5h-80z" />
<glyph unicode="&#x2dd;" horiz-adv-x="559" d="M72 1198l149 289h182l-219 -289h-112zM375 1198l149 289h183l-220 -289h-112z" />
<glyph unicode="&#x300;" horiz-adv-x="0" d="M-741 1485h182l149 -289h-112z" />
<glyph unicode="&#x301;" horiz-adv-x="0" d="M-522 1196l149 289h183l-220 -289h-112z" />
<glyph unicode="&#x302;" horiz-adv-x="0" d="M-711 1198l166 289h158l166 -289h-135l-111 191l-111 -191h-133z" />
<glyph unicode="&#x303;" horiz-adv-x="0" d="M-752 1223q15 113 57.5 166t116.5 53q44 0 115 -31l37 -18q56 -27 84 -27q33 0 51 21.5t27 72.5h84q-30 -223 -170 -223q-28 0 -96 27l-43 18q-69 31 -105 31q-29 0 -47 -20.5t-31 -69.5h-80z" />
<glyph unicode="&#x304;" horiz-adv-x="0" d="M-729 1284v117h526v-117h-526z" />
<glyph unicode="&#x306;" horiz-adv-x="0" d="M-723 1481h82l4 -15q20 -77 62 -112t114 -35q75 0 113 35.5t61 126.5h80q-19 -145 -81.5 -212t-182.5 -67q-116 0 -176.5 67t-75.5 212z" />
<glyph unicode="&#x307;" horiz-adv-x="0" d="M-553 1243v197h176v-197h-176z" />
<glyph unicode="&#x308;" horiz-adv-x="0" d="M-721 1243v197h180v-197h-180zM-391 1243v197h180v-197h-180z" />
<glyph unicode="&#x309;" horiz-adv-x="0" d="M-670 1337q0 92 54.5 140.5t158.5 48.5q95 0 149 -38.5t54 -103.5q0 -40 -19 -66.5t-73 -60.5q-42 -30 -53 -41t-11 -24v-49h-114v55q0 37 21 61t77 58q59 39 59 67q0 22 -26 37t-68 15q-61 0 -84 -29q-12 -15 -12 -70h-113z" />
<glyph unicode="&#x30a;" horiz-adv-x="0" d="M-674 1343q0 72 60 120t149 48t148 -48.5t59 -123.5q0 -72 -59 -120t-148 -48q-91 0 -150 48.5t-59 123.5zM-584 1343q0 -41 34.5 -69.5t84.5 -28.5q47 0 82 28t35 66q0 41 -34.5 70t-82.5 29q-47 0 -83 -28.5t-36 -66.5z" />
<glyph unicode="&#x30b;" horiz-adv-x="0" d="M-674 1198l150 289h182l-219 -289h-113zM-371 1198l150 289h182l-219 -289h-113z" />
<glyph unicode="&#x30c;" horiz-adv-x="0" d="M-711 1487h136l110 -191l111 191h133l-166 -289h-158z" />
<glyph unicode="&#x30f;" horiz-adv-x="0" d="M-893 1487h182l150 -289h-113zM-590 1487h182l150 -289h-113z" />
<glyph unicode="&#x311;" horiz-adv-x="0" d="M-723 1202q19 145 81.5 212t182.5 67q116 0 176.5 -67t75.5 -212h-82l-4 15q-20 77 -62 112t-114 35q-75 0 -113 -35.5t-61 -126.5h-80z" />
<glyph unicode="&#x323;" horiz-adv-x="0" d="M-553 -172h176v-197h-176v197z" />
<glyph unicode="&#x326;" horiz-adv-x="0" d="M-551 -123h170v-190q0 -265 -168 -265v74q92 0 92 162v20h-94v199z" />
<glyph unicode="&#x32e;" horiz-adv-x="0" d="M-743 -152h81l5 -14q40 -52 84.5 -79t111.5 -27q72 0 111 28.5t63 91.5h101q-35 -119 -102 -178t-183 -59q-112 0 -176 59t-96 178z" />
<glyph unicode="&#x32f;" horiz-adv-x="0" d="M-743 -389q35 119 101.5 178t182.5 59q112 0 176.5 -59.5t96.5 -177.5h-82l-4 14q-40 52 -85 79.5t-112 27.5q-72 0 -111 -29t-63 -92h-100z" />
<glyph unicode="&#x330;" horiz-adv-x="0" d="M-752 -389q15 113 57.5 166t116.5 53q44 0 115 -31l37 -18q56 -27 84 -27q33 0 51 21.5t27 72.5h84q-30 -223 -170 -223q-28 0 -96 27l-43 18q-69 31 -105 31q-29 0 -47 -20.5t-31 -69.5h-80z" />
<glyph unicode="&#x331;" horiz-adv-x="0" d="M-729 -211h526v-117h-526v117z" />
<glyph unicode="&#x332;" horiz-adv-x="0" d="M-729 -211h526v-117h-526v117z" />
<glyph unicode="&#x391;" horiz-adv-x="1120" d="M23 0l452 1470h187l436 -1470h-178l-119 428h-484l-127 -428h-167zM367 606h374l-180 651z" />
<glyph unicode="&#x392;" horiz-adv-x="1120" d="M125 0v1470h530q154 0 247 -101.5t93 -268.5q0 -106 -38 -179.5t-121 -127.5q118 -58 167.5 -139t49.5 -216q0 -198 -112 -318t-296 -120h-520zM289 170h348q120 0 186 70t66 198q0 250 -281 250h-319v-518zM289 848h293q128 0 188.5 56.5t60.5 176.5q0 113 -60 166 t-187 53h-295v-452z" />
<glyph unicode="&#x393;" horiz-adv-x="1026" d="M145 0v1470h834v-178h-670v-1292h-164z" />
<glyph unicode="&#x394;" horiz-adv-x="1028" d="M10 0l434 1438h140l434 -1438h-1008zM209 147h610l-305 1014z" />
<glyph unicode="&#x395;" horiz-adv-x="1120" d="M145 0v1470h877v-178h-713v-448h658v-178h-658v-488h725v-178h-889z" />
<glyph unicode="&#x396;" horiz-adv-x="1026" d="M39 0v168l739 1124h-684v178h893v-174l-741 -1118h741v-178h-948z" />
<glyph unicode="&#x397;" horiz-adv-x="1212" d="M129 0v1470h164v-608h629v608h163v-1470h-163v684h-629v-684h-164z" />
<glyph unicode="&#x398;" horiz-adv-x="1306" d="M66 733q0 219 67 392.5t204 278.5t325 105q167 0 299 -97t206 -274.5t74 -404.5q0 -158 -38.5 -296.5t-111 -245t-185.5 -168.5t-253 -62t-253 62t-185 168.5t-110.5 245t-38.5 296.5zM233 733q0 -267 115.5 -430.5t304.5 -163.5t304.5 164t115.5 432q0 266 -115 431 t-299 165q-195 0 -310.5 -162t-115.5 -436zM436 662v147h434v-147h-434z" />
<glyph unicode="&#x399;" horiz-adv-x="466" d="M154 0v1470h161v-1470h-161z" />
<glyph unicode="&#x39a;" horiz-adv-x="1120" d="M127 0v1470h164v-712l586 712h225l-504 -593l516 -877h-211l-422 737l-190 -221v-516h-164z" />
<glyph unicode="&#x39b;" horiz-adv-x="1120" d="M23 0l452 1470h187l436 -1470h-178l-359 1257l-371 -1257h-167z" />
<glyph unicode="&#x39c;" horiz-adv-x="1398" d="M123 0v1470h233l346 -1249l345 1249h231v-1470h-154v868v379l-344 -1247h-159l-340 1245v-282v-963h-158z" />
<glyph unicode="&#x39d;" horiz-adv-x="1212" d="M127 0v1470h192l609 -1194v1194h157v-1470h-182l-618 1194v-1194h-158z" />
<glyph unicode="&#x39e;" horiz-adv-x="1212" d="M82 0v164h1048v-164h-1048zM82 1307v163h1048v-163h-1048zM246 662v147h721v-147h-721z" />
<glyph unicode="&#x39f;" horiz-adv-x="1306" d="M66 733q0 219 67 392.5t204 278.5t325 105q167 0 299 -97t206 -274.5t74 -404.5q0 -158 -38.5 -296.5t-111 -245t-185.5 -168.5t-253 -62t-253 62t-185 168.5t-110.5 245t-38.5 296.5zM233 733q0 -267 115.5 -430.5t304.5 -163.5t304.5 164t115.5 432q0 266 -115 431 t-299 165q-195 0 -310.5 -162t-115.5 -436z" />
<glyph unicode="&#x3a0;" horiz-adv-x="1212" d="M129 0v1470h956v-1470h-163v1292h-629v-1292h-164z" />
<glyph unicode="&#x3a1;" horiz-adv-x="1120" d="M145 0v1470h541q161 0 259.5 -114t98.5 -301q0 -197 -97.5 -315.5t-260.5 -118.5h-377v-621h-164zM309 791h322q246 0 246 258q0 127 -59 189t-181 62h-328v-509z" />
<glyph unicode="&#x3a3;" horiz-adv-x="1032" d="M61 0v168l455 567l-455 568v167h910v-178h-674l446 -557l-446 -557h674v-178h-910z" />
<glyph unicode="&#x3a4;" horiz-adv-x="1026" d="M23 1292v178h981v-178h-408v-1292h-164v1292h-409z" />
<glyph unicode="&#x3a5;" horiz-adv-x="1120" d="M23 1470h190l346 -706l346 706h191l-455 -878v-592h-164v592z" />
<glyph unicode="&#x3a6;" horiz-adv-x="1277" d="M113 735q0 172 127.5 293.5t316.5 147.5v294h162v-294q189 -26 316.5 -147.5t127.5 -293.5t-127.5 -293t-316.5 -147v-295h-162v295q-189 26 -316.5 147t-127.5 293zM264 735q0 -111 83.5 -186t209.5 -96v565q-126 -21 -209.5 -96.5t-83.5 -186.5zM719 453 q126 21 209.5 96t83.5 186t-83.5 186.5t-209.5 96.5v-565z" />
<glyph unicode="&#x3a7;" horiz-adv-x="1120" d="M33 0l430 754l-404 716h205l305 -563l305 563h195l-403 -716l421 -754h-200l-324 604l-334 -604h-196z" />
<glyph unicode="&#x3a8;" horiz-adv-x="1249" d="M113 1071v399h151v-399q0 -159 76.5 -285t202.5 -161v845h162v-845q126 34 202 160.5t76 285.5v399h152v-399q0 -224 -120 -397.5t-310 -208.5v-465h-162v465q-190 35 -310 208.5t-120 397.5z" />
<glyph unicode="&#x3a9;" horiz-adv-x="1298" d="M61 0v178h326v117q-124 84 -195 233t-71 322q0 125 39 240.5t107 203.5t168 140.5t214 52.5q152 0 275 -89.5t189.5 -235t66.5 -312.5q0 -172 -72.5 -321t-196.5 -234v-117h326v-178h-489v410q121 39 194.5 163.5t73.5 276.5q0 120 -45 224t-130 169.5t-192 65.5 t-191.5 -65.5t-128.5 -169.5t-44 -224q0 -153 73 -277t193 -163v-410h-490z" />
<glyph unicode="&#x3b1;" horiz-adv-x="1300" d="M113 518q0 156 54.5 290.5t161 220t242.5 85.5q244 0 377 -326q51 215 107 318l133 -70q-58 -109 -93.5 -230.5t-70.5 -287.5q61 -292 164 -483l-133 -70q-65 123 -111 295q-134 -303 -373 -303q-133 0 -239 79.5t-162.5 207t-56.5 274.5zM260 518q0 -164 86 -284.5 t225 -120.5q226 0 318 405q-15 72 -31 128.5t-43 117.5t-59 101t-79.5 66.5t-105.5 26.5q-96 0 -168.5 -64.5t-107.5 -163t-35 -212.5z" />
<glyph unicode="&#x3b2;" horiz-adv-x="1005" d="M100 -471v1561q0 189 104.5 295t289.5 106q181 0 288 -101t107 -272q0 -100 -32.5 -171t-104.5 -128q94 -40 144 -133.5t50 -228.5q0 -100 -27 -187t-78 -155t-133 -107t-184 -39q-146 0 -276 62v-502h-148zM248 178q122 -49 258 -49q141 0 214 78.5t73 230.5 q0 146 -70.5 216.5t-216.5 70.5q-37 0 -64 -8v162q25 -5 47 -5q120 0 186 60t66 168q0 107 -68 169t-186 62q-126 0 -182.5 -68.5t-56.5 -220.5v-866z" />
<glyph unicode="&#x3b3;" horiz-adv-x="1073" d="M113 1071h155l269 -829l268 829h156l-351 -1083v-459h-147v459z" />
<glyph unicode="&#x3b4;" horiz-adv-x="944" d="M61 440q0 157 99 278.5t254 168.5q-81 72 -125.5 139.5t-44.5 149.5q0 121 78 207.5t192 86.5q154 0 279 -92l-95 -127q-84 62 -184 62q-53 0 -88 -40t-35 -97q0 -36 13 -67.5t43.5 -61t52 -46.5t68.5 -47.5t63 -42.5q118 -82 185 -206.5t67 -264.5q0 -125 -52 -232.5 t-147 -173t-211 -65.5q-117 0 -212.5 65.5t-147.5 173t-52 232.5zM209 440q0 -127 75 -220t189 -93t188 93t74 220q0 106 -51.5 197t-142.5 145q-138 0 -235 -100.5t-97 -241.5z" />
<glyph unicode="&#x3b5;" horiz-adv-x="1030" d="M113 354q0 167 196 236q-157 85 -157 235q0 137 101.5 231.5t242.5 94.5q187 0 381 -137l-72 -101q-115 82 -309 82q-80 0 -138.5 -48.5t-58.5 -121.5q0 -184 369 -184v-125h-57.5t-56.5 -1t-57.5 -3.5t-52.5 -6t-51 -10t-43 -14.5t-38 -20.5t-27 -27.5t-19 -35t-6 -44 q0 -118 93 -198t220 -80q169 0 269 78l76 -95q-170 -139 -345 -139q-124 0 -229.5 56.5t-168 157t-62.5 220.5z" />
<glyph unicode="&#x3b6;" horiz-adv-x="878" d="M113 537q0 241 113 454.5t309 356.5h-422v125h708v-125h-78q-225 -113 -354 -333t-129 -478q0 -100 23.5 -184.5t78.5 -142.5t134 -58h61q114 0 189 -93.5t75 -220.5q0 -124 -75.5 -214.5t-188.5 -90.5v139q54 0 85.5 49.5t31.5 116.5q0 64 -32 111t-85 47h-61 q-118 0 -207 79t-132.5 200.5t-43.5 261.5z" />
<glyph unicode="&#x3b7;" d="M113 0v580q-40 123 0 247v244h147v-35q105 78 236 78q142 0 233.5 -118.5t91.5 -280.5v-1186h-147v1186q0 98 -48.5 170.5t-129.5 72.5q-73 0 -135 -31t-101 -85v-842h-147z" />
<glyph unicode="&#x3b8;" horiz-adv-x="972" d="M113 719q0 88 3.5 163t13.5 158.5t27 149.5t45.5 128.5t67 103.5t93 66t122.5 25t123.5 -25t93.5 -66t67 -103t46 -128.5t27.5 -150t14 -158.5t3.5 -163q0 -762 -375 -762q-372 0 -372 762zM260 641q1 -76 3.5 -130.5t10 -121t23 -111.5t39.5 -85t61.5 -60t87.5 -20 q43 0 77.5 16t58 42.5t40.5 68.5t26.5 83.5t15.5 99.5t8 106t2 112h-453zM260 797h453q0 67 -2 117.5t-8 112t-15.5 106t-26.5 89.5t-40.5 73t-58 45.5t-77.5 17.5t-77 -17.5t-57 -45.5t-40 -73t-26.5 -89.5t-15 -106t-7.5 -112t-2 -117.5z" />
<glyph unicode="&#x3b9;" horiz-adv-x="608" d="M225 322v749h148v-749q0 -86 31 -147.5t92 -61.5v-156q-122 0 -196.5 109t-74.5 256z" />
<glyph unicode="&#x3ba;" horiz-adv-x="839" d="M109 0v1071h147v-453l379 453h186l-336 -399l357 -672h-191l-272 541l-123 -135v-406h-147z" />
<glyph unicode="&#x3bb;" horiz-adv-x="1150" d="M113 0l467 971l-25 76q-37 120 -111 200t-176 80v139q149 0 262.5 -105t163.5 -265l344 -1096h-155l-240 762l-367 -762h-163z" />
<glyph unicode="&#x3bc;" horiz-adv-x="1159" d="M225 -471v1542h148v-717q45 -241 207 -241q161 0 206 241v717h148v-1071h-148v55q-82 -98 -206 -98q-125 0 -207 98v-526h-148z" />
<glyph unicode="&#x3bd;" horiz-adv-x="956" d="M57 1071h156l305 -909q114 108 175 252t61 301q0 178 -41 356h151q37 -160 37 -356q0 -220 -99 -414.5t-276 -323.5l-112 37z" />
<glyph unicode="&#x3be;" d="M113 438q0 115 55 211t149 156q-77 52 -121 130.5t-44 170.5q0 143 110 242h-149v125h708v-125h-307q-94 -21 -154.5 -86.5t-60.5 -155.5q0 -99 76 -166.5t182 -67.5v-139q-123 0 -210 -86t-87 -209q0 -116 66.5 -201t169.5 -85h61q114 0 189 -93.5t75 -220.5 q0 -124 -75.5 -214.5t-188.5 -90.5v139q54 0 85.5 49.5t31.5 116.5q0 64 -32 111t-85 47h-61q-108 0 -197 62t-137.5 163t-48.5 217z" />
<glyph unicode="&#x3bf;" d="M59 537q0 254 114 409.5t300 155.5q177 0 289 -158.5t112 -406.5q0 -251 -113 -408.5t-294 -157.5q-180 0 -294 158t-114 408zM213 537q0 -186 69 -297t185 -111t185 111t69 297q0 184 -68.5 295.5t-181.5 111.5q-120 0 -189 -109.5t-69 -297.5z" />
<glyph unicode="&#x3c0;" horiz-adv-x="1150" d="M61 686q0 205 109 295t334 90h586v-158h-103v-913h-147v913h-262v-913h-148v913q-111 0 -161 -55t-50 -172h-158z" />
<glyph unicode="&#x3c1;" horiz-adv-x="1064" d="M113 -471v1008q0 111 28.5 214t80.5 184t133 130t177 49q128 0 225.5 -84t146 -213.5t48.5 -279.5q0 -151 -48.5 -281t-146 -214.5t-225.5 -84.5q-153 0 -272 109v-537h-147zM260 264q38 -71 112 -111t160 -40q89 0 152.5 63t92 157t28.5 204q0 109 -28.5 202t-92 156 t-152.5 63q-88 0 -151.5 -63t-92 -156t-28.5 -202v-273z" />
<glyph unicode="&#x3c2;" d="M113 555q0 145 42 269.5t131 207t210 82.5q134 0 228 -100.5t89 -237.5l-131 2q1 74 -54 127t-132 53q-82 0 -137 -61.5t-77 -148.5t-22 -193q0 -77 13 -146.5t40 -128.5t74 -93.5t109 -34.5h61q114 0 189 -93.5t75 -220.5q0 -124 -75.5 -214.5t-188.5 -90.5v139 q54 0 85.5 49.5t31.5 116.5q0 64 -32 111t-85 47h-61q-121 0 -210 82.5t-131 207t-42 269.5z" />
<glyph unicode="&#x3c3;" horiz-adv-x="1105" d="M113 537q0 254 113.5 409.5t299.5 155.5q43 0 74 -8q163 12 401 90l50 -148q-122 -41 -265 -57q67 -76 104.5 -190.5t37.5 -251.5q0 -251 -113.5 -408.5t-294.5 -157.5q-180 0 -293.5 158t-113.5 408zM266 537q0 -186 69 -297t185 -111t185 111t69 297q0 184 -68.5 295.5 t-181.5 111.5q-120 0 -189 -109.5t-69 -297.5z" />
<glyph unicode="&#x3c4;" horiz-adv-x="825" d="M113 920v155h600v-155h-228v-598q0 -86 31 -147.5t92 -61.5v-156q-81 0 -144 53t-94.5 135.5t-31.5 176.5v598h-225z" />
<glyph unicode="&#x3c5;" d="M113 356v715h147v-715q0 -99 44.5 -171t123.5 -72q82 0 139.5 60t82 147.5t24.5 191.5q0 277 -82 559h156q73 -261 73 -559q0 -144 -44.5 -268.5t-136 -205.5t-212.5 -81q-93 0 -166.5 57t-111 147t-37.5 195z" />
<glyph unicode="&#x3c6;" horiz-adv-x="1437" d="M113 537q0 167 80.5 315t220.5 242l78 -115q-109 -73 -170.5 -191t-61.5 -251q0 -160 110.5 -277t274.5 -141v393q0 116 18 218.5t56 191t106.5 140.5t159.5 52q89 0 156.5 -49.5t106.5 -133.5t58 -183.5t19 -210.5q0 -223 -153.5 -386t-378.5 -190v-432h-148v432 q-225 27 -378.5 190t-153.5 386zM793 119q164 24 274.5 141t110.5 277q0 68 -3.5 121t-15 112t-32 98t-56.5 64.5t-86 25.5q-38 0 -67.5 -14.5t-49.5 -37t-34 -59t-22 -71.5t-12.5 -84.5t-5.5 -88.5t-1 -91v-393z" />
<glyph unicode="&#x3c7;" horiz-adv-x="1081" d="M113 -471l346 772l-346 770h163l265 -590l264 590h164l-346 -770l346 -772h-164l-264 590l-265 -590h-163z" />
<glyph unicode="&#x3c8;" horiz-adv-x="1212" d="M113 356v715h147v-715q0 -97 77.5 -159t194.5 -78v1351h148v-1351q117 16 194.5 78t77.5 159v715h148v-715q0 -105 -58 -191.5t-152.5 -138t-209.5 -65.5v-432h-148v432q-115 14 -209 65.5t-152 138t-58 191.5z" />
<glyph unicode="&#x3c9;" horiz-adv-x="1267" d="M113 553q0 226 116 518h111q-80 -208 -80 -518v-62t1 -60.5t3 -62t5.5 -57t9.5 -54.5t13.5 -46.5t19 -41.5t25.5 -29t32.5 -20.5t40.5 -6.5q78 0 114.5 58t48.5 163q-12 119 -12 381h148v-5v-82t1 -81t3 -83.5t5.5 -77.5t9 -75t13.5 -63.5t19 -56.5t25 -40.5t32.5 -28.5 t40.5 -9t40.5 6.5t32.5 20.5t25.5 29t19 41.5t13.5 46.5t9.5 54.5t5.5 57t3 62t1 60.5v62q0 310 -80 518h110q117 -294 117 -518q0 -596 -297 -596q-159 0 -231 160q-68 -160 -217 -160q-297 0 -297 596z" />
<glyph unicode="&#x3d1;" horiz-adv-x="1046" d="M113 356v359h147v-359q0 -100 58.5 -173.5t148.5 -73.5t148.5 73.5t58.5 173.5v451q-508 54 -508 356q0 150 85 259.5t216 109.5q106 0 188 -66t124 -170t42 -225v-151h113v-125l-113 2v-441q0 -161 -102 -278t-252 -117t-252 117t-102 278zM285 1163q0 -63 30 -108 t86.5 -71t121.5 -39t151 -19v145q0 88 -20.5 162t-69 125t-117.5 51q-82 0 -132 -73.5t-50 -172.5z" />
<glyph unicode="&#x3d5;" horiz-adv-x="1370" d="M113 537q0 217 143 379t356 190v364h148v-364q212 -28 354.5 -190t142.5 -379q0 -219 -143 -381.5t-356 -190.5l2 -436h-148v436q-213 28 -356 190.5t-143 381.5zM260 537q0 -157 100 -276.5t252 -145.5v841q-152 -26 -252 -144.5t-100 -274.5zM758 115q152 26 252 145.5 t100 276.5q0 156 -100 274.5t-250 144.5z" />
<glyph unicode="&#x3d6;" horiz-adv-x="1267" d="M113 553q0 226 116 518h111q-80 -208 -80 -518v-62t1 -60.5t3 -62t5.5 -57t9.5 -54.5t13.5 -46.5t19 -41.5t25.5 -29t32.5 -20.5t40.5 -6.5q78 0 114.5 58t48.5 163q-12 119 -12 381h148v-5v-82t1 -81t3 -83.5t5.5 -77.5t9 -75t13.5 -63.5t19 -56.5t25 -40.5t32.5 -28.5 t40.5 -9t40.5 6.5t32.5 20.5t25.5 29t19 41.5t13.5 46.5t9.5 54.5t5.5 57t3 62t1 60.5v62q0 86 -2 151t-9.5 145.5t-21 139.5t-37.5 119t-57.5 97.5t-83 61t-111.5 23.5q-192 0 -381 -69l-39 100q206 78 420 78q103 0 184.5 -49t134 -129.5t87 -192t49 -229t14.5 -246.5 q0 -596 -297 -596q-159 0 -231 160q-68 -160 -217 -160q-297 0 -297 596z" />
<glyph unicode="&#x3f5;" horiz-adv-x="839" d="M51 516q0 268 112.5 427t303.5 159q258 0 319 -299h-151q-25 72 -69 105.5t-113 33.5q-103 0 -166.5 -88t-75.5 -248h348v-141h-348q9 -163 68.5 -250.5t162.5 -87.5q126 0 185 141h153q-77 -299 -336 -299q-180 0 -286.5 148t-106.5 399z" />
<glyph unicode="&#x400;" horiz-adv-x="1099" d="M125 0v1470h876v-178h-712v-448h657v-178h-657v-488h725v-178h-889zM397 1964h183l149 -289h-113z" />
<glyph unicode="&#x401;" horiz-adv-x="1099" d="M125 0v1470h876v-178h-712v-448h657v-178h-657v-488h725v-178h-889zM328 1636v209h153v-209h-153zM598 1636v209h154v-209h-154z" />
<glyph unicode="&#x402;" horiz-adv-x="1292" d="M25 1292v178h817v-178h-326v-418q12 19 99 46.5t159 27.5q53 0 109 -8t114.5 -28t104.5 -49.5t75 -77t29 -105.5v-680q0 -58 -29 -105.5t-75 -77t-104.5 -49.5t-114.5 -28t-109 -8v168q43 0 86.5 6t86 18.5t69 36.5t26.5 55v648q0 31 -26.5 55t-69 36.5t-86 18.5t-86.5 6 q-96 0 -178 -29.5t-82 -72.5v-678h-162v1292h-327z" />
<glyph unicode="&#x403;" horiz-adv-x="1001" d="M125 0v1470h833v-178h-669v-1292h-164zM172 1593l150 289h182l-219 -289h-113z" />
<glyph unicode="&#x404;" horiz-adv-x="1204" d="M66 733q0 356 152.5 566t410.5 210q135 0 243 -60.5t172 -172.5q34 -58 51 -110.5t27 -137.5h-157q-20 88 -44.5 136.5t-68.5 88.5q-91 78 -219 78q-167 0 -270 -128t-123 -359h567v-178h-571q10 -250 112 -388.5t275 -138.5q164 0 266 150q32 49 50.5 102.5t37.5 149.5 h158q-31 -172 -70 -266.5t-109 -165.5q-67 -72 -157.5 -110t-190.5 -38q-249 0 -395.5 208.5t-146.5 563.5z" />
<glyph unicode="&#x405;" horiz-adv-x="1120" d="M82 475h154q1 -72 11.5 -116t35.5 -85q85 -143 290 -143q147 0 228.5 66.5t81.5 187.5q0 106 -53.5 158.5t-202.5 95.5l-248 70q-256 71 -256 352q0 181 100 311q110 137 330 137q136 0 237.5 -53t155.5 -151q28 -54 41.5 -110.5t20.5 -154.5h-154q-8 108 -47 174 q-80 125 -254 125q-129 0 -200.5 -67t-71.5 -187q0 -78 34.5 -124t106.5 -66l344 -96q135 -37 204.5 -138t69.5 -258q0 -206 -127 -324t-348 -118q-138 0 -232 43.5t-163 140.5q-47 66 -67 139t-21 191z" />
<glyph unicode="&#x406;" horiz-adv-x="436" d="M137 0v1470h162v-1470h-162z" />
<glyph unicode="&#x407;" horiz-adv-x="698" d="M137 1636v209h154v-209h-154zM268 0v1470h164v-1470h-164zM408 1636v209h153v-209h-153z" />
<glyph unicode="&#x408;" horiz-adv-x="839" d="M29 328v145h153v-102q0 -123 45 -181.5t140 -58.5q188 0 188 254v1085h164v-1073q0 -209 -91.5 -322.5t-258.5 -113.5q-155 0 -247.5 100t-92.5 267z" />
<glyph unicode="&#x409;" horiz-adv-x="1835" d="M43 0v176q39 0 70.5 29t54 86.5t40 127.5t28.5 170.5t18 195t10.5 220.5t4.5 228.5t1 236.5h783v-620h377q163 0 260.5 -118.5t97.5 -315.5q0 -187 -98.5 -301.5t-259.5 -114.5h-541v1296h-453q0 -93 -0.5 -149.5t-2.5 -161t-8 -174t-15 -169.5t-24 -168.5t-35.5 -149 t-50 -133t-66 -99.5t-85.5 -69.5t-106 -22.5zM1053 170h327q121 0 180.5 62t59.5 190q0 258 -246 258h-321v-510z" />
<glyph unicode="&#x40a;" horiz-adv-x="1892" d="M125 0v1470h164v-608h629v608h163v-620h377q163 0 261 -118.5t98 -315.5q0 -187 -99 -301.5t-260 -114.5h-540v684h-629v-684h-164zM1081 170h328q121 0 180.5 62t59.5 190q0 258 -246 258h-322v-510z" />
<glyph unicode="&#x40b;" horiz-adv-x="1292" d="M25 1292v178h817v-178h-326v-418q12 19 99 46.5t159 27.5q53 0 109 -8t114.5 -28t104.5 -49.5t75 -77t29 -105.5v-680h-164v664q0 31 -26.5 55t-69 36.5t-86 18.5t-86.5 6q-96 0 -178 -29.5t-82 -72.5v-678h-162v1292h-327z" />
<glyph unicode="&#x40c;" horiz-adv-x="1130" d="M125 0v1470h164v-593h73l512 593h226l-592 -688l604 -782h-211l-557 717h-55v-717h-164zM162 1593l149 289h183l-220 -289h-112z" />
<glyph unicode="&#x40d;" horiz-adv-x="1220" d="M125 0v1470h158v-1194l608 1194h192v-1470h-157v1194l-619 -1194h-182zM438 1964h183l149 -289h-113z" />
<glyph unicode="&#x40e;" horiz-adv-x="1118" d="M23 1470h190l346 -706l346 706h191l-756 -1470h-180l303 610zM315 1798h82l4 -14q20 -77 62.5 -112.5t114.5 -35.5q75 0 113 35.5t61 126.5h79q-19 -145 -81.5 -211.5t-182.5 -66.5q-116 0 -176.5 66.5t-75.5 211.5z" />
<glyph unicode="&#x40f;" horiz-adv-x="1218" d="M125 0v1470h164v-1292h629v1292h163v-1470h-397v-246h-164v246h-395z" />
<glyph unicode="&#x410;" horiz-adv-x="1120" d="M23 0l452 1470h187l436 -1470h-178l-119 428h-484l-127 -428h-167zM367 606h374l-180 651z" />
<glyph unicode="&#x411;" horiz-adv-x="1128" d="M125 0v1470h854v-178h-690v-444h295q84 0 153.5 -13.5t117.5 -36t84 -55.5t57.5 -68t34.5 -77.5t17.5 -80t4.5 -79.5q0 -184 -113.5 -311t-294.5 -127h-520zM289 170h348q120 0 186 70t66 198q0 250 -281 250h-319v-518z" />
<glyph unicode="&#x412;" horiz-adv-x="1120" d="M125 0v1470h530q154 0 247 -101.5t93 -268.5q0 -106 -38 -179.5t-121 -127.5q118 -58 167.5 -139t49.5 -216q0 -198 -112 -318t-296 -120h-520zM289 170h348q120 0 186 70t66 198q0 250 -281 250h-319v-518zM289 848h293q128 0 188.5 56.5t60.5 176.5q0 113 -60 166 t-187 53h-295v-452z" />
<glyph unicode="&#x413;" horiz-adv-x="1001" d="M125 0v1470h833v-178h-669v-1292h-164z" />
<glyph unicode="&#x414;" horiz-adv-x="1363" d="M43 176h109q39 0 70.5 29t54 86.5t40 127.5t28.5 170.5t18 195t10.5 220.5t4.5 228.5t1 236.5h782v-1294h160v-422h-164v246h-950v-246h-164v422zM403 180h594v1116h-452q0 -132 -1 -219.5t-9 -233t-22 -251t-42 -220t-68 -192.5z" />
<glyph unicode="&#x415;" horiz-adv-x="1099" d="M125 0v1470h876v-178h-712v-448h657v-178h-657v-488h725v-178h-889z" />
<glyph unicode="&#x416;" horiz-adv-x="1847" d="M18 0l605 782l-592 688h225l512 -593h74v593h164v-593h73l512 593h226l-592 -688l604 -782h-211l-557 717h-55v-717h-164v717h-56l-557 -717h-211z" />
<glyph unicode="&#x417;" horiz-adv-x="1107" d="M86 475h154q1 -72 11.5 -116t35.5 -85q85 -143 291 -143q147 0 228 66.5t81 187.5q0 56 -14.5 106t-44.5 93t-83.5 68.5t-123.5 25.5h-242v145h250q66 0 113 45t66 102.5t19 114.5q0 120 -71.5 187t-200.5 67q-174 0 -254 -125q-39 -66 -47 -174h-154q7 98 20.5 154.5 t41.5 110.5q54 98 155.5 151t237.5 53q220 0 330 -137q100 -130 100 -311q0 -200 -127 -293q186 -97 186 -365q0 -206 -127 -324t-348 -118q-138 0 -232 43.5t-163 140.5q-47 66 -67 139t-21 191z" />
<glyph unicode="&#x418;" horiz-adv-x="1220" d="M125 0v1470h158v-1194l608 1194h192v-1470h-157v1194l-619 -1194h-182z" />
<glyph unicode="&#x419;" horiz-adv-x="1220" d="M125 0v1470h158v-1194l608 1194h192v-1470h-157v1194l-619 -1194h-182zM381 1798h82l4 -14q20 -77 62 -112.5t114 -35.5q75 0 113 35.5t61 126.5h80q-19 -145 -81.5 -211.5t-182.5 -66.5q-116 0 -176.5 66.5t-75.5 211.5z" />
<glyph unicode="&#x41a;" horiz-adv-x="1130" d="M125 0v1470h164v-593h73l512 593h226l-592 -688l604 -782h-211l-557 717h-55v-717h-164z" />
<glyph unicode="&#x41b;" horiz-adv-x="1189" d="M43 0v176q39 0 70.5 29t54 86.5t40 127.5t28.5 170.5t18 195t10.5 220.5t4.5 228.5t1 236.5h783v-1470h-164v1296h-453q0 -93 -0.5 -149.5t-2.5 -161t-8 -174t-15 -169.5t-24 -168.5t-35.5 -149t-50 -133t-66 -99.5t-85.5 -69.5t-106 -22.5z" />
<glyph unicode="&#x41c;" horiz-adv-x="1417" d="M125 0v1470h233l347 -1249l344 1249h231v-1470h-158v868v93l4 286l-344 -1247h-159l-344 1245l2 -282l2 -95v-868h-158z" />
<glyph unicode="&#x41d;" horiz-adv-x="1218" d="M125 0v1470h164v-608h629v608h163v-1470h-163v684h-629v-684h-164z" />
<glyph unicode="&#x41e;" horiz-adv-x="1306" d="M66 733q0 175 47.5 329t134.5 261q151 186 414 186q159 0 282 -82t201 -239q96 -200 96 -455q0 -172 -47 -324t-135 -262q-72 -90 -176.5 -138t-229.5 -48t-229 47.5t-176 138.5q-88 110 -135 262t-47 324zM233 733q0 -267 115.5 -430.5t304.5 -163.5t304.5 164 t115.5 432q0 266 -115 431t-299 165q-195 0 -310.5 -162t-115.5 -436z" />
<glyph unicode="&#x41f;" horiz-adv-x="1218" d="M125 0v1470h956v-1470h-163v1292h-629v-1292h-164z" />
<glyph unicode="&#x420;" horiz-adv-x="1120" d="M125 0v1470h541q161 0 259.5 -114t98.5 -301q0 -197 -97.5 -315.5t-260.5 -118.5h-377v-621h-164zM289 791h321q246 0 246 258q0 127 -59 189t-181 62h-327v-509z" />
<glyph unicode="&#x421;" horiz-adv-x="1204" d="M66 733q0 356 152.5 566t410.5 210q135 0 243 -60.5t172 -172.5q34 -58 51 -110.5t27 -137.5h-157q-20 88 -44.5 136.5t-68.5 88.5q-91 78 -219 78q-187 0 -293.5 -160.5t-106.5 -443.5q0 -279 102.5 -433.5t287.5 -154.5q164 0 266 150q32 49 50.5 102.5t37.5 149.5h158 q-31 -172 -70 -266.5t-109 -165.5q-67 -72 -157.5 -110t-190.5 -38q-249 0 -395.5 208.5t-146.5 563.5z" />
<glyph unicode="&#x422;" horiz-adv-x="1030" d="M25 1292v178h981v-178h-408v-1292h-164v1292h-409z" />
<glyph unicode="&#x423;" horiz-adv-x="1122" d="M25 1470h190l346 -706l346 706h191l-756 -1470h-180l303 610z" />
<glyph unicode="&#x424;" horiz-adv-x="1509" d="M70 743q0 155 41.5 256.5t130.5 180.5q97 86 192 113.5t240 27.5v149h162v-149q142 0 241 -27.5t189 -113.5q102 -96 138 -187.5t36 -249.5q0 -277 -172 -413q-116 -92 -207 -134t-225 -42v-154h-162v154q-285 0 -443 172q-83 89 -122 188.5t-39 228.5zM248 741 q0 -91 23.5 -165.5t73 -132t133 -89.5t196.5 -32v829q-114 0 -198 -32t-133 -89.5t-72 -129t-23 -159.5zM836 322q114 0 198.5 32.5t133 91t71.5 132t23 163.5q0 91 -23 163t-71.5 129t-132.5 87.5t-199 30.5v-829z" />
<glyph unicode="&#x425;" horiz-adv-x="1103" d="M25 0l430 754l-404 716h205l305 -563l305 563h195l-404 -716l422 -754h-200l-324 604l-334 -604h-196z" />
<glyph unicode="&#x426;" horiz-adv-x="1320" d="M125 0v1470h164v-1292h629v1292h163v-1294h197v-422h-164v246h-989z" />
<glyph unicode="&#x427;" horiz-adv-x="1120" d="M127 791v679h164v-663q0 -41 47 -69t104.5 -38t116.5 -10q95 0 177.5 29.5t82.5 73.5v677h164v-1470h-164v596q-12 -19 -100 -46.5t-160 -27.5q-53 0 -109 8t-114.5 28.5t-104.5 50t-75 77t-29 105.5z" />
<glyph unicode="&#x428;" horiz-adv-x="1429" d="M125 0v1470h164v-1292l338 2v1290h164v-1292h337v1292h164v-1470h-1167z" />
<glyph unicode="&#x429;" horiz-adv-x="1531" d="M125 0v1470h164v-1292l338 2v1290h164v-1292h337v1292h164v-1294h197v-422h-164v246h-1200z" />
<glyph unicode="&#x42a;" horiz-adv-x="1456" d="M25 1292v178h620v-620h377q163 0 260.5 -118.5t97.5 -315.5q0 -187 -98.5 -301.5t-259.5 -114.5h-541v1292h-456zM645 170h328q121 0 180 62t59 190q0 258 -245 258h-322v-510z" />
<glyph unicode="&#x42b;" horiz-adv-x="1603" d="M125 0v1470h164v-620h377q163 0 260.5 -118.5t97.5 -315.5q0 -187 -98.5 -301.5t-259.5 -114.5h-541zM289 170h327q121 0 180.5 62t59.5 190q0 258 -246 258h-321v-510zM1305 0v1470h161v-1470h-161z" />
<glyph unicode="&#x42c;" horiz-adv-x="1099" d="M125 0v1470h164v-620h377q163 0 260.5 -118.5t97.5 -315.5q0 -187 -98.5 -301.5t-259.5 -114.5h-541zM289 170h327q121 0 180.5 62t59.5 190q0 258 -246 258h-321v-510z" />
<glyph unicode="&#x42d;" horiz-adv-x="1208" d="M66 541h157q19 -96 37.5 -149.5t50.5 -102.5q102 -150 267 -150q173 0 275 138.5t112 388.5h-572v178h568q-20 231 -123.5 359t-270.5 128q-128 0 -219 -78q-44 -39 -68 -87.5t-44 -137.5h-158q10 85 27 137.5t51 110.5q64 112 172 172.5t243 60.5q258 0 411 -210 t153 -566q0 -355 -147 -563.5t-396 -208.5q-100 0 -190.5 38t-157.5 110q-69 71 -108 165.5t-70 266.5z" />
<glyph unicode="&#x42e;" horiz-adv-x="1869" d="M125 0v1470h164v-608h346q30 280 176 461q151 186 414 186q159 0 282 -82t201 -239q96 -200 96 -455q0 -172 -47 -324t-135 -262q-72 -91 -176 -138.5t-229 -47.5t-229.5 48t-176.5 138q-168 211 -180 537h-342v-684h-164zM797 733q0 -267 115.5 -430.5t304.5 -163.5 t304 163.5t115 432.5q0 266 -114.5 431t-298.5 165q-195 0 -310.5 -162t-115.5 -436z" />
<glyph unicode="&#x42f;" horiz-adv-x="1134" d="M86 0l479 623h-108q-162 -3 -260.5 116t-98.5 316q0 187 99 301t260 114h540v-1470h-163v621h-58l-479 -621h-211zM266 1049q0 -258 246 -258h322v509h-328q-122 0 -181 -62t-59 -189z" />
<glyph unicode="&#x430;" d="M61 283q0 139 69.5 225t197.5 106l243 37q41 6 59.5 35t18.5 88q0 88 -51.5 133t-151.5 45q-97 0 -144 -47.5t-62 -159.5h-136q5 80 16.5 126.5t37.5 89.5q87 141 299 141q157 0 246.5 -80t89.5 -219v-617q0 -63 47 -63q10 0 51 8v-131q-1 0 -7 -2l-12 -4 q-41 -14 -67 -14q-75 0 -109.5 37.5t-42.5 125.5q-72 -92 -144.5 -133t-166.5 -41q-127 0 -204 86.5t-77 227.5zM215 299q0 -86 41.5 -133t116.5 -47q110 0 191 75.5t81 176.5v176q-23 -21 -67.5 -33t-174.5 -35q-101 -17 -144.5 -58.5t-43.5 -121.5z" />
<glyph unicode="&#x431;" horiz-adv-x="905" d="M51.5 675.5q-0.5 33.5 1.5 90t5.5 101t12 103t20 104.5t30.5 96.5t43.5 88.5t58 71.5t74.5 53.5q56 28 181.5 44t191.5 47q39 18 56 42.5t17 71.5h115q0 -154 -98 -209q-76 -43 -197.5 -68t-159.5 -38q-81 -27 -149 -160q-38 -74 -39 -105q0 -7 4 -3q104 96 248 96 q177 0 289 -158.5t112 -406.5q0 -251 -113 -408.5t-294 -157.5q-180 0 -294 158t-114 408q0 13 -0.5 59t-1 79.5zM207 537q0 -186 69 -297t185 -111t185 111t69 297q0 184 -68.5 295.5t-181.5 111.5q-120 0 -189 -109.5t-69 -297.5z" />
<glyph unicode="&#x432;" horiz-adv-x="909" d="M111 0v1071h368q152 0 240 -76.5t88 -201.5q0 -80 -34 -132.5t-114 -82.5q121 -42 161 -90t40 -158q0 -147 -105 -238.5t-286 -91.5h-358zM250 143h211q121 0 186.5 48t65.5 139q0 88 -68.5 125t-212.5 37h-182v-349zM250 627h156q132 0 190.5 33t58.5 118 q0 82 -58.5 117t-188.5 35h-158v-303z" />
<glyph unicode="&#x433;" horiz-adv-x="690" d="M104 0v1071h562v-149h-414v-922h-148z" />
<glyph unicode="&#x434;" horiz-adv-x="1097" d="M43 135h125q38 0 75.5 133.5t61 352.5t23.5 450h590v-936h137v-391h-142v256h-729v-256h-141v391zM367 141h403v789h-295q5 -564 -108 -789z" />
<glyph unicode="&#x435;" d="M68 516q0 269 112.5 427.5t302.5 158.5q208 0 308 -207q38 -79 54 -169.5t21 -248.5h-641q3 -91 14 -142t37 -95q66 -113 199 -113q89 0 155.5 59t76.5 150h147q-29 -173 -130 -270t-253 -97q-187 0 -295 146.5t-108 400.5zM225 621h488q-10 143 -56 219 q-63 102 -180 102q-106 0 -176 -88.5t-76 -232.5z" />
<glyph unicode="&#x436;" horiz-adv-x="1347" d="M16 0l482 537l-461 534h186l379 -453v453h143v-453l379 453h187l-461 -534l481 -537h-190l-396 428v-428h-143v428l-395 -428h-191z" />
<glyph unicode="&#x437;" horiz-adv-x="839" d="M49 344h144q8 -114 61.5 -165.5t165.5 -51.5q97 0 152 45t55 123q0 34 -8 65.5t-26 62.5t-54 50t-86 19h-142v141h119q158 0 158 160q0 70 -48.5 110.5t-133.5 40.5q-97 0 -146 -43.5t-53 -134.5h-144q9 161 95 248.5t237 87.5q152 0 244 -92t92 -246q0 -132 -86 -203 q129 -73 129 -239q0 -161 -98.5 -257t-265.5 -96q-109 0 -191 42t-123 120q-23 40 -32.5 86t-14.5 127z" />
<glyph unicode="&#x438;" horiz-adv-x="931" d="M109 0v1071h147v-885l381 885h188v-1071h-147v874l-381 -874h-188z" />
<glyph unicode="&#x439;" horiz-adv-x="931" d="M109 0v1071h147v-885l381 885h188v-1071h-147v874l-381 -874h-188zM244 1518h82l4 -15q20 -77 62 -112t114 -35q75 0 113 35.5t61 126.5h80q-19 -145 -81.5 -212t-182.5 -67q-116 0 -176.5 67t-75.5 212z" />
<glyph unicode="&#x43a;" horiz-adv-x="854" d="M109 0v1071h143v-453l379 453h186l-461 -534l482 -537h-191l-397 428v-428h-141z" />
<glyph unicode="&#x43b;" horiz-adv-x="899" d="M43 0v143q160 0 160 928h590v-1071h-148v930h-295q-1 -54 0 -116t-2.5 -130t-8 -137t-16 -136t-25.5 -128t-38.5 -113t-54 -89.5t-71 -59t-91.5 -21.5z" />
<glyph unicode="&#x43c;" horiz-adv-x="1103" d="M109 0v1071h215l229 -878l229 878h215v-1071h-147v725l-217 -725h-160l-217 725v-725h-147z" />
<glyph unicode="&#x43d;" horiz-adv-x="931" d="M109 0v1071h147v-422h422v422h147v-1071h-147v506h-422v-506h-147z" />
<glyph unicode="&#x43e;" d="M59 537q0 254 114 409.5t300 155.5q177 0 289 -158.5t112 -406.5q0 -251 -113 -408.5t-294 -157.5q-180 0 -294 158t-114 408zM213 537q0 -186 69 -297t185 -111t185 111t69 297q0 184 -68.5 295.5t-181.5 111.5q-120 0 -189 -109.5t-69 -297.5z" />
<glyph unicode="&#x43f;" horiz-adv-x="931" d="M109 0v1071h716v-1071h-147v930h-422v-930h-147z" />
<glyph unicode="&#x440;" d="M98 -424v1495h140v-158q58 104 118.5 146.5t149.5 42.5q163 0 262.5 -149t99.5 -392q0 -267 -105 -429.5t-278 -162.5q-81 0 -138 36t-101 114v-543h-148zM240 502q0 -174 64 -274.5t175 -100.5q112 0 174 112.5t62 315.5q0 189 -60 288t-174 99q-241 0 -241 -440z" />
<glyph unicode="&#x441;" horiz-adv-x="839" d="M51 516q0 268 112.5 427t303.5 159q294 0 334 -391h-144q-19 121 -67.5 176t-136.5 55q-115 0 -179.5 -108.5t-64.5 -303.5q0 -194 60.5 -298.5t172.5 -104.5q168 0 215 252h144q-53 -410 -357 -410q-180 0 -286.5 148t-106.5 399z" />
<glyph unicode="&#x442;" horiz-adv-x="688" d="M25 922v149h639v-149h-246v-922h-148v922h-245z" />
<glyph unicode="&#x443;" horiz-adv-x="837" d="M16 1071h166l236 -878l237 878h164l-317 -1051q-36 -116 -58 -182t-48 -124t-44 -83t-48.5 -43.5t-58.5 -22t-77 -3.5q-27 0 -59 12l-13 4v164q44 -18 90 -18t70 27.5t49 109.5l37 110z" />
<glyph unicode="&#x444;" horiz-adv-x="1531" d="M66 561q0 243 99.5 392t262.5 149q89 0 149.5 -42.5t118.5 -146.5v373h140v-373q58 104 118.5 146.5t149.5 42.5q163 0 262.5 -149t99.5 -392q0 -267 -105 -429.5t-278 -162.5q-81 0 -138 36t-101 114v-543h-156v543q-44 -78 -101 -114t-138 -36q-173 0 -278 162.5 t-105 429.5zM219 555q0 -203 62 -315.5t174 -112.5q111 0 175 100.5t64 274.5q0 440 -241 440q-114 0 -174 -99t-60 -288zM838 502q0 -174 64 -274.5t175 -100.5q112 0 174 112.5t62 315.5q0 189 -60 288t-174 99q-241 0 -241 -440z" />
<glyph unicode="&#x445;" horiz-adv-x="839" d="M16 0l310 551l-295 520h190l203 -377l205 377h180l-297 -520l309 -551h-188l-219 403l-211 -403h-187z" />
<glyph unicode="&#x446;" horiz-adv-x="1026" d="M109 0v1071h147v-930h422v930h147v-936h158v-391h-141v256h-733z" />
<glyph unicode="&#x447;" horiz-adv-x="831" d="M109 559v512h147v-496q0 -75 178 -75q57 0 117.5 22t60.5 60v489h148v-1071h-148v406q-16 -19 -78 -34.5t-108 -15.5q-42 0 -83 5.5t-84 19.5t-75.5 36t-53.5 58.5t-21 83.5z" />
<glyph unicode="&#x448;" horiz-adv-x="1206" d="M109 0v1071h147v-930h274v930h148v-930h274v930h148v-1071h-991z" />
<glyph unicode="&#x449;" horiz-adv-x="1300" d="M109 0v1071h147v-930h274v930h148v-930h274v930h148v-936h157v-391h-141v256h-1007z" />
<glyph unicode="&#x44a;" horiz-adv-x="1048" d="M35 930v141h373v-444h258q84 0 152.5 -25t111.5 -67.5t65.5 -95t22.5 -109.5q0 -147 -105 -238.5t-286 -91.5h-359v930h-233zM408 143h210q121 0 186.5 48t65.5 139q0 88 -68 125t-212 37h-182v-349z" />
<glyph unicode="&#x44b;" horiz-adv-x="1198" d="M109 0v1071h139v-444h258q84 0 152.5 -25t111.5 -67.5t65.5 -95t22.5 -109.5q0 -147 -105 -238.5t-286 -91.5h-358zM248 143h211q121 0 186.5 48t65.5 139q0 88 -68.5 125t-212.5 37h-182v-349zM944 0v1071h148v-1071h-148z" />
<glyph unicode="&#x44c;" horiz-adv-x="909" d="M109 0v1071h139v-444h258q84 0 152.5 -25t111.5 -67.5t65.5 -95t22.5 -109.5q0 -147 -105 -238.5t-286 -91.5h-358zM248 143h211q121 0 186.5 48t65.5 139q0 88 -68.5 125t-212.5 37h-182v-349z" />
<glyph unicode="&#x44d;" horiz-adv-x="839" d="M51 379h144q47 -252 215 -252q107 0 167.5 98.5t65.5 280.5h-340v143h332q-19 142 -79.5 217.5t-156.5 75.5q-88 0 -136.5 -55t-67.5 -176h-144q40 391 334 391q191 0 303.5 -159t112.5 -427q0 -251 -106.5 -399t-286.5 -148q-304 0 -357 410z" />
<glyph unicode="&#x44e;" horiz-adv-x="1366" d="M109 0v1071h147v-422h242q25 208 134 330.5t273 122.5q177 0 289.5 -158.5t112.5 -406.5q0 -251 -113.5 -408.5t-294.5 -157.5q-173 0 -285 148.5t-120 386.5h-238v-506h-147zM645 537q0 -186 69 -297t185 -111t185 111t69 297q0 184 -68.5 295.5t-181.5 111.5 q-120 0 -189 -109.5t-69 -297.5z" />
<glyph unicode="&#x44f;" horiz-adv-x="915" d="M49 0l408 446q-168 0 -267.5 87.5t-99.5 209.5q0 147 104.5 237.5t286.5 90.5h359v-1071h-140v446h-43l-417 -446h-191zM238 743q0 -88 68 -124.5t212 -36.5h182v348h-211q-121 0 -186 -47.5t-65 -139.5z" />
<glyph unicode="&#x450;" d="M68 516q0 269 112.5 427.5t302.5 158.5q208 0 308 -207q38 -79 54 -169.5t21 -248.5h-641q3 -91 14 -142t37 -95q66 -113 199 -113q89 0 155.5 59t76.5 150h147q-29 -173 -130 -270t-253 -97q-187 0 -295 146.5t-108 400.5zM225 621h488q-10 143 -56 219 q-63 102 -180 102q-106 0 -176 -88.5t-76 -232.5zM379 1565h182l150 -289h-113z" />
<glyph unicode="&#x451;" d="M68 516q0 269 112.5 427.5t302.5 158.5q208 0 308 -207q38 -79 54 -169.5t21 -248.5h-641q3 -91 14 -142t37 -95q66 -113 199 -113q89 0 155.5 59t76.5 150h147q-29 -173 -130 -270t-253 -97q-187 0 -295 146.5t-108 400.5zM225 621h488q-10 143 -56 219 q-63 102 -180 102q-106 0 -176 -88.5t-76 -232.5zM256 1237v209h154v-209h-154zM526 1237v209h154v-209h-154z" />
<glyph unicode="&#x452;" horiz-adv-x="1013" d="M25 1126v150h161v194h150v-194h328v-150h-328v-335q64 100 124 139t148 39q140 0 218.5 -98t78.5 -275v-530q0 -373 -319 -373v160q91 0 131.5 57t40.5 184v473q0 128 -40.5 185t-131.5 57q-120 0 -185 -93.5t-65 -264.5v-451h-148v1126h-163z" />
<glyph unicode="&#x453;" horiz-adv-x="690" d="M104 0v1071h562v-149h-414v-922h-148zM328 1225l151 288h180l-217 -288h-114z" />
<glyph unicode="&#x454;" horiz-adv-x="872" d="M59 516q0 268 112.5 427t303.5 159q294 0 334 -391h-143q-19 121 -68 176t-137 55q-96 0 -156.5 -75.5t-79.5 -217.5h332v-143h-340q4 -181 65.5 -280t168.5 -99q169 0 215 252h143q-53 -410 -356 -410q-180 0 -287 148.5t-107 398.5z" />
<glyph unicode="&#x455;" horiz-adv-x="839" d="M53 344h144q8 -114 61.5 -165.5t165.5 -51.5q97 0 152 45t55 123q0 60 -36 91.5t-138 62.5l-172 51q-203 61 -203 264q0 154 92 246t244 92q151 0 237 -87.5t95 -248.5h-144q-5 91 -53 134.5t-145 43.5q-85 0 -134 -40.5t-49 -110.5q0 -57 31 -85t127 -57l149 -45 q134 -41 190 -105.5t56 -178.5q0 -161 -98.5 -257t-265.5 -96q-109 0 -191 42t-123 120q-23 40 -32.5 86t-14.5 127z" />
<glyph unicode="&#x456;" horiz-adv-x="372" d="M113 0v1071h147v-1071h-147zM113 1266v204h147v-204h-147z" />
<glyph unicode="&#x457;" horiz-adv-x="649" d="M113 1237v209h153v-209h-153zM250 0v1071h147v-1071h-147zM383 1237v209h154v-209h-154z" />
<glyph unicode="&#x458;" horiz-adv-x="372" d="M-27 -268h31q69 0 89 23.5t20 107.5v1208h147v-1229q0 -140 -53.5 -206t-165.5 -66q-31 0 -68 6v156zM113 1266v204h147v-204h-147z" />
<glyph unicode="&#x459;" horiz-adv-x="1452" d="M43 0v143q160 0 160 928h588v-444h258q84 0 152.5 -25t111.5 -67.5t65.5 -95t22.5 -109.5q0 -147 -105 -238.5t-286 -91.5h-365v930h-295q-1 -54 0 -116t-2.5 -130t-8 -137t-16 -136t-25.5 -128t-38.5 -113t-54 -89.5t-71 -59t-91.5 -21.5zM791 143h210q121 0 186.5 48 t65.5 139q0 88 -68 125t-212 37h-182v-349z" />
<glyph unicode="&#x45a;" horiz-adv-x="1478" d="M109 0v1071h147v-422h422v422h139v-444h258q84 0 152.5 -25t111.5 -67.5t65.5 -95t22.5 -109.5q0 -147 -105 -238.5t-286 -91.5h-358v506h-422v-506h-147zM817 143h211q121 0 186.5 48t65.5 139q0 88 -68.5 125t-212.5 37h-182v-349z" />
<glyph unicode="&#x45b;" horiz-adv-x="1013" d="M25 1126v150h163v194h148v-194h328v-150h-328v-335q64 100 124 139t148 39q140 0 218.5 -98t78.5 -275v-596h-147v567q0 128 -40.5 185t-131.5 57q-120 0 -185 -93.5t-65 -264.5v-451h-148v1126h-163z" />
<glyph unicode="&#x45c;" horiz-adv-x="854" d="M109 0v1071h143v-453l379 453h186l-461 -534l482 -537h-191l-397 428v-428h-141zM406 1225l151 288h180l-217 -288h-114z" />
<glyph unicode="&#x45d;" horiz-adv-x="931" d="M109 0v1071h147v-885l381 885h188v-1071h-147v874l-381 -874h-188zM193 1513h180l151 -288h-114z" />
<glyph unicode="&#x45e;" horiz-adv-x="851" d="M25 1071h165l236 -878l238 878h163l-317 -1051q-36 -116 -58 -182t-48 -124t-44 -83t-48.5 -43.5t-58.5 -22t-77 -3.5q-27 0 -59 12l-13 4v164q44 -18 91 -18q46 0 69.5 27.5t48.5 109.5l37 110zM180 1518h82l4 -15q20 -77 62 -112t114 -35q75 0 113 35.5t61 126.5h80 q-19 -145 -81.5 -212t-182.5 -67q-116 0 -176.5 67t-75.5 212z" />
<glyph unicode="&#x45f;" horiz-adv-x="931" d="M109 0v1071h147v-930h422v930h147v-1071h-288v-256h-142v256h-286z" />
<glyph unicode="&#x48c;" horiz-adv-x="1099" d="M16 1169v117h109v184h164v-184h131v-117h-131v-319h377q163 0 260.5 -118.5t97.5 -315.5q0 -187 -98.5 -301.5t-259.5 -114.5h-541v1169h-109zM289 170h327q121 0 180.5 62t59.5 190q0 258 -246 258h-321v-510z" />
<glyph unicode="&#x48d;" horiz-adv-x="909" d="M14 819v117h95v135h139v-135h88v-117h-88v-192h258q84 0 152.5 -25t111.5 -67.5t65.5 -95t22.5 -109.5q0 -147 -105 -238.5t-286 -91.5h-358v819h-95zM248 143h211q121 0 186.5 48t65.5 139q0 88 -68.5 125t-212.5 37h-182v-349z" />
<glyph unicode="&#x48e;" horiz-adv-x="1120" d="M125 0v1470h541q161 0 259.5 -114t98.5 -301q0 -197 -97.5 -315.5t-260.5 -118.5h-377v-621h-164zM289 791h321q246 0 246 258q0 127 -59 189t-181 62h-327v-509z" />
<glyph unicode="&#x48f;" d="M98 -424v1495h140v-158q58 104 118.5 146.5t149.5 42.5q163 0 262.5 -149t99.5 -392q0 -267 -105 -429.5t-278 -162.5q-81 0 -138 36t-101 114v-543h-148zM240 502q0 -174 64 -274.5t175 -100.5q112 0 174 112.5t62 315.5q0 189 -60 288t-174 99q-241 0 -241 -440z" />
<glyph unicode="&#x490;" horiz-adv-x="1021" d="M137 0v1470h674v166h160v-344h-670v-1292h-164z" />
<glyph unicode="&#x491;" horiz-adv-x="704" d="M113 0v1071h428v139h133v-288h-414v-922h-147z" />
<glyph unicode="&#x492;" horiz-adv-x="1001" d="M0 948v123h125v399h833v-178h-669v-221h356v-123h-356v-948h-164v948h-125z" />
<glyph unicode="&#x493;" horiz-adv-x="690" d="M0 635v137h104v299h562v-149h-414v-150h219v-137h-219v-635h-148v635h-104z" />
<glyph unicode="&#x494;" horiz-adv-x="1112" d="M125 0v1470h833v-178h-669v-418q22 27 104.5 50.5t159.5 23.5q53 0 109 -8t114.5 -28t104.5 -49.5t75 -77t29 -105.5v-680q0 -58 -29 -105.5t-75 -77t-104.5 -49.5t-114.5 -28t-109 -8v168q43 0 86.5 6t86 18.5t69 36.5t26.5 55v648q0 31 -26.5 55t-69 36.5t-86 18.5 t-86.5 6q-96 0 -178 -29.5t-82 -72.5v-678h-168z" />
<glyph unicode="&#x495;" horiz-adv-x="690" d="M104 0v1071h562v-149h-414v-922h-148z" />
<glyph unicode="&#x496;" horiz-adv-x="1847" d="M18 0l605 782l-592 688h225l512 -593h74v593h164v-593h73l512 593h226l-592 -688l467 -606h137v-422h-164v246h-47l-557 717h-55v-717h-164v717h-56l-557 -717h-211z" />
<glyph unicode="&#x497;" horiz-adv-x="1347" d="M16 0l482 537l-461 534h186l379 -453v453h143v-453l379 453h187l-461 -534l360 -402h121v-391h-141v256h-49l-396 428v-428h-143v428l-395 -428h-191z" />
<glyph unicode="&#x498;" horiz-adv-x="1107" d="M86 475h154q1 -72 11.5 -116t35.5 -85q85 -143 291 -143q147 0 228 66.5t81 187.5q0 57 -13 106t-42 92.5t-83 69t-128 25.5h-242v145h250q66 0 113 45t66 102.5t19 114.5q0 120 -71.5 187t-200.5 67q-174 0 -254 -125q-39 -66 -47 -174h-154q7 98 20.5 154.5t41.5 110.5 q54 98 155.5 151t237.5 53q220 0 330 -137q100 -130 100 -311q0 -200 -127 -293q186 -97 186 -365q0 -206 -127 -324t-348 -118q-138 0 -232 43.5t-163 140.5q-47 66 -67 139t-21 191z" />
<glyph unicode="&#x499;" horiz-adv-x="839" d="M49 344h144q8 -114 61.5 -165.5t165.5 -51.5q97 0 152 45t55 123q0 34 -8 65.5t-26 62.5t-54 50t-86 19h-142v141h119q158 0 158 160q0 70 -48.5 110.5t-133.5 40.5q-97 0 -146 -43.5t-53 -134.5h-144q9 161 95 248.5t237 87.5q152 0 244 -92t92 -246q0 -132 -86 -203 q129 -73 129 -239q0 -161 -98.5 -257t-265.5 -96q-109 0 -191 42t-123 120q-23 40 -32.5 86t-14.5 127z" />
<glyph unicode="&#x49a;" horiz-adv-x="1130" d="M125 0v1470h164v-593h73l512 593h226l-592 -688l467 -606h137v-422h-164v246h-47l-557 717h-55v-717h-164z" />
<glyph unicode="&#x49b;" horiz-adv-x="854" d="M109 0v1071h143v-453l379 453h186l-461 -534l361 -402h121v-391h-142v256h-49l-397 428v-428h-141z" />
<glyph unicode="&#x49c;" horiz-adv-x="1130" d="M125 0v1470h164v-593h73l512 593h226l-592 -688l604 -782h-211l-557 717h-55v-717h-164z" />
<glyph unicode="&#x49d;" horiz-adv-x="854" d="M109 0v1071h143v-453l379 453h186l-461 -534l482 -537h-191l-397 428v-428h-141z" />
<glyph unicode="&#x49e;" horiz-adv-x="1130" d="M125 0v1470h164v-593h73l512 593h226l-592 -688l604 -782h-211l-557 717h-55v-717h-164z" />
<glyph unicode="&#x49f;" horiz-adv-x="854" d="M109 0v1071h143v-453l379 453h186l-461 -534l482 -537h-191l-397 428v-428h-141z" />
<glyph unicode="&#x4a0;" horiz-adv-x="1130" d="M125 0v1470h164v-593h73l512 593h226l-592 -688l604 -782h-211l-557 717h-55v-717h-164z" />
<glyph unicode="&#x4a1;" horiz-adv-x="854" d="M109 0v1071h143v-453l379 453h186l-461 -534l482 -537h-191l-397 428v-428h-141z" />
<glyph unicode="&#x4a2;" horiz-adv-x="1218" d="M125 0v1470h164v-608h629v608h163v-1294h146v-422h-164v246h-145v684h-629v-684h-164z" />
<glyph unicode="&#x4a3;" horiz-adv-x="931" d="M109 0v1071h147v-422h422v422h147v-936h107v-391h-141v256h-113v506h-422v-506h-147z" />
<glyph unicode="&#x4a4;" horiz-adv-x="1218" d="M125 0v1470h164v-608h629v608h163v-1470h-163v684h-629v-684h-164z" />
<glyph unicode="&#x4a5;" horiz-adv-x="931" d="M109 0v1071h147v-422h422v422h147v-1071h-147v506h-422v-506h-147z" />
<glyph unicode="&#x4a6;" horiz-adv-x="1218" d="M125 0v1470h956v-1470h-163v1292h-629v-1292h-164z" />
<glyph unicode="&#x4a7;" horiz-adv-x="931" d="M109 0v1071h716v-1071h-147v930h-422v-930h-147z" />
<glyph unicode="&#x4a8;" horiz-adv-x="1204" d="M66 733q0 356 152.5 566t410.5 210q135 0 243 -60.5t172 -172.5q34 -58 51 -110.5t27 -137.5h-157q-20 88 -44.5 136.5t-68.5 88.5q-91 78 -219 78q-187 0 -293.5 -160.5t-106.5 -443.5q0 -279 102.5 -433.5t287.5 -154.5q164 0 266 150q32 49 50.5 102.5t37.5 149.5h158 q-31 -172 -70 -266.5t-109 -165.5q-67 -72 -157.5 -110t-190.5 -38q-249 0 -395.5 208.5t-146.5 563.5z" />
<glyph unicode="&#x4a9;" horiz-adv-x="839" d="M51 516q0 268 112.5 427t303.5 159q294 0 334 -391h-144q-19 121 -67.5 176t-136.5 55q-115 0 -179.5 -108.5t-64.5 -303.5q0 -194 60.5 -298.5t172.5 -104.5q168 0 215 252h144q-53 -410 -357 -410q-180 0 -286.5 148t-106.5 399z" />
<glyph unicode="&#x4aa;" horiz-adv-x="1204" d="M66 733q0 356 152.5 566t410.5 210q135 0 243 -60.5t172 -172.5q34 -58 51 -110.5t27 -137.5h-157q-20 88 -44.5 136.5t-68.5 88.5q-91 78 -219 78q-187 0 -293.5 -160.5t-106.5 -443.5q0 -279 102.5 -433.5t287.5 -154.5q164 0 266 150q32 49 50.5 102.5t37.5 149.5h158 q-31 -172 -70 -266.5t-109 -165.5q-67 -72 -157.5 -110t-190.5 -38q-249 0 -395.5 208.5t-146.5 563.5z" />
<glyph unicode="&#x4ab;" horiz-adv-x="839" d="M51 516q0 268 112.5 427t303.5 159q294 0 334 -391h-144q-19 121 -67.5 176t-136.5 55q-115 0 -179.5 -108.5t-64.5 -303.5q0 -194 60.5 -298.5t172.5 -104.5q168 0 215 252h144q-53 -410 -357 -410q-180 0 -286.5 148t-106.5 399z" />
<glyph unicode="&#x4ac;" horiz-adv-x="1030" d="M25 1292v178h981v-178h-408v-1116h145v-422h-163v246h-146v1292h-409z" />
<glyph unicode="&#x4ad;" horiz-adv-x="688" d="M25 922v149h639v-149h-246v-787h106v-391h-141v256h-113v922h-245z" />
<glyph unicode="&#x4ae;" horiz-adv-x="1120" d="M23 1470h190l346 -706l346 706h191l-455 -878v-592h-164v592z" />
<glyph unicode="&#x4af;" horiz-adv-x="1120" d="M84 1071h190l285 -706l285 706h190l-393 -881v-589h-164v589z" />
<glyph unicode="&#x4b0;" horiz-adv-x="1120" d="M23 1470h190l346 -706l346 706h191l-455 -878v-33h389v-129h-389v-430h-164v430h-389v129h389v33z" />
<glyph unicode="&#x4b1;" horiz-adv-x="1120" d="M84 1071h190l285 -706l285 706h190l-393 -878h348v-148h-348v-444h-164v444h-348v148h348z" />
<glyph unicode="&#x4b2;" horiz-adv-x="1103" d="M25 0l430 754l-404 716h205l305 -563l305 563h195l-404 -716l324 -578h98v-422h-164v246h-36l-324 604l-334 -604h-196z" />
<glyph unicode="&#x4b3;" horiz-adv-x="839" d="M16 0l310 551l-295 520h190l203 -377l205 377h180l-297 -520l233 -416h76v-391h-141v256h-47l-219 403l-211 -403h-187z" />
<glyph unicode="&#x4b4;" horiz-adv-x="1320" d="M125 0v1470h164v-1292h629v1292h163v-1294h197v-422h-164v246h-989z" />
<glyph unicode="&#x4b5;" horiz-adv-x="1026" d="M109 0v1071h147v-930h422v930h147v-936h158v-391h-141v256h-733z" />
<glyph unicode="&#x4b6;" horiz-adv-x="1120" d="M127 791v679h164v-663q0 -41 47 -69t104.5 -38t116.5 -10q95 0 177.5 29.5t82.5 73.5v677h164v-1470h-164v596q-12 -19 -100 -46.5t-160 -27.5q-53 0 -109 8t-114.5 28.5t-104.5 50t-75 77t-29 105.5z" />
<glyph unicode="&#x4b7;" horiz-adv-x="831" d="M109 559v512h147v-496q0 -75 178 -75q57 0 117.5 22t60.5 60v489h148v-1071h-148v406q-16 -19 -78 -34.5t-108 -15.5q-42 0 -83 5.5t-84 19.5t-75.5 36t-53.5 58.5t-21 83.5z" />
<glyph unicode="&#x4b8;" horiz-adv-x="1120" d="M127 791v679h164v-663q0 -41 47 -69t104.5 -38t116.5 -10q95 0 177.5 29.5t82.5 73.5v677h164v-1470h-164v596q-12 -19 -100 -46.5t-160 -27.5q-53 0 -109 8t-114.5 28.5t-104.5 50t-75 77t-29 105.5z" />
<glyph unicode="&#x4b9;" horiz-adv-x="831" d="M109 559v512h147v-496q0 -75 178 -75q57 0 117.5 22t60.5 60v489h148v-1071h-148v406q-16 -19 -78 -34.5t-108 -15.5q-42 0 -83 5.5t-84 19.5t-75.5 36t-53.5 58.5t-21 83.5z" />
<glyph unicode="&#x4ba;" horiz-adv-x="1120" d="M127 0v1470h164v-596q12 19 100 46.5t160 27.5q53 0 109 -8t114.5 -28t104.5 -49.5t75 -77t29 -105.5v-680h-164v664q0 31 -26.5 55t-69 36.5t-86 18.5t-86.5 6q-96 0 -178 -29.5t-82 -72.5v-678h-164z" />
<glyph unicode="&#x4bb;" horiz-adv-x="831" d="M109 0v1071h147v-401q16 19 77.5 34t108.5 15q42 0 83 -5.5t84.5 -19.5t76 -36t53.5 -58.5t21 -83.5v-516h-148v500q0 75 -178 75q-57 0 -117.5 -21.5t-60.5 -59.5v-494h-147z" />
<glyph unicode="&#x4bc;" horiz-adv-x="1204" d="M66 733q0 356 152.5 566t410.5 210q135 0 243 -60.5t172 -172.5q34 -58 51 -110.5t27 -137.5h-157q-20 88 -44.5 136.5t-68.5 88.5q-91 78 -219 78q-187 0 -293.5 -160.5t-106.5 -443.5q0 -279 102.5 -433.5t287.5 -154.5q164 0 266 150q32 49 50.5 102.5t37.5 149.5h158 q-31 -172 -70 -266.5t-109 -165.5q-67 -72 -157.5 -110t-190.5 -38q-249 0 -395.5 208.5t-146.5 563.5z" />
<glyph unicode="&#x4bd;" horiz-adv-x="839" d="M51 516q0 268 112.5 427t303.5 159q294 0 334 -391h-144q-19 121 -67.5 176t-136.5 55q-115 0 -179.5 -108.5t-64.5 -303.5q0 -194 60.5 -298.5t172.5 -104.5q168 0 215 252h144q-53 -410 -357 -410q-180 0 -286.5 148t-106.5 399z" />
<glyph unicode="&#x4be;" horiz-adv-x="1204" d="M66 733q0 356 152.5 566t410.5 210q135 0 243 -60.5t172 -172.5q34 -58 51 -110.5t27 -137.5h-157q-20 88 -44.5 136.5t-68.5 88.5q-91 78 -219 78q-187 0 -293.5 -160.5t-106.5 -443.5q0 -279 102.5 -433.5t287.5 -154.5q164 0 266 150q32 49 50.5 102.5t37.5 149.5h158 q-31 -172 -70 -266.5t-109 -165.5q-67 -72 -157.5 -110t-190.5 -38q-249 0 -395.5 208.5t-146.5 563.5z" />
<glyph unicode="&#x4bf;" horiz-adv-x="839" d="M51 516q0 268 112.5 427t303.5 159q294 0 334 -391h-144q-19 121 -67.5 176t-136.5 55q-115 0 -179.5 -108.5t-64.5 -303.5q0 -194 60.5 -298.5t172.5 -104.5q168 0 215 252h144q-53 -410 -357 -410q-180 0 -286.5 148t-106.5 399z" />
<glyph unicode="&#x4c0;" horiz-adv-x="466" d="M154 0v1470h161v-1470h-161z" />
<glyph unicode="&#x4c1;" horiz-adv-x="1847" d="M18 0l605 782l-592 688h225l512 -593h74v593h164v-593h73l512 593h226l-592 -688l604 -782h-211l-557 717h-55v-717h-164v717h-56l-557 -717h-211zM666 1954h82l4 -15q20 -77 62 -112t114 -35q75 0 113 35.5t61 126.5h80q-19 -145 -81.5 -212t-182.5 -67 q-116 0 -176.5 67t-75.5 212z" />
<glyph unicode="&#x4c2;" horiz-adv-x="1347" d="M16 0l482 537l-461 534h186l379 -453v453h143v-453l379 453h187l-461 -534l481 -537h-190l-396 428v-428h-143v428l-395 -428h-191zM416 1554h82l4 -14q20 -77 62 -112t114 -35q75 0 113 35t61 126h80q-19 -145 -81.5 -211.5t-182.5 -66.5q-116 0 -176.5 66.5 t-75.5 211.5z" />
<glyph unicode="&#x4c3;" horiz-adv-x="1130" d="M125 0v1470h164v-593h73l512 593h226l-592 -688l604 -782h-211l-557 717h-55v-717h-164z" />
<glyph unicode="&#x4c4;" horiz-adv-x="854" d="M109 0v1071h143v-453l379 453h186l-461 -534l482 -537h-191l-397 428v-428h-141z" />
<glyph unicode="&#x4c7;" horiz-adv-x="1218" d="M125 0v1470h164v-608h629v608h163v-1470h-163v684h-629v-684h-164z" />
<glyph unicode="&#x4c8;" horiz-adv-x="931" d="M109 0v1071h147v-422h422v422h147v-1071h-147v506h-422v-506h-147z" />
<glyph unicode="&#x4cb;" horiz-adv-x="1120" d="M127 791v679h164v-663q0 -41 47 -69t104.5 -38t116.5 -10q95 0 177.5 29.5t82.5 73.5v677h164v-1470h-164v596q-12 -19 -100 -46.5t-160 -27.5q-53 0 -109 8t-114.5 28.5t-104.5 50t-75 77t-29 105.5z" />
<glyph unicode="&#x4cc;" horiz-adv-x="831" d="M109 559v512h147v-496q0 -75 178 -75q57 0 117.5 22t60.5 60v489h148v-1071h-148v406q-16 -19 -78 -34.5t-108 -15.5q-42 0 -83 5.5t-84 19.5t-75.5 36t-53.5 58.5t-21 83.5z" />
<glyph unicode="&#x4d0;" horiz-adv-x="1120" d="M23 0l452 1470h187l436 -1470h-178l-119 428h-484l-127 -428h-167zM301 1954h82l4 -15q20 -77 62 -112t114 -35q75 0 113 35.5t61 126.5h80q-19 -145 -81.5 -212t-182.5 -67q-116 0 -176.5 67t-75.5 212zM367 606h374l-180 651z" />
<glyph unicode="&#x4d1;" d="M61 283q0 139 69.5 225t197.5 106l243 37q41 6 59.5 35t18.5 88q0 88 -51.5 133t-151.5 45q-97 0 -144 -47.5t-62 -159.5h-136q5 80 16.5 126.5t37.5 89.5q87 141 299 141q157 0 246.5 -80t89.5 -219v-617q0 -63 47 -63q10 0 51 8v-131q-1 0 -7 -2l-12 -4 q-41 -14 -67 -14q-75 0 -109.5 37.5t-42.5 125.5q-72 -92 -144.5 -133t-166.5 -41q-127 0 -204 86.5t-77 227.5zM190 1554h82l4 -14q20 -77 62.5 -112t114.5 -35q75 0 113 35t61 126h80q-19 -145 -82 -211.5t-183 -66.5q-116 0 -176.5 66.5t-75.5 211.5zM215 299 q0 -86 41.5 -133t116.5 -47q110 0 191 75.5t81 176.5v176q-23 -21 -67.5 -33t-174.5 -35q-101 -17 -144.5 -58.5t-43.5 -121.5z" />
<glyph unicode="&#x4d2;" horiz-adv-x="1120" d="M23 0l452 1470h187l436 -1470h-178l-119 428h-484l-127 -428h-167zM348 1675v209h154v-209h-154zM367 606h374l-180 651zM618 1675v209h154v-209h-154z" />
<glyph unicode="&#x4d3;" d="M61 283q0 139 69.5 225t197.5 106l243 37q41 6 59.5 35t18.5 88q0 88 -51.5 133t-151.5 45q-97 0 -144 -47.5t-62 -159.5h-136q5 80 16.5 126.5t37.5 89.5q87 141 299 141q157 0 246.5 -80t89.5 -219v-617q0 -63 47 -63q10 0 51 8v-131q-1 0 -7 -2l-12 -4 q-41 -14 -67 -14q-75 0 -109.5 37.5t-42.5 125.5q-72 -92 -144.5 -133t-166.5 -41q-127 0 -204 86.5t-77 227.5zM215 299q0 -86 41.5 -133t116.5 -47q110 0 191 75.5t81 176.5v176q-23 -21 -67.5 -33t-174.5 -35q-101 -17 -144.5 -58.5t-43.5 -121.5zM236 1276v209h153v-209 h-153zM506 1276v209h153v-209h-153z" />
<glyph unicode="&#x4d4;" horiz-adv-x="1679" d="M14 0l490 1470h1081v-178h-653v-448h596v-178h-596v-488h665v-178h-829v428h-444l-134 -428h-176zM381 606h387v686h-164z" />
<glyph unicode="&#x4d5;" horiz-adv-x="1492" d="M61 283q0 139 69.5 225t197.5 106l243 37q41 6 59.5 35t18.5 88q0 88 -51.5 133t-151.5 45q-97 0 -143 -46.5t-63 -160.5h-136q5 80 16.5 126.5t37.5 89.5q86 141 309 141q99 0 158.5 -31.5t126.5 -120.5q72 86 134 119t154 33q208 0 308 -207q37 -76 53 -166t22 -252 h-643q3 -90 14.5 -141.5t39.5 -95.5q63 -113 196 -113q89 0 155.5 59t78.5 150h147q-27 -170 -133 -273q-97 -94 -254 -94q-118 0 -195.5 52.5t-134.5 171.5q-48 -81 -94 -127q-108 -97 -250 -97q-132 0 -210.5 85t-78.5 229zM215 299q0 -86 41.5 -133t116.5 -47 q110 0 191 75.5t81 176.5v176q-21 -21 -65.5 -33t-176.5 -35q-100 -17 -144 -59.5t-44 -120.5zM780 621h490q-6 82 -18.5 129.5t-39.5 89.5q-60 102 -180 102q-106 0 -175.5 -88t-76.5 -233z" />
<glyph unicode="&#x4d6;" horiz-adv-x="1099" d="M125 0v1470h876v-178h-712v-448h657v-178h-657v-488h725v-178h-889zM305 1954h82l4 -15q20 -77 62 -112t114 -35q75 0 113 35.5t61 126.5h80q-19 -145 -81.5 -212t-182.5 -67q-116 0 -176.5 67t-75.5 212z" />
<glyph unicode="&#x4d7;" d="M68 516q0 269 112.5 427.5t302.5 158.5q208 0 308 -207q38 -79 54 -169.5t21 -248.5h-641q3 -91 14 -142t37 -95q66 -113 199 -113q89 0 155.5 59t76.5 150h147q-29 -173 -130 -270t-253 -97q-187 0 -295 146.5t-108 400.5zM225 621h488q-10 143 -56 219 q-63 102 -180 102q-106 0 -176 -88.5t-76 -232.5zM289 1554h82l4 -14q20 -77 62 -112t114 -35q75 0 113 35t61 126h80q-19 -145 -81.5 -211.5t-182.5 -66.5q-116 0 -176.5 66.5t-75.5 211.5z" />
<glyph unicode="&#x4d8;" horiz-adv-x="1204" d="M66 930q31 172 70 266.5t108 165.5q67 71 157 109t191 38q249 0 396 -208.5t147 -563.5q0 -356 -153 -566t-411 -210q-135 0 -243 61t-172 173q-34 58 -51 110t-27 137h158q20 -89 44 -137.5t68 -87.5q91 -78 219 -78q187 0 293.5 160.5t106.5 443.5q0 280 -102 434 t-287 154q-166 0 -267 -149q-32 -49 -50.5 -102.5t-37.5 -149.5h-157z" />
<glyph unicode="&#x4d9;" horiz-adv-x="839" d="M51 360h144q19 -121 67.5 -176t136.5 -55q115 0 179.5 108.5t64.5 303.5q0 194 -60.5 298.5t-172.5 104.5q-168 0 -215 -252h-144q53 410 357 410q180 0 286.5 -148t106.5 -399q0 -268 -112.5 -427t-303.5 -159q-294 0 -334 391z" />
<glyph unicode="&#x4da;" horiz-adv-x="1204" d="M66 930q31 172 70 266.5t108 165.5q67 71 157 109t191 38q249 0 396 -208.5t147 -563.5q0 -356 -153 -566t-411 -210q-135 0 -243 61t-172 173q-34 58 -51 110t-27 137h158q20 -89 44 -137.5t68 -87.5q91 -78 219 -78q187 0 293.5 160.5t106.5 443.5q0 280 -102 434 t-287 154q-166 0 -267 -149q-32 -49 -50.5 -102.5t-37.5 -149.5h-157zM305 1675v209h154v-209h-154zM575 1675v209h154v-209h-154z" />
<glyph unicode="&#x4db;" horiz-adv-x="839" d="M51 360h144q19 -121 67.5 -176t136.5 -55q115 0 179.5 108.5t64.5 303.5q0 194 -60.5 298.5t-172.5 104.5q-168 0 -215 -252h-144q53 410 357 410q180 0 286.5 -148t106.5 -399q0 -268 -112.5 -427t-303.5 -159q-294 0 -334 391zM207 1276v209h153v-209h-153zM477 1276 v209h154v-209h-154z" />
<glyph unicode="&#x4dc;" horiz-adv-x="1847" d="M18 0l605 782l-592 688h225l512 -593h74v593h164v-593h73l512 593h226l-592 -688l604 -782h-211l-557 717h-55v-717h-164v717h-56l-557 -717h-211zM711 1675v209h153v-209h-153zM981 1675v209h154v-209h-154z" />
<glyph unicode="&#x4dd;" horiz-adv-x="1347" d="M16 0l482 537l-461 534h186l379 -453v453h143v-453l379 453h187l-461 -534l481 -537h-190l-396 428v-428h-143v428l-395 -428h-191zM461 1276v209h153v-209h-153zM731 1276v209h154v-209h-154z" />
<glyph unicode="&#x4de;" horiz-adv-x="1107" d="M86 475h154q1 -72 11.5 -116t35.5 -85q85 -143 291 -143q147 0 228 66.5t81 187.5q0 57 -13 105.5t-42 91.5t-83 69t-128 27h-242v145h250q66 0 113 45t66 102.5t19 114.5q0 120 -71.5 187t-200.5 67q-174 0 -254 -125q-39 -66 -47 -174h-154q7 98 20.5 154.5t41.5 110.5 q54 98 155.5 151t237.5 53q220 0 330 -137q100 -130 100 -311q0 -200 -127 -293q186 -97 186 -365q0 -206 -127 -324t-348 -118q-138 0 -232 43.5t-163 140.5q-47 66 -67 139t-21 191zM330 1675v209h153v-209h-153zM600 1675v209h154v-209h-154z" />
<glyph unicode="&#x4df;" horiz-adv-x="839" d="M49 344h144q8 -114 61.5 -165.5t165.5 -51.5q97 0 152 45t55 123q0 34 -7.5 65t-25 62.5t-54 50.5t-87.5 19h-142v141h119q158 0 158 160q0 70 -48.5 110.5t-133.5 40.5q-97 0 -146 -43.5t-53 -134.5h-144q9 161 95 248.5t237 87.5q152 0 244 -92t92 -246 q0 -132 -86 -203q129 -73 129 -239q0 -161 -98.5 -257t-265.5 -96q-109 0 -191 42t-123 120q-23 40 -32.5 86t-14.5 127zM186 1276v209h154v-209h-154zM457 1276v209h153v-209h-153z" />
<glyph unicode="&#x4e0;" horiz-adv-x="1107" d="M86 475h154q1 -72 11.5 -116t35.5 -85q85 -143 291 -143q147 0 228 66.5t81 187.5q0 57 -13 106t-42 92.5t-83 69t-128 25.5h-242v145h250q66 0 113 45t66 102.5t19 114.5q0 120 -71.5 187t-200.5 67q-174 0 -254 -125q-39 -66 -47 -174h-154q7 98 20.5 154.5t41.5 110.5 q54 98 155.5 151t237.5 53q220 0 330 -137q100 -130 100 -311q0 -200 -127 -293q186 -97 186 -365q0 -206 -127 -324t-348 -118q-138 0 -232 43.5t-163 140.5q-47 66 -67 139t-21 191z" />
<glyph unicode="&#x4e1;" horiz-adv-x="839" d="M49 344h144q8 -114 61.5 -165.5t165.5 -51.5q97 0 152 45t55 123q0 34 -8 65.5t-26 62.5t-54 50t-86 19h-142v141h119q158 0 158 160q0 70 -48.5 110.5t-133.5 40.5q-97 0 -146 -43.5t-53 -134.5h-144q9 161 95 248.5t237 87.5q152 0 244 -92t92 -246q0 -132 -86 -203 q129 -73 129 -239q0 -161 -98.5 -257t-265.5 -96q-109 0 -191 42t-123 120q-23 40 -32.5 86t-14.5 127z" />
<glyph unicode="&#x4e2;" horiz-adv-x="1220" d="M125 0v1470h158v-1194l608 1194h192v-1470h-157v1194l-619 -1194h-182zM340 1632v117h528v-117h-528z" />
<glyph unicode="&#x4e3;" horiz-adv-x="931" d="M109 0v1071h147v-885l381 885h188v-1071h-147v874l-381 -874h-188zM205 1225v116h524v-116h-524z" />
<glyph unicode="&#x4e4;" horiz-adv-x="1220" d="M125 0v1470h158v-1194l608 1194h192v-1470h-157v1194l-619 -1194h-182zM393 1632v209h152v-209h-152zM664 1632v209h151v-209h-151z" />
<glyph unicode="&#x4e5;" horiz-adv-x="931" d="M109 0v1071h147v-885l381 885h188v-1071h-147v874l-381 -874h-188zM254 1225v209h156v-209h-156zM524 1225v209h156v-209h-156z" />
<glyph unicode="&#x4e6;" horiz-adv-x="1306" d="M66 733q0 175 47.5 329t134.5 261q151 186 414 186q159 0 282 -82t201 -239q96 -200 96 -455q0 -172 -47 -324t-135 -262q-72 -90 -176.5 -138t-229.5 -48t-229 47.5t-176 138.5q-88 110 -135 262t-47 324zM233 733q0 -267 115.5 -430.5t304.5 -163.5t304.5 164 t115.5 432q0 266 -115 431t-299 165q-195 0 -310.5 -162t-115.5 -436zM440 1675v209h154v-209h-154zM711 1675v209h153v-209h-153z" />
<glyph unicode="&#x4e7;" d="M59 537q0 254 114 409.5t300 155.5q177 0 289 -158.5t112 -406.5q0 -251 -113 -408.5t-294 -157.5q-180 0 -294 158t-114 408zM213 537q0 -186 69 -297t185 -111t185 111t69 297q0 184 -68.5 295.5t-181.5 111.5q-120 0 -189 -109.5t-69 -297.5zM256 1276v209h154v-209 h-154zM526 1276v209h154v-209h-154z" />
<glyph unicode="&#x4e8;" horiz-adv-x="1306" d="M66 733q0 175 47.5 329t134.5 261q151 186 414 186q159 0 282 -82t201 -239q96 -200 96 -455q0 -172 -47 -324t-135 -262q-72 -90 -176.5 -138t-229.5 -48t-229 47.5t-176 138.5q-88 110 -135 262t-47 324zM236 676q12 -244 125.5 -390.5t291.5 -146.5t292 146t126 391 h-835zM236 793h835q-12 243 -125.5 390.5t-286.5 147.5q-184 0 -297.5 -145t-125.5 -393z" />
<glyph unicode="&#x4e9;" d="M59 537q0 254 114 409.5t300 155.5q177 0 289 -158.5t112 -406.5q0 -251 -113 -408.5t-294 -157.5q-180 0 -294 158t-114 408zM215 473q12 -158 80 -251t172 -93t172 93t80 251h-504zM215 590h504q-9 161 -76.5 257.5t-171.5 96.5q-110 0 -178.5 -95t-77.5 -259z" />
<glyph unicode="&#x4ea;" horiz-adv-x="1306" d="M66 733q0 175 47.5 329t134.5 261q151 186 414 186q159 0 282 -82t201 -239q96 -200 96 -455q0 -172 -47 -324t-135 -262q-72 -90 -176.5 -138t-229.5 -48t-229 47.5t-176 138.5q-88 110 -135 262t-47 324zM236 676q12 -244 125.5 -390.5t291.5 -146.5t292 146t126 391 h-835zM236 793h835q-12 243 -125.5 390.5t-286.5 147.5q-184 0 -297.5 -145t-125.5 -393zM440 1675v209h154v-209h-154zM711 1675v209h153v-209h-153z" />
<glyph unicode="&#x4eb;" d="M59 537q0 254 114 409.5t300 155.5q177 0 289 -158.5t112 -406.5q0 -251 -113 -408.5t-294 -157.5q-180 0 -294 158t-114 408zM215 473q12 -158 80 -251t172 -93t172 93t80 251h-504zM215 590h504q-9 161 -76.5 257.5t-171.5 96.5q-110 0 -178.5 -95t-77.5 -259z M256 1276v209h154v-209h-154zM526 1276v209h154v-209h-154z" />
<glyph unicode="&#x4ec;" horiz-adv-x="1208" d="M66 541h157q19 -96 37.5 -149.5t50.5 -102.5q102 -150 267 -150q173 0 275 138.5t112 388.5h-572v178h568q-20 231 -123.5 359t-270.5 128q-128 0 -219 -78q-44 -39 -68 -87.5t-44 -137.5h-158q10 85 27 137.5t51 110.5q64 112 172 172.5t243 60.5q258 0 411 -210 t153 -566q0 -355 -147 -563.5t-396 -208.5q-100 0 -190.5 38t-157.5 110q-69 71 -108 165.5t-70 266.5zM307 1675v209h154v-209h-154zM578 1675v209h153v-209h-153z" />
<glyph unicode="&#x4ed;" horiz-adv-x="839" d="M51 379h144q47 -252 215 -252q107 0 167.5 98.5t65.5 280.5h-340v143h332q-19 142 -79.5 217.5t-156.5 75.5q-88 0 -136.5 -55t-67.5 -176h-144q40 391 334 391q191 0 303.5 -159t112.5 -427q0 -251 -106.5 -399t-286.5 -148q-304 0 -357 410zM203 1276v209h153v-209 h-153zM473 1276v209h154v-209h-154z" />
<glyph unicode="&#x4ee;" horiz-adv-x="1122" d="M25 1470h190l346 -706l346 706h191l-756 -1470h-180l303 610zM299 1675v117h526v-117h-526z" />
<glyph unicode="&#x4ef;" horiz-adv-x="837" d="M16 1071h166l236 -878l237 878h164l-317 -1051q-36 -116 -58 -182t-48 -124t-44 -83t-48.5 -43.5t-58.5 -22t-77 -3.5q-27 0 -59 12l-13 4v164q44 -18 90 -18t70 27.5t49 109.5l37 110zM156 1276v117h526v-117h-526z" />
<glyph unicode="&#x4f0;" horiz-adv-x="1122" d="M25 1470h190l346 -706l346 706h191l-756 -1470h-180l303 610zM350 1675v209h154v-209h-154zM621 1675v209h153v-209h-153z" />
<glyph unicode="&#x4f1;" horiz-adv-x="837" d="M16 1071h166l236 -878l237 878h164l-317 -1051q-36 -116 -58 -182t-48 -124t-44 -83t-48.5 -43.5t-58.5 -22t-77 -3.5q-27 0 -59 12l-13 4v164q44 -18 90 -18t70 27.5t49 109.5l37 110zM207 1276v209h153v-209h-153zM477 1276v209h154v-209h-154z" />
<glyph unicode="&#x4f2;" horiz-adv-x="1122" d="M25 1470h190l346 -706l346 706h191l-756 -1470h-180l303 610zM244 1675l149 289h182l-219 -289h-112zM547 1675l149 289h183l-220 -289h-112z" />
<glyph unicode="&#x4f3;" horiz-adv-x="837" d="M16 1071h166l236 -878l237 878h164l-317 -1051q-36 -116 -58 -182t-48 -124t-44 -83t-48.5 -43.5t-58.5 -22t-77 -3.5q-27 0 -59 12l-13 4v164q44 -18 90 -18t70 27.5t49 109.5l37 110zM100 1276l150 289h182l-219 -289h-113zM403 1276l150 289h182l-219 -289h-113z" />
<glyph unicode="&#x4f4;" horiz-adv-x="1120" d="M127 791v679h164v-663q0 -41 47 -69t104.5 -38t116.5 -10q95 0 177.5 29.5t82.5 73.5v677h164v-1470h-164v596q-12 -19 -100 -46.5t-160 -27.5q-53 0 -109 8t-114.5 28.5t-104.5 50t-75 77t-29 105.5zM344 1632v209h152v-209h-152zM614 1632v209h152v-209h-152z" />
<glyph unicode="&#x4f5;" horiz-adv-x="831" d="M109 559v512h147v-496q0 -75 178 -75q57 0 117.5 22t60.5 60v489h148v-1071h-148v406q-16 -19 -78 -34.5t-108 -15.5q-42 0 -83 5.5t-84 19.5t-75.5 36t-53.5 58.5t-21 83.5zM221 1225v209h156v-209h-156zM492 1225v209h155v-209h-155z" />
<glyph unicode="&#x4f8;" horiz-adv-x="1603" d="M125 0v1470h164v-620h377q163 0 260.5 -118.5t97.5 -315.5q0 -187 -98.5 -301.5t-259.5 -114.5h-541zM289 170h327q121 0 180.5 62t59.5 190q0 258 -246 258h-321v-510zM584 1675v209h153v-209h-153zM854 1675v209h154v-209h-154zM1305 0v1470h161v-1470h-161z" />
<glyph unicode="&#x4f9;" horiz-adv-x="1198" d="M109 0v1073l139 -2v-444h258q84 0 152.5 -25t111.5 -67.5t65.5 -95t22.5 -109.5q0 -147 -105 -238.5t-286 -91.5h-358zM248 143h211q121 0 186.5 48t65.5 139q0 88 -68.5 125t-212.5 37h-182v-349zM387 1276v209h154v-209h-154zM657 1276v209h154v-209h-154zM944 0v1071 h148v-1071h-148z" />
<glyph unicode="&#xe3f;" horiz-adv-x="1120" d="M125 0v1470h369v170h108v-170h53q154 0 247 -101.5t93 -268.5q0 -106 -38 -179.5t-121 -127.5q118 -58 167.5 -139t49.5 -216q0 -198 -112 -318t-296 -120h-43v-170h-108v170h-369zM289 170h205v518h-205v-518zM289 848h205v452h-205v-452zM602 170h35q120 0 186 70 t66 198q0 250 -281 250h-6v-518zM602 848q117 5 173 61.5t56 171.5q0 108 -55.5 161.5t-173.5 57.5v-452z" />
<glyph unicode="&#x1e0c;" horiz-adv-x="1212" d="M135 0v1470h490q232 0 370 -195.5t138 -522.5q0 -158 -33 -294t-96.5 -238.5t-162.5 -161t-223 -58.5h-483zM299 170h315q163 0 257 151.5t94 413.5q0 273 -93.5 419t-267.5 146h-305v-1130zM516 -172h176v-197h-176v197z" />
<glyph unicode="&#x1e0d;" d="M59 561q0 243 100 392t263 149q91 0 153 -45t115 -148v561h148v-1470h-140v154q-47 -100 -106 -142.5t-148 -42.5q-175 0 -280 161.5t-105 430.5zM213 551q0 -201 61.5 -312.5t171.5 -111.5q112 0 177 100t65 281q0 211 -60.5 322.5t-174.5 111.5q-240 0 -240 -391z M379 -172h176v-197h-176v197z" />
<glyph unicode="&#x1e0e;" horiz-adv-x="1212" d="M135 0v1470h490q232 0 370 -195.5t138 -522.5q0 -158 -33 -294t-96.5 -238.5t-162.5 -161t-223 -58.5h-483zM299 170h315q163 0 257 151.5t94 413.5q0 273 -93.5 419t-267.5 146h-305v-1130zM342 -211h526v-117h-526v117z" />
<glyph unicode="&#x1e0f;" d="M59 561q0 243 100 392t263 149q91 0 153 -45t115 -148v561h148v-1470h-140v154q-47 -100 -106 -142.5t-148 -42.5q-175 0 -280 161.5t-105 430.5zM205 -211h526v-117h-526v117zM213 551q0 -201 61.5 -312.5t171.5 -111.5q112 0 177 100t65 281q0 211 -60.5 322.5 t-174.5 111.5q-240 0 -240 -391z" />
<glyph unicode="&#x1e24;" horiz-adv-x="1212" d="M129 0v1470h164v-608h629v608h163v-1470h-163v684h-629v-684h-164zM520 -172h176v-197h-176v197z" />
<glyph unicode="&#x1e25;" d="M109 0v1470h147v-546q64 100 124 139t148 39q140 0 218.5 -98t78.5 -275v-729h-147v700q0 128 -40.5 185t-131.5 57q-120 0 -185 -93.5t-65 -264.5v-584h-147zM379 -172h176v-197h-176v197z" />
<glyph unicode="&#x1e26;" horiz-adv-x="1212" d="M129 0v1470h164v-608h629v608h163v-1470h-163v684h-629v-684h-164zM354 1622v197h181v-197h-181zM684 1622v197h180v-197h-180z" />
<glyph unicode="&#x1e27;" d="M109 0v1470h147v-546q64 100 124 139t148 39q140 0 218.5 -98t78.5 -275v-729h-147v700q0 128 -40.5 185t-131.5 57q-120 0 -185 -93.5t-65 -264.5v-584h-147zM213 1622v197h180v-197h-180zM543 1622v197h180v-197h-180z" />
<glyph unicode="&#x1e2a;" horiz-adv-x="1212" d="M129 0v1470h164v-608h629v608h163v-1470h-163v684h-629v-684h-164zM330 -152h82l4 -14q40 -52 84.5 -79t111.5 -27q72 0 111 28.5t63 91.5h101q-35 -119 -102 -178t-183 -59q-112 0 -176 59t-96 178z" />
<glyph unicode="&#x1e2b;" d="M109 0v1470h147v-546q64 100 124 139t148 39q140 0 218.5 -98t78.5 -275v-729h-147v700q0 128 -40.5 185t-131.5 57q-120 0 -185 -93.5t-65 -264.5v-584h-147zM188 -152h82l4 -14q40 -52 85 -79t112 -27q72 0 111 28.5t63 91.5h100q-35 -119 -101.5 -178t-182.5 -59 q-112 0 -176.5 59.5t-96.5 177.5z" />
<glyph unicode="&#x1e36;" d="M127 0v1470h164v-1292h610v-178h-774zM426 -172h176v-197h-176v197z" />
<glyph unicode="&#x1e37;" horiz-adv-x="372" d="M98 -172h176v-197h-176v197zM113 0v1470h147v-1470h-147z" />
<glyph unicode="&#x1e38;" d="M-53 1663v117h526v-117h-526zM127 0v1470h164v-1292h610v-178h-774zM426 -172h176v-197h-176v197z" />
<glyph unicode="&#x1e39;" horiz-adv-x="372" d="M-76 1663v117h527v-117h-527zM98 -172h176v-197h-176v197zM113 0v1470h147v-1470h-147z" />
<glyph unicode="&#x1e42;" horiz-adv-x="1398" d="M123 0v1470h233l346 -1249l345 1249h231v-1470h-154v868v379l-344 -1247h-159l-340 1245v-282v-963h-158zM612 -172h176v-197h-176v197z" />
<glyph unicode="&#x1e43;" horiz-adv-x="1398" d="M109 0v1071h139v-158q57 100 121 144.5t151 44.5q82 0 136.5 -40.5t95.5 -133.5q75 102 129.5 138t134.5 36q128 0 202 -97t74 -264v-741h-147v692q0 250 -160 250q-89 0 -150 -83.5t-61 -205.5v-653h-147v741q0 95 -36.5 148t-101.5 53q-106 0 -169.5 -97.5 t-63.5 -260.5v-584h-147zM612 -172h176v-197h-176v197z" />
<glyph unicode="&#x1e44;" horiz-adv-x="1212" d="M127 0v1470h192l609 -1194v1194h157v-1470h-182l-618 1194v-1194h-158zM520 1622v197h176v-197h-176z" />
<glyph unicode="&#x1e45;" d="M109 0v1071h139v-158q57 100 123 144.5t157 44.5q140 0 218.5 -98t78.5 -275v-729h-147v659q0 148 -43 215.5t-137 67.5q-113 0 -177.5 -95.5t-64.5 -262.5v-584h-147zM379 1243v197h176v-197h-176z" />
<glyph unicode="&#x1e46;" horiz-adv-x="1212" d="M127 0v1470h192l609 -1194v1194h157v-1470h-182l-618 1194v-1194h-158zM518 -172h176v-197h-176v197z" />
<glyph unicode="&#x1e47;" d="M109 0v1071h139v-158q57 100 123 144.5t157 44.5q140 0 218.5 -98t78.5 -275v-729h-147v659q0 148 -43 215.5t-137 67.5q-113 0 -177.5 -95.5t-64.5 -262.5v-584h-147zM379 -172h176v-197h-176v197z" />
<glyph unicode="&#x1e58;" horiz-adv-x="1212" d="M147 0v1470h560q192 0 293.5 -102t101.5 -295q0 -125 -37 -202.5t-131 -147.5q78 -37 107.5 -94t37.5 -183l8 -266q1 -67 13 -93.5t49 -53.5v-33h-201q-26 110 -26 369q0 139 -51.5 200.5t-163.5 61.5h-396v-631h-164zM311 801h377q126 0 186 62.5t60 193.5 q0 243 -217 243h-406v-499zM492 1622v197h176v-197h-176z" />
<glyph unicode="&#x1e59;" horiz-adv-x="559" d="M129 0v1071h139v-182q58 115 115.5 164t134.5 49q18 0 39 -6v-185h-55q-98 0 -162 -81t-64 -205v-625h-147zM188 1243v197h177v-197h-177z" />
<glyph unicode="&#x1e5a;" horiz-adv-x="1212" d="M147 0v1470h560q192 0 293.5 -102t101.5 -295q0 -125 -37 -202.5t-131 -147.5q78 -37 107.5 -94t37.5 -183l8 -266q1 -67 13 -93.5t49 -53.5v-33h-201q-26 110 -26 369q0 139 -51.5 200.5t-163.5 61.5h-396v-631h-164zM311 801h377q126 0 186 62.5t60 193.5 q0 243 -217 243h-406v-499zM489 -172h177v-197h-177v197z" />
<glyph unicode="&#x1e5b;" horiz-adv-x="559" d="M115 -172h176v-197h-176v197zM129 0v1071h139v-182q58 115 115.5 164t134.5 49q18 0 39 -6v-185h-55q-98 0 -162 -81t-64 -205v-625h-147z" />
<glyph unicode="&#x1e5c;" horiz-adv-x="1212" d="M147 0v1470h560q192 0 293.5 -102t101.5 -295q0 -125 -37 -202.5t-131 -147.5q78 -37 107.5 -94t37.5 -183l8 -266q1 -67 13 -93.5t49 -53.5v-33h-201q-26 110 -26 369q0 139 -51.5 200.5t-163.5 61.5h-396v-631h-164zM311 801h377q126 0 186 62.5t60 193.5 q0 243 -217 243h-406v-499zM315 1663v117h527v-117h-527zM489 -172h177v-197h-177v197z" />
<glyph unicode="&#x1e5d;" horiz-adv-x="559" d="M12 1315v117h527v-117h-527zM115 -172h176v-197h-176v197zM129 0v1071h139v-182q58 115 115.5 164t134.5 49q18 0 39 -6v-185h-55q-98 0 -162 -81t-64 -205v-625h-147z" />
<glyph unicode="&#x1e62;" horiz-adv-x="1120" d="M82 475h154q0 -170 88 -257t249 -87q147 0 228.5 66.5t81.5 187.5q0 105 -54 159t-202 95l-248 70q-256 71 -256 352q0 200 113 324t317 124q218 0 336.5 -116t118.5 -353h-154q0 146 -81.5 222.5t-219.5 76.5q-129 0 -200.5 -67t-71.5 -187q0 -78 34.5 -124t106.5 -66 l344 -96q135 -38 204.5 -138.5t69.5 -257.5q0 -206 -127 -324t-348 -118q-222 0 -352.5 127t-130.5 387zM471 -172h176v-197h-176v197z" />
<glyph unicode="&#x1e63;" horiz-adv-x="839" d="M53 344h144q8 -114 61.5 -165.5t165.5 -51.5q97 0 152 45t55 123q0 60 -36 91.5t-138 62.5l-172 51q-203 61 -203 264q0 154 92 246t244 92q151 0 237 -87.5t95 -248.5h-144q-5 91 -53 134.5t-145 43.5q-85 0 -134 -40.5t-49 -110.5q0 -57 31 -85t127 -57l149 -45 q133 -40 189.5 -105.5t56.5 -178.5q0 -161 -98.5 -257t-265.5 -96q-172 0 -261.5 90.5t-99.5 284.5zM328 -172h176v-197h-176v197z" />
<glyph unicode="&#x1e6c;" horiz-adv-x="1026" d="M23 1292v178h981v-178h-408v-1292h-164v1292h-409zM426 -172h176v-197h-176v197z" />
<glyph unicode="&#x1e6d;" horiz-adv-x="466" d="M23 922v149h118v299h148v-299h143v-149h-143v-697q0 -45 20.5 -64.5t69.5 -19.5h51v-141q-33 -4 -58 -7t-33 -4.5t-14 -2t-12 -0.5q-88 0 -130 56t-42 173v707h-118zM201 -172h176v-197h-176v197z" />
<glyph unicode="&#x1e6e;" horiz-adv-x="1026" d="M23 1292v178h981v-178h-408v-1292h-164v1292h-409zM252 -211h526v-117h-526v117z" />
<glyph unicode="&#x1e6f;" horiz-adv-x="466" d="M23 922v149h118v299h148v-299h143v-149h-143v-697q0 -45 20.5 -64.5t69.5 -19.5h51v-141q-33 -4 -58 -7t-33 -4.5t-14 -2t-12 -0.5q-88 0 -130 56t-42 173v707h-118zM27 -211h526v-117h-526v117z" />
<glyph unicode="&#x1e80;" horiz-adv-x="1585" d="M27 1470h176l227 -1204l272 1204h179l272 -1204l225 1204h181l-318 -1470h-172l-276 1227l-281 -1227h-172zM514 1843h193l149 -248h-123z" />
<glyph unicode="&#x1e81;" horiz-adv-x="1212" d="M23 1071h161l170 -850l170 850h166l172 -850l180 850h148l-256 -1071h-152l-180 838l-174 -838h-152zM332 1485h182l150 -289h-113z" />
<glyph unicode="&#x1e82;" horiz-adv-x="1585" d="M27 1470h176l227 -1204l272 1204h179l272 -1204l225 1204h181l-318 -1470h-172l-276 1227l-281 -1227h-172zM731 1595l150 248h192l-219 -248h-123z" />
<glyph unicode="&#x1e83;" horiz-adv-x="1212" d="M23 1071h161l170 -850l170 850h166l172 -850l180 850h148l-256 -1071h-152l-180 838l-174 -838h-152zM549 1196l149 289h183l-219 -289h-113z" />
<glyph unicode="&#x1e84;" horiz-adv-x="1585" d="M27 1470h176l227 -1204l272 1204h179l272 -1204l225 1204h181l-318 -1470h-172l-276 1227l-281 -1227h-172zM539 1622v197h180v-197h-180zM868 1622v197h181v-197h-181z" />
<glyph unicode="&#x1e85;" horiz-adv-x="1212" d="M23 1071h161l170 -850l170 850h166l172 -850l180 850h148l-256 -1071h-152l-180 838l-174 -838h-152zM350 1243v197h180v-197h-180zM680 1243v197h180v-197h-180z" />
<glyph unicode="&#x1e92;" horiz-adv-x="1026" d="M39 0v168l739 1124h-684v178h893v-174l-741 -1118h741v-178h-948zM453 -172h176v-197h-176v197z" />
<glyph unicode="&#x1e93;" horiz-adv-x="839" d="M51 0v141l531 781h-490v149h682v-147l-526 -774h540v-150h-737zM332 -172h176v-197h-176v197z" />
<glyph unicode="&#x1e97;" horiz-adv-x="466" d="M-39 1522v196h180v-196h-180zM23 922v149h118v299h148v-299h143v-149h-143v-697q0 -45 20.5 -64.5t69.5 -19.5h51v-141q-33 -4 -58 -7t-33 -4.5t-14 -2t-12 -0.5q-88 0 -130 56t-42 173v707h-118zM291 1522v196h180v-196h-180z" />
<glyph unicode="&#x1ea0;" horiz-adv-x="1120" d="M23 0l452 1470h187l436 -1470h-178l-119 428h-484l-127 -428h-167zM367 606h374l-180 651zM473 -172h176v-197h-176v197z" />
<glyph unicode="&#x1ea1;" d="M61 283q0 139 69.5 225t197.5 106l243 37q41 6 59.5 35t18.5 88q0 88 -51.5 133t-151.5 45q-101 0 -153.5 -49t-52.5 -158h-136q0 357 353 357q157 0 246.5 -80t89.5 -219v-617q0 -63 47 -63q10 0 51 8v-131q-59 -20 -86 -20q-75 0 -109.5 37.5t-42.5 125.5 q-72 -92 -144.5 -133t-166.5 -41q-127 0 -204 86.5t-77 227.5zM215 299q0 -86 41.5 -133t116.5 -47q110 0 191 75.5t81 176.5v176q-23 -21 -67.5 -33t-174.5 -35q-101 -17 -144.5 -58.5t-43.5 -121.5zM369 -172h176v-197h-176v197z" />
<glyph unicode="&#x1ea2;" horiz-adv-x="1120" d="M23 0l452 1470h187l436 -1470h-178l-119 428h-484l-127 -428h-167zM367 606h374l-180 651zM367 1737q0 92 54.5 140t158.5 48q95 0 148.5 -38t53.5 -103q0 -40 -19 -66.5t-73 -60.5q-41 -29 -52 -40.5t-11 -25.5v-49h-115v55q0 37 21 61t77 58q60 40 60 68 q0 22 -26.5 36.5t-68.5 14.5q-60 0 -83 -29q-13 -16 -13 -69h-112z" />
<glyph unicode="&#x1ea3;" d="M61 283q0 139 69.5 225t197.5 106l243 37q41 6 59.5 35t18.5 88q0 88 -51.5 133t-151.5 45q-101 0 -153.5 -49t-52.5 -158h-136q0 357 353 357q157 0 246.5 -80t89.5 -219v-617q0 -63 47 -63q10 0 51 8v-131q-59 -20 -86 -20q-75 0 -109.5 37.5t-42.5 125.5 q-72 -92 -144.5 -133t-166.5 -41q-127 0 -204 86.5t-77 227.5zM215 299q0 -86 41.5 -133t116.5 -47q110 0 191 75.5t81 176.5v176q-23 -21 -67.5 -33t-174.5 -35q-101 -17 -144.5 -58.5t-43.5 -121.5zM254 1337q0 92 54.5 140.5t158.5 48.5q95 0 149 -38.5t54 -103.5 q0 -40 -19 -66.5t-73 -60.5q-42 -30 -53 -41t-11 -24v-49h-115v55q0 37 21 61t78 58q59 39 59 67q0 22 -26 37t-68 15q-61 0 -84 -29q-12 -15 -12 -70h-113z" />
<glyph unicode="&#x1ea4;" horiz-adv-x="1120" d="M23 0l452 1470h187l436 -1470h-178l-119 428h-484l-127 -428h-167zM295 1597l197 248h157l197 -248h-135l-142 150l-141 -150h-133zM367 606h374l-180 651zM508 1886l149 248h193l-219 -248h-123z" />
<glyph unicode="&#x1ea5;" d="M61 283q0 139 69.5 225t197.5 106l243 37q41 6 59.5 35t18.5 88q0 88 -51.5 133t-151.5 45q-101 0 -153.5 -49t-52.5 -158h-136q0 357 353 357q157 0 246.5 -80t89.5 -219v-617q0 -63 47 -63q10 0 51 8v-131q-59 -20 -86 -20q-75 0 -109.5 37.5t-42.5 125.5 q-72 -92 -144.5 -133t-166.5 -41q-127 0 -204 86.5t-77 227.5zM182 1198l197 248h158l196 -248h-135l-141 150l-142 -150h-133zM215 299q0 -86 41.5 -133t116.5 -47q110 0 191 75.5t81 176.5v176q-23 -21 -67.5 -33t-174.5 -35q-101 -17 -144.5 -58.5t-43.5 -121.5z M395 1487l150 248h192l-219 -248h-123z" />
<glyph unicode="&#x1ea6;" horiz-adv-x="1120" d="M23 0l452 1470h187l436 -1470h-178l-119 428h-484l-127 -428h-167zM291 2134h192l150 -248h-123zM295 1597l197 248h157l197 -248h-135l-142 150l-141 -150h-133zM367 606h374l-180 651z" />
<glyph unicode="&#x1ea7;" d="M61 283q0 139 69.5 225t197.5 106l243 37q41 6 59.5 35t18.5 88q0 88 -51.5 133t-151.5 45q-101 0 -153.5 -49t-52.5 -158h-136q0 357 353 357q157 0 246.5 -80t89.5 -219v-617q0 -63 47 -63q10 0 51 8v-131q-59 -20 -86 -20q-75 0 -109.5 37.5t-42.5 125.5 q-72 -92 -144.5 -133t-166.5 -41q-127 0 -204 86.5t-77 227.5zM178 1735h193l149 -248h-123zM182 1198l197 248h158l196 -248h-135l-141 150l-142 -150h-133zM215 299q0 -86 41.5 -133t116.5 -47q110 0 191 75.5t81 176.5v176q-23 -21 -67.5 -33t-174.5 -35 q-101 -17 -144.5 -58.5t-43.5 -121.5z" />
<glyph unicode="&#x1ea8;" horiz-adv-x="1120" d="M23 0l452 1470h187l436 -1470h-178l-119 428h-484l-127 -428h-167zM295 1597l197 248h157l197 -248h-135l-142 150l-141 -150h-133zM367 606h374l-180 651zM430 2060q0 83 54.5 126.5t158.5 43.5q93 0 148 -35t55 -92q0 -35 -19.5 -59t-72.5 -57q-41 -24 -52.5 -35 t-11.5 -23v-43h-115v49q0 34 20 55t77 52q59 36 59 61q0 20 -25.5 32.5t-68.5 12.5q-64 0 -82 -24q-12 -12 -12 -64h-113z" />
<glyph unicode="&#x1ea9;" d="M61 283q0 139 69.5 225t197.5 106l243 37q41 6 59.5 35t18.5 88q0 88 -51.5 133t-151.5 45q-101 0 -153.5 -49t-52.5 -158h-136q0 357 353 357q157 0 246.5 -80t89.5 -219v-617q0 -63 47 -63q10 0 51 8v-131q-59 -20 -86 -20q-75 0 -109.5 37.5t-42.5 125.5 q-72 -92 -144.5 -133t-166.5 -41q-127 0 -204 86.5t-77 227.5zM182 1198l197 248h158l196 -248h-135l-141 150l-142 -150h-133zM215 299q0 -86 41.5 -133t116.5 -47q110 0 191 75.5t81 176.5v176q-23 -21 -67.5 -33t-174.5 -35q-101 -17 -144.5 -58.5t-43.5 -121.5z M317 1661q0 83 54.5 126.5t158.5 43.5q93 0 148 -35t55 -92q0 -35 -19.5 -60t-72.5 -57q-41 -24 -52 -34.5t-11 -22.5v-43h-115v49q0 34 19.5 54.5t76.5 51.5q59 36 59 62q0 20 -25.5 32.5t-68.5 12.5q-63 0 -82 -25q-12 -12 -12 -63h-113z" />
<glyph unicode="&#x1eaa;" horiz-adv-x="1120" d="M23 0l452 1470h187l436 -1470h-178l-119 428h-484l-127 -428h-167zM285 1907q15 113 57.5 166t116.5 53q43 0 114 -31l37 -18q56 -27 84 -27q33 0 51 21.5t27 72.5h84q-30 -223 -170 -223q-28 0 -96 27l-43 18q-69 31 -105 31q-29 0 -46 -20t-31 -70h-80zM295 1597 l197 248h157l197 -248h-135l-142 150l-141 -150h-133zM367 606h374l-180 651z" />
<glyph unicode="&#x1eab;" d="M61 283q0 139 69.5 225t197.5 106l243 37q41 6 59.5 35t18.5 88q0 88 -51.5 133t-151.5 45q-101 0 -153.5 -49t-52.5 -158h-136q0 357 353 357q157 0 246.5 -80t89.5 -219v-617q0 -63 47 -63q10 0 51 8v-131q-59 -20 -86 -20q-75 0 -109.5 37.5t-42.5 125.5 q-72 -92 -144.5 -133t-166.5 -41q-127 0 -204 86.5t-77 227.5zM172 1507q15 113 57.5 166t116.5 53q47 0 115 -30l37 -19q54 -26 84 -26q32 0 50 21.5t27 72.5h84q-30 -223 -170 -223q-31 0 -96 26l-43 19q-67 30 -104 30q-29 0 -47 -20.5t-31 -69.5h-80zM182 1198l197 248 h158l196 -248h-135l-141 150l-142 -150h-133zM215 299q0 -86 41.5 -133t116.5 -47q110 0 191 75.5t81 176.5v176q-23 -21 -67.5 -33t-174.5 -35q-101 -17 -144.5 -58.5t-43.5 -121.5z" />
<glyph unicode="&#x1eac;" horiz-adv-x="1120" d="M23 0l452 1470h187l436 -1470h-178l-119 428h-484l-127 -428h-167zM293 1597l196 248h158l197 -248h-135l-142 150l-141 -150h-133zM367 606h374l-180 651zM473 -172h176v-197h-176v197z" />
<glyph unicode="&#x1ead;" d="M61 283q0 139 69.5 225t197.5 106l243 37q41 6 59.5 35t18.5 88q0 88 -51.5 133t-151.5 45q-101 0 -153.5 -49t-52.5 -158h-136q0 357 353 357q157 0 246.5 -80t89.5 -219v-617q0 -63 47 -63q10 0 51 8v-131q-59 -20 -86 -20q-75 0 -109.5 37.5t-42.5 125.5 q-72 -92 -144.5 -133t-166.5 -41q-127 0 -204 86.5t-77 227.5zM211 1198l166 289h158l165 -289h-135l-110 191l-111 -191h-133zM215 299q0 -86 41.5 -133t116.5 -47q110 0 191 75.5t81 176.5v176q-23 -21 -67.5 -33t-174.5 -35q-101 -17 -144.5 -58.5t-43.5 -121.5z M369 -172h176v-197h-176v197z" />
<glyph unicode="&#x1eae;" horiz-adv-x="1120" d="M23 0l452 1470h187l436 -1470h-178l-119 428h-484l-127 -428h-167zM293 1839h82l4 -14q40 -52 84.5 -79.5t111.5 -27.5q72 0 111.5 29t63.5 92h100q-35 -119 -102 -178t-183 -59q-112 0 -176 59t-96 178zM367 606h374l-180 651zM508 1896l149 248h193l-219 -248h-123z " />
<glyph unicode="&#x1eaf;" d="M61 283q0 139 69.5 225t197.5 106l243 37q41 6 59.5 35t18.5 88q0 88 -51.5 133t-151.5 45q-101 0 -153.5 -49t-52.5 -158h-136q0 357 353 357q157 0 246.5 -80t89.5 -219v-617q0 -63 47 -63q10 0 51 8v-131q-59 -20 -86 -20q-75 0 -109.5 37.5t-42.5 125.5 q-72 -92 -144.5 -133t-166.5 -41q-127 0 -204 86.5t-77 227.5zM180 1440h82l4 -15q40 -52 85 -79t112 -27q72 0 111 29t63 92h100q-35 -119 -101.5 -178.5t-182.5 -59.5q-112 0 -176.5 59.5t-96.5 178.5zM215 299q0 -86 41.5 -133t116.5 -47q110 0 191 75.5t81 176.5v176 q-23 -21 -67.5 -33t-174.5 -35q-101 -17 -144.5 -58.5t-43.5 -121.5zM395 1497l150 248h192l-219 -248h-123z" />
<glyph unicode="&#x1eb0;" horiz-adv-x="1120" d="M23 0l452 1470h187l436 -1470h-178l-119 428h-484l-127 -428h-167zM291 2144h192l150 -248h-123zM293 1839h82l4 -14q40 -52 84.5 -79.5t111.5 -27.5q72 0 111.5 29t63.5 92h100q-35 -119 -102 -178t-183 -59q-112 0 -176 59t-96 178zM367 606h374l-180 651z" />
<glyph unicode="&#x1eb1;" d="M61 283q0 139 69.5 225t197.5 106l243 37q41 6 59.5 35t18.5 88q0 88 -51.5 133t-151.5 45q-101 0 -153.5 -49t-52.5 -158h-136q0 357 353 357q157 0 246.5 -80t89.5 -219v-617q0 -63 47 -63q10 0 51 8v-131q-59 -20 -86 -20q-75 0 -109.5 37.5t-42.5 125.5 q-72 -92 -144.5 -133t-166.5 -41q-127 0 -204 86.5t-77 227.5zM178 1745h193l149 -248h-123zM180 1440h82l4 -15q40 -52 85 -79t112 -27q72 0 111 29t63 92h100q-35 -119 -101.5 -178.5t-182.5 -59.5q-112 0 -176.5 59.5t-96.5 178.5zM215 299q0 -86 41.5 -133t116.5 -47 q110 0 191 75.5t81 176.5v176q-23 -21 -67.5 -33t-174.5 -35q-101 -17 -144.5 -58.5t-43.5 -121.5z" />
<glyph unicode="&#x1eb2;" horiz-adv-x="1120" d="M23 0l452 1470h187l436 -1470h-178l-119 428h-484l-127 -428h-167zM293 1839h82l4 -14q40 -52 84.5 -79.5t111.5 -27.5q72 0 111.5 29t63.5 92h100q-35 -119 -102 -178t-183 -59q-112 0 -176 59t-96 178zM362 1995q0 82 54.5 125t158.5 43q93 0 148 -35t55 -92 q0 -35 -19.5 -59.5t-72.5 -55.5q-41 -24 -52 -34.5t-11 -22.5v-45h-115v49q0 34 20.5 55.5t77.5 52.5q58 34 58 60q0 20 -26 33.5t-67 13.5q-64 0 -84 -27q-12 -15 -12 -61h-113zM367 606h374l-180 651z" />
<glyph unicode="&#x1eb3;" d="M61 283q0 139 69.5 225t197.5 106l243 37q41 6 59.5 35t18.5 88q0 88 -51.5 133t-151.5 45q-101 0 -153.5 -49t-52.5 -158h-136q0 357 353 357q157 0 246.5 -80t89.5 -219v-617q0 -63 47 -63q10 0 51 8v-131q-59 -20 -86 -20q-75 0 -109.5 37.5t-42.5 125.5 q-72 -92 -144.5 -133t-166.5 -41q-127 0 -204 86.5t-77 227.5zM180 1440h82l4 -15q40 -52 85 -79t112 -27q72 0 111 29t63 92h100q-35 -119 -101.5 -178.5t-182.5 -59.5q-112 0 -176.5 59.5t-96.5 178.5zM215 299q0 -86 41.5 -133t116.5 -47q110 0 191 75.5t81 176.5v176 q-23 -21 -67.5 -33t-174.5 -35q-101 -17 -144.5 -58.5t-43.5 -121.5zM250 1595q0 82 54.5 125t158.5 43q93 0 148 -35t55 -92q0 -35 -20 -59t-73 -55q-40 -24 -51.5 -35t-11.5 -23v-45h-115v49q0 34 21 56t78 53q57 34 57 59q0 20 -25.5 33.5t-66.5 13.5q-65 0 -84 -26 q-13 -16 -13 -62h-112z" />
<glyph unicode="&#x1eb4;" horiz-adv-x="1120" d="M23 0l452 1470h187l436 -1470h-178l-119 428h-484l-127 -428h-167zM285 1915q15 113 57.5 166t116.5 53q43 0 114 -31l37 -18q56 -27 84 -27q33 0 51 21.5t27 72.5h84q-30 -223 -170 -223q-28 0 -96 27l-43 18q-69 31 -105 31q-29 0 -46 -20t-31 -70h-80zM293 1839h82 l4 -14q40 -52 84.5 -79.5t111.5 -27.5q72 0 111.5 29t63.5 92h100q-35 -119 -102 -178t-183 -59q-112 0 -176 59t-96 178zM367 606h374l-180 651z" />
<glyph unicode="&#x1eb5;" d="M61 283q0 139 69.5 225t197.5 106l243 37q41 6 59.5 35t18.5 88q0 88 -51.5 133t-151.5 45q-101 0 -153.5 -49t-52.5 -158h-136q0 357 353 357q157 0 246.5 -80t89.5 -219v-617q0 -63 47 -63q10 0 51 8v-131q-59 -20 -86 -20q-75 0 -109.5 37.5t-42.5 125.5 q-72 -92 -144.5 -133t-166.5 -41q-127 0 -204 86.5t-77 227.5zM172 1516q15 113 57.5 166t116.5 53q44 0 115 -31l37 -18q56 -27 84 -27q32 0 50 21.5t27 72.5h84q-30 -223 -170 -223q-31 0 -96 26l-43 19q-69 31 -104 31q-29 0 -47 -20.5t-31 -69.5h-80zM180 1440h82l4 -15 q40 -52 85 -79t112 -27q72 0 111 29t63 92h100q-35 -119 -101.5 -178.5t-182.5 -59.5q-112 0 -176.5 59.5t-96.5 178.5zM215 299q0 -86 41.5 -133t116.5 -47q110 0 191 75.5t81 176.5v176q-23 -21 -67.5 -33t-174.5 -35q-101 -17 -144.5 -58.5t-43.5 -121.5z" />
<glyph unicode="&#x1eb6;" horiz-adv-x="1120" d="M23 0l452 1470h187l436 -1470h-178l-119 428h-484l-127 -428h-167zM291 1839h82l4 -14q40 -52 84.5 -79.5t111.5 -27.5q72 0 111.5 29t63.5 92h100q-35 -119 -102 -178t-183 -59q-112 0 -176 59t-96 178zM367 606h374l-180 651zM473 -172h176v-197h-176v197z" />
<glyph unicode="&#x1eb7;" d="M61 283q0 139 69.5 225t197.5 106l243 37q41 6 59.5 35t18.5 88q0 88 -51.5 133t-151.5 45q-101 0 -153.5 -49t-52.5 -158h-136q0 357 353 357q157 0 246.5 -80t89.5 -219v-617q0 -63 47 -63q10 0 51 8v-131q-59 -20 -86 -20q-75 0 -109.5 37.5t-42.5 125.5 q-72 -92 -144.5 -133t-166.5 -41q-127 0 -204 86.5t-77 227.5zM199 1481h82l4 -15q20 -77 62 -112t114 -35q75 0 113 35.5t61 126.5h80q-19 -145 -81.5 -212t-182.5 -67q-116 0 -176.5 67t-75.5 212zM215 299q0 -86 41.5 -133t116.5 -47q110 0 191 75.5t81 176.5v176 q-23 -21 -67.5 -33t-174.5 -35q-101 -17 -144.5 -58.5t-43.5 -121.5zM369 -172h176v-197h-176v197z" />
<glyph unicode="&#x1eb8;" horiz-adv-x="1120" d="M145 0v1470h877v-178h-713v-448h658v-178h-658v-488h725v-178h-889zM473 -172h176v-197h-176v197z" />
<glyph unicode="&#x1eb9;" d="M68 516q0 269 112.5 427.5t302.5 158.5q118 0 198.5 -60t129 -200.5t55.5 -364.5h-641q6 -184 69.5 -267t180.5 -83q89 0 155.5 59t76.5 150h147q-29 -173 -130 -270t-253 -97q-187 0 -295 146.5t-108 400.5zM225 621h488q-23 321 -236 321q-106 0 -176 -88.5t-76 -232.5 zM379 -172h176v-197h-176v197z" />
<glyph unicode="&#x1eba;" horiz-adv-x="1120" d="M145 0v1470h877v-178h-713v-448h658v-178h-658v-488h725v-178h-889zM381 1737q0 92 54.5 140t158.5 48q95 0 149 -38t54 -103q0 -40 -19 -66.5t-73 -60.5q-41 -29 -52.5 -41t-11.5 -25v-49h-115v55q0 37 21 61t78 58q59 39 59 68q0 22 -26 36.5t-68 14.5q-61 0 -84 -29 q-12 -15 -12 -69h-113z" />
<glyph unicode="&#x1ebb;" d="M68 516q0 269 112.5 427.5t302.5 158.5q118 0 198.5 -60t129 -200.5t55.5 -364.5h-641q6 -184 69.5 -267t180.5 -83q89 0 155.5 59t76.5 150h147q-29 -173 -130 -270t-253 -97q-187 0 -295 146.5t-108 400.5zM225 621h488q-23 321 -236 321q-106 0 -176 -88.5t-76 -232.5 zM264 1337q0 92 54.5 140.5t158.5 48.5q95 0 149 -38.5t54 -103.5q0 -40 -19 -66.5t-73 -60.5q-42 -30 -53 -41t-11 -24v-49h-114v55q0 37 21 61t77 58q59 39 59 67q0 22 -26 37t-68 15q-61 0 -84 -29q-12 -15 -12 -70h-113z" />
<glyph unicode="&#x1ebc;" horiz-adv-x="1120" d="M145 0v1470h877v-178h-713v-448h658v-178h-658v-488h725v-178h-889zM299 1602q15 113 57.5 166t116.5 53q44 0 115 -31l37 -18q56 -27 84 -27q32 0 50 21.5t27 72.5h84q-30 -223 -170 -223q-31 0 -96 26l-43 19q-69 31 -104 31q-29 0 -47 -20.5t-31 -69.5h-80z" />
<glyph unicode="&#x1ebd;" d="M68 516q0 269 112.5 427.5t302.5 158.5q118 0 198.5 -60t129 -200.5t55.5 -364.5h-641q6 -184 69.5 -267t180.5 -83q89 0 155.5 59t76.5 150h147q-29 -173 -130 -270t-253 -97q-187 0 -295 146.5t-108 400.5zM180 1223q15 113 57.5 166t116.5 53q44 0 115 -31l37 -18 q56 -27 84 -27q33 0 51 21.5t27 72.5h84q-30 -223 -170 -223q-30 0 -97 27l-43 18q-69 31 -104 31q-29 0 -47 -20.5t-31 -69.5h-80zM225 621h488q-23 321 -236 321q-106 0 -176 -88.5t-76 -232.5z" />
<glyph unicode="&#x1ebe;" horiz-adv-x="1120" d="M145 0v1470h877v-178h-713v-448h658v-178h-658v-488h725v-178h-889zM309 1597l197 248h158l196 -248h-135l-141 150l-142 -150h-133zM522 1886l150 248h192l-219 -248h-123z" />
<glyph unicode="&#x1ebf;" d="M68 516q0 269 112.5 427.5t302.5 158.5q118 0 198.5 -60t129 -200.5t55.5 -364.5h-641q6 -184 69.5 -267t180.5 -83q89 0 155.5 59t76.5 150h147q-29 -173 -130 -270t-253 -97q-187 0 -295 146.5t-108 400.5zM193 1198l196 248h158l196 -248h-135l-141 150l-141 -150 h-133zM225 621h488q-23 321 -236 321q-106 0 -176 -88.5t-76 -232.5zM406 1487l149 248h193l-220 -248h-122z" />
<glyph unicode="&#x1ec0;" horiz-adv-x="1120" d="M145 0v1470h877v-178h-713v-448h658v-178h-658v-488h725v-178h-889zM305 2134h193l149 -248h-123zM309 1597l197 248h158l196 -248h-135l-141 150l-142 -150h-133z" />
<glyph unicode="&#x1ec1;" d="M68 516q0 269 112.5 427.5t302.5 158.5q118 0 198.5 -60t129 -200.5t55.5 -364.5h-641q6 -184 69.5 -267t180.5 -83q89 0 155.5 59t76.5 150h147q-29 -173 -130 -270t-253 -97q-187 0 -295 146.5t-108 400.5zM188 1735h193l149 -248h-122zM193 1198l196 248h158l196 -248 h-135l-141 150l-141 -150h-133zM225 621h488q-23 321 -236 321q-106 0 -176 -88.5t-76 -232.5z" />
<glyph unicode="&#x1ec2;" horiz-adv-x="1120" d="M145 0v1470h877v-178h-713v-448h658v-178h-658v-488h725v-178h-889zM309 1597l197 248h158l196 -248h-135l-141 150l-142 -150h-133zM444 2060q0 83 54.5 126.5t158.5 43.5q93 0 148 -35t55 -92q0 -35 -19.5 -59t-72.5 -57q-40 -24 -51.5 -35t-11.5 -23v-43h-115v49 q0 34 20 55.5t76 51.5q59 36 59 61q0 20 -25.5 32.5t-68.5 12.5q-64 0 -82 -24q-12 -12 -12 -64h-113z" />
<glyph unicode="&#x1ec3;" d="M68 516q0 269 112.5 427.5t302.5 158.5q118 0 198.5 -60t129 -200.5t55.5 -364.5h-641q6 -184 69.5 -267t180.5 -83q89 0 155.5 59t76.5 150h147q-29 -173 -130 -270t-253 -97q-187 0 -295 146.5t-108 400.5zM193 1198l196 248h158l196 -248h-135l-141 150l-141 -150 h-133zM225 621h488q-23 321 -236 321q-106 0 -176 -88.5t-76 -232.5zM328 1661q0 83 54.5 126.5t158.5 43.5q93 0 147.5 -35t54.5 -92q0 -35 -19.5 -60t-72.5 -57q-41 -24 -52 -34.5t-11 -22.5v-43h-115v49q0 34 19.5 54.5t76.5 51.5q60 37 60 62q0 20 -25.5 32.5 t-68.5 12.5q-63 0 -82 -25q-13 -13 -13 -63h-112z" />
<glyph unicode="&#x1ec4;" horiz-adv-x="1120" d="M145 0v1470h877v-178h-713v-448h658v-178h-658v-488h725v-178h-889zM299 1907q15 113 57.5 166t116.5 53q44 0 115 -31l37 -18q56 -27 84 -27q32 0 50 21.5t27 72.5h84q-30 -223 -170 -223q-28 0 -96 27l-43 18q-69 31 -104 31q-29 0 -47 -20.5t-31 -69.5h-80zM309 1597 l197 248h158l196 -248h-135l-141 150l-142 -150h-133z" />
<glyph unicode="&#x1ec5;" d="M68 516q0 269 112.5 427.5t302.5 158.5q118 0 198.5 -60t129 -200.5t55.5 -364.5h-641q6 -184 69.5 -267t180.5 -83q89 0 155.5 59t76.5 150h147q-29 -173 -130 -270t-253 -97q-187 0 -295 146.5t-108 400.5zM182 1507q15 113 57.5 166t116.5 53q47 0 115 -30l37 -19 q54 -26 84 -26q33 0 51 21.5t27 72.5h84q-30 -223 -170 -223q-32 0 -97 26l-43 19q-67 30 -104 30q-29 0 -47 -20.5t-31 -69.5h-80zM193 1198l196 248h158l196 -248h-135l-141 150l-141 -150h-133zM225 621h488q-23 321 -236 321q-106 0 -176 -88.5t-76 -232.5z" />
<glyph unicode="&#x1ec6;" horiz-adv-x="1120" d="M145 0v1470h877v-178h-713v-448h658v-178h-658v-488h725v-178h-889zM307 1597l197 248h158l196 -248h-135l-141 150l-142 -150h-133zM473 -172h176v-197h-176v197z" />
<glyph unicode="&#x1ec7;" d="M68 516q0 269 112.5 427.5t302.5 158.5q118 0 198.5 -60t129 -200.5t55.5 -364.5h-641q6 -184 69.5 -267t180.5 -83q89 0 155.5 59t76.5 150h147q-29 -173 -130 -270t-253 -97q-187 0 -295 146.5t-108 400.5zM221 1198l166 289h158l166 -289h-136l-110 191l-111 -191 h-133zM225 621h488q-23 321 -236 321q-106 0 -176 -88.5t-76 -232.5zM379 -172h176v-197h-176v197z" />
<glyph unicode="&#x1ec8;" horiz-adv-x="466" d="M33 1737q0 92 54.5 140t158.5 48q95 0 149 -38t54 -103q0 -40 -19.5 -66.5t-73.5 -60.5q-41 -29 -52 -40.5t-11 -25.5v-49h-115v55q0 37 21 61t77 58q60 40 60 68q0 22 -26 36.5t-68 14.5q-61 0 -84 -29q-13 -16 -13 -69h-112zM154 0v1470h161v-1470h-161z" />
<glyph unicode="&#x1ec9;" horiz-adv-x="466" d="M31 1337q0 92 54.5 140.5t158.5 48.5q94 0 148 -38.5t54 -103.5q0 -40 -19 -66.5t-73 -60.5q-41 -29 -52 -40.5t-11 -24.5v-49h-115v55q0 37 21 61t77 58q60 40 60 67q0 22 -26 37t-68 15q-61 0 -84 -29q-13 -16 -13 -70h-112zM160 0v1071h147v-1071h-147z" />
<glyph unicode="&#x1eca;" horiz-adv-x="466" d="M147 -172h177v-197h-177v197zM154 0v1470h161v-1470h-161z" />
<glyph unicode="&#x1ecb;" horiz-adv-x="372" d="M98 -172h176v-197h-176v197zM98 1243v197h176v-197h-176zM113 0v1071h147v-1071h-147z" />
<glyph unicode="&#x1ecc;" horiz-adv-x="1306" d="M66 733q0 219 67 392.5t204 278.5t325 105q167 0 299 -97t206 -274.5t74 -404.5q0 -158 -38.5 -296.5t-111 -245t-185.5 -168.5t-253 -62t-253 62t-185 168.5t-110.5 245t-38.5 296.5zM233 733q0 -267 115.5 -430.5t304.5 -163.5t304.5 164t115.5 432q0 266 -115 431 t-299 165q-195 0 -310.5 -162t-115.5 -436zM573 -172h177v-197h-177v197z" />
<glyph unicode="&#x1ecd;" d="M59 537q0 254 114 409.5t300 155.5q177 0 289 -158.5t112 -406.5q0 -251 -113 -408.5t-294 -157.5q-180 0 -294 158t-114 408zM213 537q0 -186 69 -297t185 -111t185 111t69 297q0 184 -68.5 295.5t-181.5 111.5q-120 0 -189 -109.5t-69 -297.5zM379 -172h176v-197h-176 v197z" />
<glyph unicode="&#x1ece;" horiz-adv-x="1306" d="M66 733q0 219 67 392.5t204 278.5t325 105q167 0 299 -97t206 -274.5t74 -404.5q0 -158 -38.5 -296.5t-111 -245t-185.5 -168.5t-253 -62t-253 62t-185 168.5t-110.5 245t-38.5 296.5zM233 733q0 -267 115.5 -430.5t304.5 -163.5t304.5 164t115.5 432q0 266 -115 431 t-299 165q-195 0 -310.5 -162t-115.5 -436zM459 1737q0 92 54.5 140t158.5 48q95 0 148.5 -38t53.5 -103q0 -40 -19 -66.5t-73 -60.5q-41 -29 -52 -40.5t-11 -25.5v-49h-115v55q0 37 21 61t77 58q60 40 60 68q0 22 -26 36.5t-68 14.5q-61 0 -84 -29q-13 -16 -13 -69h-112z " />
<glyph unicode="&#x1ecf;" d="M59 537q0 254 114 409.5t300 155.5q177 0 289 -158.5t112 -406.5q0 -251 -113 -408.5t-294 -157.5q-180 0 -294 158t-114 408zM213 537q0 -186 69 -297t185 -111t185 111t69 297q0 184 -68.5 295.5t-181.5 111.5q-120 0 -189 -109.5t-69 -297.5zM264 1337 q0 92 54.5 140.5t158.5 48.5q95 0 149 -38.5t54 -103.5q0 -40 -19 -66.5t-73 -60.5q-42 -30 -53 -41t-11 -24v-49h-114v55q0 37 21 61t77 58q59 39 59 67q0 22 -26 37t-68 15q-61 0 -84 -29q-12 -15 -12 -70h-113z" />
<glyph unicode="&#x1ed0;" horiz-adv-x="1306" d="M66 733q0 219 67 392.5t204 278.5t325 105q167 0 299 -97t206 -274.5t74 -404.5q0 -158 -38.5 -296.5t-111 -245t-185.5 -168.5t-253 -62t-253 62t-185 168.5t-110.5 245t-38.5 296.5zM233 733q0 -267 115.5 -430.5t304.5 -163.5t304.5 164t115.5 432q0 266 -115 431 t-299 165q-195 0 -310.5 -162t-115.5 -436zM387 1597l197 248h157l197 -248h-135l-141 150l-142 -150h-133zM600 1886l150 248h192l-219 -248h-123z" />
<glyph unicode="&#x1ed1;" d="M59 537q0 254 114 409.5t300 155.5q177 0 289 -158.5t112 -406.5q0 -251 -113 -408.5t-294 -157.5q-180 0 -294 158t-114 408zM193 1198l196 248h158l196 -248h-135l-141 150l-141 -150h-133zM213 537q0 -186 69 -297t185 -111t185 111t69 297q0 184 -68.5 295.5 t-181.5 111.5q-120 0 -189 -109.5t-69 -297.5zM406 1487l149 248h193l-220 -248h-122z" />
<glyph unicode="&#x1ed2;" horiz-adv-x="1306" d="M66 733q0 219 67 392.5t204 278.5t325 105q167 0 299 -97t206 -274.5t74 -404.5q0 -158 -38.5 -296.5t-111 -245t-185.5 -168.5t-253 -62t-253 62t-185 168.5t-110.5 245t-38.5 296.5zM233 733q0 -267 115.5 -430.5t304.5 -163.5t304.5 164t115.5 432q0 266 -115 431 t-299 165q-195 0 -310.5 -162t-115.5 -436zM383 2134h192l150 -248h-123zM387 1597l197 248h157l197 -248h-135l-141 150l-142 -150h-133z" />
<glyph unicode="&#x1ed3;" d="M59 537q0 254 114 409.5t300 155.5q177 0 289 -158.5t112 -406.5q0 -251 -113 -408.5t-294 -157.5q-180 0 -294 158t-114 408zM188 1735h193l149 -248h-122zM193 1198l196 248h158l196 -248h-135l-141 150l-141 -150h-133zM213 537q0 -186 69 -297t185 -111t185 111 t69 297q0 184 -68.5 295.5t-181.5 111.5q-120 0 -189 -109.5t-69 -297.5z" />
<glyph unicode="&#x1ed4;" horiz-adv-x="1306" d="M66 733q0 219 67 392.5t204 278.5t325 105q167 0 299 -97t206 -274.5t74 -404.5q0 -158 -38.5 -296.5t-111 -245t-185.5 -168.5t-253 -62t-253 62t-185 168.5t-110.5 245t-38.5 296.5zM233 733q0 -267 115.5 -430.5t304.5 -163.5t304.5 164t115.5 432q0 266 -115 431 t-299 165q-195 0 -310.5 -162t-115.5 -436zM387 1597l197 248h157l197 -248h-135l-141 150l-142 -150h-133zM522 2060q0 83 54.5 126.5t158.5 43.5q93 0 148 -35t55 -92q0 -35 -19.5 -59t-72.5 -57q-41 -24 -52.5 -35t-11.5 -23v-43h-114v49q0 34 20 55.5t76 51.5 q59 36 59 61q0 20 -25.5 32.5t-68.5 12.5q-64 0 -82 -24q-12 -12 -12 -64h-113z" />
<glyph unicode="&#x1ed5;" d="M59 537q0 254 114 409.5t300 155.5q177 0 289 -158.5t112 -406.5q0 -251 -113 -408.5t-294 -157.5q-180 0 -294 158t-114 408zM193 1198l196 248h158l196 -248h-135l-141 150l-141 -150h-133zM213 537q0 -186 69 -297t185 -111t185 111t69 297q0 184 -68.5 295.5 t-181.5 111.5q-120 0 -189 -109.5t-69 -297.5zM328 1661q0 83 54.5 126.5t158.5 43.5q93 0 147.5 -35t54.5 -92q0 -35 -19.5 -60t-72.5 -57q-41 -24 -52 -34.5t-11 -22.5v-43h-115v49q0 34 19.5 54.5t76.5 51.5q60 37 60 62q0 20 -25.5 32.5t-68.5 12.5q-63 0 -82 -25 q-13 -13 -13 -63h-112z" />
<glyph unicode="&#x1ed6;" horiz-adv-x="1306" d="M66 733q0 219 67 392.5t204 278.5t325 105q167 0 299 -97t206 -274.5t74 -404.5q0 -158 -38.5 -296.5t-111 -245t-185.5 -168.5t-253 -62t-253 62t-185 168.5t-110.5 245t-38.5 296.5zM233 733q0 -267 115.5 -430.5t304.5 -163.5t304.5 164t115.5 432q0 266 -115 431 t-299 165q-195 0 -310.5 -162t-115.5 -436zM377 1907q15 113 57.5 166t116.5 53q44 0 115 -31l36 -18q56 -27 84 -27q33 0 51 21.5t27 72.5h84q-30 -223 -170 -223q-28 0 -96 27l-43 18q-69 31 -104 31q-29 0 -47 -20.5t-31 -69.5h-80zM387 1597l197 248h157l197 -248h-135 l-141 150l-142 -150h-133z" />
<glyph unicode="&#x1ed7;" d="M59 537q0 254 114 409.5t300 155.5q177 0 289 -158.5t112 -406.5q0 -251 -113 -408.5t-294 -157.5q-180 0 -294 158t-114 408zM182 1507q15 113 57.5 166t116.5 53q47 0 115 -30l37 -19q54 -26 84 -26q33 0 51 21.5t27 72.5h84q-30 -223 -170 -223q-32 0 -97 26l-43 19 q-67 30 -104 30q-29 0 -47 -20.5t-31 -69.5h-80zM193 1198l196 248h158l196 -248h-135l-141 150l-141 -150h-133zM213 537q0 -186 69 -297t185 -111t185 111t69 297q0 184 -68.5 295.5t-181.5 111.5q-120 0 -189 -109.5t-69 -297.5z" />
<glyph unicode="&#x1ed8;" horiz-adv-x="1306" d="M66 733q0 219 67 392.5t204 278.5t325 105q167 0 299 -97t206 -274.5t74 -404.5q0 -158 -38.5 -296.5t-111 -245t-185.5 -168.5t-253 -62t-253 62t-185 168.5t-110.5 245t-38.5 296.5zM233 733q0 -267 115.5 -430.5t304.5 -163.5t304.5 164t115.5 432q0 266 -115 431 t-299 165q-195 0 -310.5 -162t-115.5 -436zM385 1597l197 248h157l197 -248h-135l-142 150l-141 -150h-133zM573 -172h177v-197h-177v197z" />
<glyph unicode="&#x1ed9;" d="M59 537q0 254 114 409.5t300 155.5q177 0 289 -158.5t112 -406.5q0 -251 -113 -408.5t-294 -157.5q-180 0 -294 158t-114 408zM213 537q0 -186 69 -297t185 -111t185 111t69 297q0 184 -68.5 295.5t-181.5 111.5q-120 0 -189 -109.5t-69 -297.5zM221 1198l166 289h158 l166 -289h-136l-110 191l-111 -191h-133zM379 -172h176v-197h-176v197z" />
<glyph unicode="&#x1eda;" horiz-adv-x="1306" d="M66 733q0 219 67 392.5t204 278.5t325 105q248 0 407 -204q40 18 63 64.5t23 103.5h-88v196h176v-196q0 -77 -33 -142.5t-90 -97.5q121 -209 121 -500q0 -158 -38.5 -296.5t-111 -245t-185.5 -168.5t-253 -62t-253 62t-185 168.5t-110.5 245t-38.5 296.5zM233 733 q0 -267 115.5 -430.5t304.5 -163.5t304.5 164t115.5 432q0 266 -115 431t-299 165q-195 0 -310.5 -162t-115.5 -436zM600 1595l150 248h192l-219 -248h-123z" />
<glyph unicode="&#x1edb;" horiz-adv-x="952" d="M59 537q0 254 114 409.5t300 155.5q91 0 167.5 -45.5t131.5 -128.5q53 50 53 145h-88v197h176v-197q0 -68 -26 -128t-72 -95q59 -133 59 -313q0 -251 -113 -408.5t-294 -157.5q-180 0 -294 158t-114 408zM213 537q0 -186 69 -297t185 -111t185 111t69 297 q0 184 -68.5 295.5t-181.5 111.5q-120 0 -189 -109.5t-69 -297.5zM410 1196l149 289h182l-219 -289h-112z" />
<glyph unicode="&#x1edc;" horiz-adv-x="1306" d="M66 733q0 219 67 392.5t204 278.5t325 105q248 0 407 -204q40 18 63 64.5t23 103.5h-88v196h176v-196q0 -77 -33 -142.5t-90 -97.5q121 -209 121 -500q0 -158 -38.5 -296.5t-111 -245t-185.5 -168.5t-253 -62t-253 62t-185 168.5t-110.5 245t-38.5 296.5zM233 733 q0 -267 115.5 -430.5t304.5 -163.5t304.5 164t115.5 432q0 266 -115 431t-299 165q-195 0 -310.5 -162t-115.5 -436zM383 1843h192l150 -248h-123z" />
<glyph unicode="&#x1edd;" horiz-adv-x="952" d="M59 537q0 254 114 409.5t300 155.5q91 0 167.5 -45.5t131.5 -128.5q53 50 53 145h-88v197h176v-197q0 -68 -26 -128t-72 -95q59 -133 59 -313q0 -251 -113 -408.5t-294 -157.5q-180 0 -294 158t-114 408zM193 1485h182l149 -289h-112zM213 537q0 -186 69 -297t185 -111 t185 111t69 297q0 184 -68.5 295.5t-181.5 111.5q-120 0 -189 -109.5t-69 -297.5z" />
<glyph unicode="&#x1ede;" horiz-adv-x="1306" d="M66 733q0 219 67 392.5t204 278.5t325 105q248 0 407 -204q40 18 63 64.5t23 103.5h-88v196h176v-196q0 -77 -33 -142.5t-90 -97.5q121 -209 121 -500q0 -158 -38.5 -296.5t-111 -245t-185.5 -168.5t-253 -62t-253 62t-185 168.5t-110.5 245t-38.5 296.5zM233 733 q0 -267 115.5 -430.5t304.5 -163.5t304.5 164t115.5 432q0 266 -115 431t-299 165q-195 0 -310.5 -162t-115.5 -436zM459 1737q0 92 54.5 140t158.5 48q95 0 148.5 -38t53.5 -103q0 -40 -19 -66.5t-73 -60.5q-41 -29 -52 -40.5t-11 -25.5v-49h-115v55q0 37 21 61t77 58 q60 40 60 68q0 22 -26 36.5t-68 14.5q-61 0 -84 -29q-13 -16 -13 -69h-112z" />
<glyph unicode="&#x1edf;" horiz-adv-x="952" d="M59 537q0 254 114 409.5t300 155.5q91 0 167.5 -45.5t131.5 -128.5q53 50 53 145h-88v197h176v-197q0 -68 -26 -128t-72 -95q59 -133 59 -313q0 -251 -113 -408.5t-294 -157.5q-180 0 -294 158t-114 408zM213 537q0 -186 69 -297t185 -111t185 111t69 297 q0 184 -68.5 295.5t-181.5 111.5q-120 0 -189 -109.5t-69 -297.5zM264 1337q0 92 54.5 140.5t158.5 48.5q95 0 149 -38.5t54 -103.5q0 -40 -19 -66.5t-73 -60.5q-42 -30 -53 -41t-11 -24v-49h-114v55q0 37 21 61t77 58q59 39 59 67q0 22 -26 37t-68 15q-61 0 -84 -29 q-12 -15 -12 -70h-113z" />
<glyph unicode="&#x1ee0;" horiz-adv-x="1306" d="M66 733q0 219 67 392.5t204 278.5t325 105q248 0 407 -204q40 18 63 64.5t23 103.5h-88v196h176v-196q0 -77 -33 -142.5t-90 -97.5q121 -209 121 -500q0 -158 -38.5 -296.5t-111 -245t-185.5 -168.5t-253 -62t-253 62t-185 168.5t-110.5 245t-38.5 296.5zM233 733 q0 -267 115.5 -430.5t304.5 -163.5t304.5 164t115.5 432q0 266 -115 431t-299 165q-195 0 -310.5 -162t-115.5 -436zM377 1602q15 113 57.5 166t116.5 53q44 0 115 -31l36 -18q56 -27 84 -27q33 0 51 21.5t27 72.5h84q-30 -223 -170 -223q-31 0 -96 26l-43 19 q-69 31 -104 31q-29 0 -47 -20.5t-31 -69.5h-80z" />
<glyph unicode="&#x1ee1;" horiz-adv-x="952" d="M59 537q0 254 114 409.5t300 155.5q91 0 167.5 -45.5t131.5 -128.5q53 50 53 145h-88v197h176v-197q0 -68 -26 -128t-72 -95q59 -133 59 -313q0 -251 -113 -408.5t-294 -157.5q-180 0 -294 158t-114 408zM180 1223q15 113 57.5 166t116.5 53q44 0 115 -31l37 -18 q56 -27 84 -27q33 0 51 21.5t27 72.5h84q-30 -223 -170 -223q-30 0 -97 27l-43 18q-69 31 -104 31q-29 0 -47 -20.5t-31 -69.5h-80zM213 537q0 -186 69 -297t185 -111t185 111t69 297q0 184 -68.5 295.5t-181.5 111.5q-120 0 -189 -109.5t-69 -297.5z" />
<glyph unicode="&#x1ee2;" horiz-adv-x="1306" d="M66 733q0 219 67 392.5t204 278.5t325 105q248 0 407 -204q40 18 63 64.5t23 103.5h-88v196h176v-196q0 -77 -33 -142.5t-90 -97.5q121 -209 121 -500q0 -158 -38.5 -296.5t-111 -245t-185.5 -168.5t-253 -62t-253 62t-185 168.5t-110.5 245t-38.5 296.5zM233 733 q0 -267 115.5 -430.5t304.5 -163.5t304.5 164t115.5 432q0 266 -115 431t-299 165q-195 0 -310.5 -162t-115.5 -436zM573 -172h177v-197h-177v197z" />
<glyph unicode="&#x1ee3;" horiz-adv-x="952" d="M59 537q0 254 114 409.5t300 155.5q91 0 167.5 -45.5t131.5 -128.5q53 50 53 145h-88v197h176v-197q0 -68 -26 -128t-72 -95q59 -133 59 -313q0 -251 -113 -408.5t-294 -157.5q-180 0 -294 158t-114 408zM213 537q0 -186 69 -297t185 -111t185 111t69 297 q0 184 -68.5 295.5t-181.5 111.5q-120 0 -189 -109.5t-69 -297.5zM379 -172h176v-197h-176v197z" />
<glyph unicode="&#x1ee4;" horiz-adv-x="1212" d="M133 489v981h164v-925q0 -195 79.5 -300.5t227.5 -105.5q149 0 231.5 105t82.5 297v929h163v-954q0 -254 -131 -404.5t-352 -150.5q-214 0 -339.5 142.5t-125.5 385.5zM520 -172h176v-197h-176v197z" />
<glyph unicode="&#x1ee5;" d="M115 301v770h147v-711q0 -233 170 -233q110 0 176 96t66 258v590h147v-1071h-139v166q-59 -110 -120 -153.5t-159 -43.5q-135 0 -211.5 88t-76.5 244zM379 -172h176v-197h-176v197z" />
</font>
</defs>
</svg>
