<?xml version="1.0" standalone="no"?>
<!DOCTYPE svg PUBLIC "-//W3C//DTD SVG 1.1//EN" "http://www.w3.org/Graphics/SVG/1.1/DTD/svg11.dtd" >
<svg xmlns="http://www.w3.org/2000/svg">
<metadata></metadata>
<defs>
<font id="BoschSansBoldRegular" horiz-adv-x="1232" >
<font-face units-per-em="2048" ascent="1638" descent="-410" />
<missing-glyph horiz-adv-x="616" />
<glyph horiz-adv-x="0" />
<glyph horiz-adv-x="2048" />
<glyph unicode=" "  horiz-adv-x="616" />
<glyph unicode="&#x09;" horiz-adv-x="616" />
<glyph unicode="&#xa0;" horiz-adv-x="616" />
<glyph unicode="!" horiz-adv-x="772" d="M236 170q0 82 56 137t138 55q78 0 133 -56t55 -136t-55 -135t-135 -55q-81 0 -136.5 55t-55.5 135zM252 1028v436h350v-436l-74 -539h-204z" />
<glyph unicode="&#x22;" horiz-adv-x="1024" d="M121 1464h334l-39 -571h-258zM571 1464h330l-37 -571h-258z" />
<glyph unicode="#" horiz-adv-x="1146" d="M68 522v234h204l21 202h-180v234h206l29 272h193l-29 -272h197l28 272h193l-29 -272h180v-234h-204l-23 -202h180v-234h-205l-28 -278h-195l29 278h-197l-28 -278h-193l29 278h-178zM465 756h197l20 202h-197z" />
<glyph unicode="$" d="M0 332l260 119q46 -103 112.5 -157t168.5 -69v385q-114 25 -181 48.5t-122 58.5q-172 113 -172 334q0 128 61 226.5t174 152.5q94 44 240 55v180h153v-184q160 -22 266 -92t181 -205l-242 -129q-44 79 -90.5 120t-114.5 60v-365q209 -43 312 -104q89 -54 131.5 -136 t42.5 -200q0 -245 -199 -367q-106 -62 -287 -81v-258h-153v256q-196 15 -337.5 107.5t-203.5 244.5zM348 1075q0 -69 43 -108.5t150 -65.5v346q-100 -13 -146.5 -55t-46.5 -117zM694 223q195 30 195 178q0 71 -43 110.5t-152 68.5v-357z" />
<glyph unicode="%" horiz-adv-x="2084" d="M94 1053q0 191 111 309.5t289 118.5q175 0 284 -118t109 -306q0 -195 -110 -313.5t-290 -118.5q-178 0 -285.5 117t-107.5 311zM350 1055q0 -217 137 -217q144 0 144 217q0 105 -36 161t-103 56q-142 0 -142 -217zM516 0l819 1464h234l-819 -1464h-234zM1198 408 q0 192 110 310t289 118q175 0 285.5 -117.5t110.5 -304.5q0 -195 -111 -314.5t-291 -119.5q-178 0 -285.5 117t-107.5 311zM1454 410q0 -217 137 -217q144 0 144 217q0 104 -36.5 160.5t-103.5 56.5q-141 0 -141 -217z" />
<glyph unicode="&#x26;" horiz-adv-x="1501" d="M84 414q0 153 82.5 256t271.5 186q-35 115 -35 223q0 182 110.5 293t293.5 111q151 0 245.5 -87.5t94.5 -226.5q0 -130 -82 -215.5t-285 -167.5q102 -181 258 -337q67 123 88 286h246q-28 -254 -153 -442q75 -49 141 -49q28 0 59 4l-10 -252q-61 -10 -102 -10 q-78 0 -144.5 23t-144.5 77q-176 -109 -377 -109q-261 0 -409 116.5t-148 320.5zM403 442q0 -108 67.5 -173.5t178.5 -65.5q94 0 185 45q-207 204 -316 420q-60 -50 -87.5 -103.5t-27.5 -122.5zM676 1098q0 -71 29 -148q105 43 147.5 90t42.5 121q0 52 -25 81.5t-69 29.5 q-59 0 -92 -45.5t-33 -128.5z" />
<glyph unicode="'" horiz-adv-x="575" d="M121 1464h334l-39 -571h-258z" />
<glyph unicode="(" horiz-adv-x="868" d="M160 643q0 280 83 504t269 442h262q-149 -236 -214.5 -458t-65.5 -488t65.5 -488t214.5 -458h-262q-186 218 -269 441.5t-83 504.5z" />
<glyph unicode=")" horiz-adv-x="868" d="M94 -303q149 236 215 458t66 488t-66 488t-215 458h262q186 -218 269.5 -441.5t83.5 -504.5q0 -280 -83.5 -504t-269.5 -442h-262z" />
<glyph unicode="*" horiz-adv-x="942" d="M88 1163l76 234l221 -119l-45 264h250l-43 -264l217 119l78 -234l-250 -41l188 -190l-196 -146l-119 240l-119 -240l-196 146l186 190z" />
<glyph unicode="+" horiz-adv-x="1146" d="M86 563v264h348v377h275v-377h352v-264h-352v-373h-275v373h-348z" />
<glyph unicode="," horiz-adv-x="616" d="M115 184q0 78 53 129.5t135 51.5q97 0 154 -72t57 -195q0 -214 -111 -331q-50 -55 -104.5 -80t-148.5 -35v149q66 19 104.5 71.5t42.5 133.5q-86 7 -134 54t-48 124z" />
<glyph unicode="-" horiz-adv-x="616" d="M70 528v285h477v-285h-477z" />
<glyph unicode="." horiz-adv-x="616" d="M117 172q0 82 56 137.5t138 55.5q78 0 134.5 -57.5t56.5 -135.5q0 -79 -56.5 -135.5t-136.5 -56.5t-136 55.5t-56 136.5z" />
<glyph unicode="/" horiz-adv-x="915" d="M-10 -303l600 1892h282l-598 -1892h-284z" />
<glyph unicode="0" d="M66 741q0 150 36.5 290t102.5 239q68 104 174.5 160.5t236.5 56.5q253 0 402 -204t149 -550q0 -320 -139 -538q-66 -104 -173.5 -161t-236.5 -57q-256 0 -404 204.5t-148 559.5zM395 739q0 -247 58 -378.5t165 -131.5q105 0 162.5 131.5t57.5 372.5q0 239 -58 370.5 t-164 131.5q-104 0 -162.5 -130.5t-58.5 -365.5z" />
<glyph unicode="1" d="M174 0v256h311v768q-114 -44 -303 -41v231q159 15 242.5 78t112.5 189h266v-1225h278v-256h-907z" />
<glyph unicode="2" d="M90 0v250q178 112 259 171t171 140q262 238 262 471q0 96 -48.5 149.5t-135.5 53.5q-83 0 -135 -52t-84 -169l-287 69q57 205 184.5 304.5t335.5 99.5q232 0 366 -123.5t134 -335.5q0 -289 -266 -534q-112 -104 -338 -242h620v-252h-1038z" />
<glyph unicode="3" d="M29 385l284 72q34 -119 103 -173.5t184 -54.5q112 0 175 55t63 152q0 94 -62 145.5t-176 51.5h-133v231h125q103 0 161 49.5t58 137.5q0 86 -51.5 135t-141.5 49q-95 0 -159 -49.5t-107 -155.5l-262 74q124 383 541 383q224 0 361.5 -112.5t137.5 -295.5 q0 -212 -233 -309q270 -90 270 -350q0 -203 -149.5 -323t-403.5 -120q-269 0 -432 138q-61 52 -96 114t-57 156z" />
<glyph unicode="4" d="M23 287v256l661 938h344v-951h182v-243h-182v-287h-299v287h-706zM309 530h434v633z" />
<glyph unicode="5" d="M51 338l297 82q29 -97 88 -144t152 -47q110 0 172.5 68t62.5 188q0 117 -61 184.5t-166 67.5q-143 0 -209 -123h-270l92 850h850v-252h-619l-41 -354q99 111 287 111q210 0 334.5 -130.5t124.5 -349.5q0 -236 -146 -374t-397 -138q-279 0 -436 160q-41 43 -62.5 78.5 t-44.5 101.5z" />
<glyph unicode="6" d="M72 698q0 359 166 574t444 215q151 0 259 -64t183 -198l-225 -146q-52 89 -99.5 122.5t-119.5 33.5q-132 0 -207 -116t-90 -343q114 178 338 178q201 0 327 -131t126 -342q0 -226 -145.5 -365t-381.5 -139q-264 0 -422 193q-153 184 -153 528zM412 477q0 -115 62 -184.5 t165 -69.5q101 0 164 69t63 181t-63 181t-164 69t-164 -68.5t-63 -177.5z" />
<glyph unicode="7" d="M104 1212v252h1031v-237q-215 -224 -342 -550t-136 -677h-350q22 351 157 668t359 544h-719z" />
<glyph unicode="8" d="M45 416q0 126 63 214.5t193 145.5q-98 56 -144 129t-46 174q0 179 141.5 293.5t363.5 114.5q221 0 362.5 -114.5t141.5 -293.5q0 -101 -45.5 -174t-142.5 -129q254 -112 254 -360q0 -199 -156 -319t-414 -120q-259 0 -415 119.5t-156 319.5zM371 449q0 -106 65.5 -168 t179.5 -62q111 0 177.5 61.5t66.5 163.5q0 103 -67 164.5t-177 61.5t-177.5 -60.5t-67.5 -160.5zM412 1065q0 -88 56 -141.5t148 -53.5q89 0 146 54t57 139t-57 138.5t-146 53.5q-90 0 -147 -53t-57 -137z" />
<glyph unicode="9" d="M61 262l252 129q40 -88 92 -125t138 -37q146 0 216 116t77 374q-110 -178 -328 -178q-196 0 -318 121.5t-122 316.5q0 227 145 367.5t379 140.5q270 0 414.5 -187.5t144.5 -537.5q0 -376 -156.5 -580.5t-443.5 -204.5q-228 0 -371 125q-64 56 -119 160zM375 1010 q0 -104 61 -171t158 -67q94 0 155.5 66.5t61.5 169.5q0 101 -61.5 167t-155.5 66q-95 0 -157 -65.5t-62 -165.5z" />
<glyph unicode=":" horiz-adv-x="616" d="M117 172q0 82 55.5 137.5t138.5 55.5q78 0 134.5 -57t56.5 -136t-56.5 -135.5t-136.5 -56.5q-82 0 -137 55t-55 137zM117 764q0 82 56 137t138 55q80 0 136.5 -56.5t56.5 -135.5q0 -80 -57 -137.5t-136 -57.5q-82 0 -138 56.5t-56 138.5z" />
<glyph unicode=";" horiz-adv-x="616" d="M113 184q0 78 53 129.5t135 51.5q97 0 154 -72t57 -195q0 -214 -111 -331q-50 -54 -105 -79.5t-149 -35.5v149q67 19 105.5 71.5t42.5 133.5q-86 7 -134 54t-48 124zM119 764q0 82 56 137t138 55q80 0 136.5 -56.5t56.5 -135.5q0 -80 -57 -137.5t-136 -57.5 q-82 0 -138 56.5t-56 138.5z" />
<glyph unicode="&#x3c;" horiz-adv-x="1146" d="M158 535v249l819 406v-324l-494 -202l494 -220v-313z" />
<glyph unicode="=" horiz-adv-x="1146" d="M131 324v256h885v-256h-885zM131 764v264h885v-264h-885z" />
<glyph unicode="&#x3e;" horiz-adv-x="1146" d="M170 135v320l496 202l-496 220v309l821 -402v-247z" />
<glyph unicode="?" horiz-adv-x="1175" d="M98 1116q27 94 65.5 154t102.5 110q138 107 350 107q215 0 343 -106t128 -285q0 -113 -50.5 -191.5t-180.5 -165.5q-89 -60 -116 -100.5t-27 -112.5v-37h-293v58q0 110 41.5 180.5t148.5 144.5q88 60 119 102.5t31 102.5q0 69 -44 111.5t-116 42.5q-166 0 -221 -191z M367 170q0 80 56.5 136t135.5 56q78 0 134.5 -56.5t56.5 -135.5t-56.5 -134.5t-136.5 -55.5q-79 0 -134.5 56t-55.5 134z" />
<glyph unicode="@" horiz-adv-x="1853" d="M86 496q0 186 67 349.5t183 279t279 182.5t348 67q177 0 326.5 -56.5t254.5 -158t164 -245.5t59 -314q0 -241 -115 -384.5t-309 -143.5q-109 0 -173.5 42.5t-90.5 131.5q-57 -96 -128 -140.5t-167 -44.5q-141 0 -225 103t-84 276q0 226 114.5 371t293.5 145 q159 0 221 -125l18 107h254l-84 -526q-6 -37 -6 -66q0 -96 90 -96q101 0 160 97t59 263q0 281 -168 441.5t-464 160.5q-312 0 -504.5 -197.5t-192.5 -518.5q0 -304 170 -480t465 -176q125 0 214 27t204 98l92 -131q-127 -87 -241.5 -121.5t-276.5 -34.5q-237 0 -420.5 103 t-285 289t-101.5 426zM737 446q0 -159 119 -159q92 0 145.5 82.5t53.5 224.5q0 72 -32.5 111.5t-92.5 39.5q-89 0 -141 -80.5t-52 -218.5z" />
<glyph unicode="A" horiz-adv-x="1472" d="M16 0l537 1464h377l526 -1464h-348l-94 279h-594l-96 -279h-308zM498 512h438l-217 643z" />
<glyph unicode="B" horiz-adv-x="1443" d="M168 0v1464h661q234 0 357 -99t123 -288q0 -119 -47.5 -191t-159.5 -124q139 -47 200.5 -129.5t61.5 -220.5q0 -201 -131 -306.5t-381 -105.5h-684zM489 250h338q103 0 158 50.5t55 145.5q0 94 -57.5 143.5t-167.5 49.5h-326v-389zM489 872h322q92 0 136 42t44 130 t-47 129t-147 41h-308v-342z" />
<glyph unicode="C" horiz-adv-x="1499" d="M102 727q0 222 88 395t246.5 269t362.5 96q278 0 448 -162q50 -49 84 -102t76 -146l-291 -119q-53 141 -127 203t-192 62q-169 0 -261 -127.5t-92 -362.5q0 -236 94 -363.5t267 -127.5q121 0 197.5 65.5t127.5 212.5l293 -119q-45 -109 -93.5 -177.5t-123.5 -123.5 q-164 -123 -401 -123q-321 0 -512 203.5t-191 546.5z" />
<glyph unicode="D" horiz-adv-x="1544" d="M168 0v1464h543q347 0 539 -190.5t192 -536.5q0 -352 -194.5 -544.5t-547.5 -192.5h-532zM496 260h221q187 0 285 121t98 352q0 229 -99 350t-286 121h-219v-944z" />
<glyph unicode="E" horiz-adv-x="1323" d="M168 0v1464h1028v-264h-704v-330h536v-243h-536v-363h737v-264h-1061z" />
<glyph unicode="F" horiz-adv-x="1263" d="M168 0v1464h1010v-264h-682v-387h526v-256h-526v-557h-328z" />
<glyph unicode="G" horiz-adv-x="1609" d="M102 725q0 222 89.5 395.5t251.5 270t370 96.5q277 0 451 -160q50 -48 82.5 -96.5t68.5 -132.5l-299 -119q-50 131 -121 187.5t-188 56.5q-172 0 -267.5 -130.5t-95.5 -365.5q0 -232 97.5 -358.5t277.5 -126.5q148 0 241 84.5t93 218.5v12h-309v244h629v-801h-183 l-57 215q-86 -125 -194 -181.5t-259 -56.5q-302 0 -490 207t-188 541z" />
<glyph unicode="H" horiz-adv-x="1548" d="M168 0v1464h328v-594h557v594h327v-1464h-327v606h-557v-606h-328z" />
<glyph unicode="I" horiz-adv-x="684" d="M178 0v1464h328v-1464h-328z" />
<glyph unicode="J" horiz-adv-x="1277" d="M100 469v78h318v-58q0 -126 46 -186.5t140 -60.5q101 0 146 66t45 216v940h327v-942q0 -270 -127.5 -407.5t-378.5 -137.5q-245 0 -380.5 129.5t-135.5 362.5z" />
<glyph unicode="K" horiz-adv-x="1439" d="M168 0v1464h328v-630l497 630h365l-504 -620l539 -844h-367l-389 602l-141 -172v-430h-328z" />
<glyph unicode="L" horiz-adv-x="1181" d="M168 0v1464h328v-1200h645v-264h-973z" />
<glyph unicode="M" horiz-adv-x="1939" d="M168 0v1464h471l332 -1003l332 1003h469v-1464h-322v1102l-373 -1102h-241l-375 1104v-1104h-293z" />
<glyph unicode="N" horiz-adv-x="1550" d="M168 0v1464h373l542 -993v993h299v-1464h-358l-557 1016v-1016h-299z" />
<glyph unicode="O" horiz-adv-x="1626" d="M102 729q0 218 91.5 391t256 270t371.5 97q202 0 363 -96t250.5 -267.5t89.5 -386.5q0 -222 -90 -395t-253 -269t-372 -96q-207 0 -368 95t-250 266t-89 391zM444 731q0 -229 99 -359t272 -130t270 128.5t97 360.5q0 227 -98 359.5t-267 132.5q-177 0 -275 -129.5 t-98 -362.5z" />
<glyph unicode="P" horiz-adv-x="1398" d="M168 0v1464h623q249 0 387.5 -125.5t138.5 -349.5q0 -214 -135 -333t-377 -119h-309v-537h-328zM496 780h274q110 0 168.5 55.5t58.5 159.5q0 209 -225 209h-276v-424z" />
<glyph unicode="Q" horiz-adv-x="1626" d="M102 729q0 217 91.5 390.5t254.5 270.5t367 97q154 0 286 -55.5t225 -154t145.5 -238t52.5 -302.5q0 -165 -53 -308t-152 -245l158 -170l-189 -159l-170 186q-140 -64 -311 -64q-205 0 -366 95.5t-250 266.5t-89 390zM444 733q0 -230 99 -360.5t272 -130.5q53 0 105 14 l-129 139l182 162l137 -147q72 129 72 319q0 230 -98.5 362t-270.5 132q-173 0 -271 -130.5t-98 -359.5z" />
<glyph unicode="R" horiz-adv-x="1462" d="M168 0v1464h643q235 0 368.5 -112t133.5 -308q0 -160 -86 -260q-35 -41 -76.5 -64.5t-114.5 -45.5q104 -31 156 -96t80 -197q40 -173 66.5 -256.5t52.5 -116.5v-8h-336q-31 55 -55.5 133.5t-55.5 218.5q-25 113 -77 160t-152 47h-223v-559h-324zM492 803h270 q112 0 171.5 52.5t59.5 152.5q0 98 -53 149t-156 51h-292v-405z" />
<glyph unicode="S" horiz-adv-x="1333" d="M49 328l283 121q46 -112 123 -162.5t200 -50.5t193 47.5t70 132.5q0 74 -54 111.5t-213 74.5q-176 40 -250.5 65.5t-128.5 61.5q-157 104 -157 307q0 209 138.5 329t381.5 120q399 0 565 -303l-264 -125q-54 94 -121.5 132t-177.5 38q-100 0 -154.5 -41.5t-54.5 -116.5 q0 -69 55.5 -106.5t198.5 -65.5q152 -31 240.5 -60t148.5 -69q85 -57 125.5 -137.5t40.5 -194.5q0 -221 -150 -340t-428 -119q-230 0 -377 84.5t-233 266.5z" />
<glyph unicode="T" horiz-adv-x="1220" d="M33 1200v264h1155v-264h-414v-1200h-328v1200h-413z" />
<glyph unicode="U" horiz-adv-x="1511" d="M156 578v886h327v-870q0 -185 65.5 -267.5t211.5 -82.5q149 0 216.5 86.5t67.5 275.5v858h312v-878q0 -296 -153 -452.5t-445 -156.5q-293 0 -447.5 154.5t-154.5 446.5z" />
<glyph unicode="V" horiz-adv-x="1355" d="M0 1464h352l342 -1067l340 1067h322l-504 -1464h-348z" />
<glyph unicode="W" horiz-adv-x="2113" d="M57 1464h344l242 -1030l285 1030h272l287 -1038l254 1038h315l-379 -1464h-338l-278 989l-285 -989h-342z" />
<glyph unicode="X" horiz-adv-x="1470" d="M49 0l494 754l-457 710h389l273 -467l270 467h350l-442 -700l495 -764h-391l-313 526l-316 -526h-352z" />
<glyph unicode="Y" horiz-adv-x="1241" d="M-41 1464h367l315 -579l309 579h332l-487 -858v-606h-328v604z" />
<glyph unicode="Z" horiz-adv-x="1284" d="M94 0v279l694 921h-661v264h1038v-286l-688 -914h707v-264h-1090z" />
<glyph unicode="[" horiz-adv-x="868" d="M178 -303v1892h572v-243h-252v-1405h252v-244h-572z" />
<glyph unicode="\" horiz-adv-x="915" d="M41 1589h285l598 -1892h-283z" />
<glyph unicode="]" horiz-adv-x="868" d="M119 -59h252v1405h-252v243h571v-1892h-571v244z" />
<glyph unicode="^" horiz-adv-x="1112" d="M117 811l329 653h224l329 -653h-251l-193 336l-195 -336h-243z" />
<glyph unicode="_" horiz-adv-x="901" d="M-41 -188h983v-244h-983v244z" />
<glyph unicode="`" horiz-adv-x="1024" d="M186 1542h359l86 -340h-223z" />
<glyph unicode="a" horiz-adv-x="1150" d="M76 281q0 185 153.5 275t472.5 93v29q0 89 -40.5 128.5t-131.5 39.5q-148 0 -303 -105l-133 201q104 82 218.5 119t262.5 37q256 0 365 -142q42 -53 60 -118.5t18 -165.5v-486q0 -95 29 -174v-12h-304q-15 40 -28 127q-114 -150 -305 -150q-152 0 -243 83t-91 221z M383 309q0 -51 33.5 -79.5t93.5 -28.5q87 0 141 46t54 120v94q-169 -3 -245.5 -39t-76.5 -113z" />
<glyph unicode="b" horiz-adv-x="1302" d="M143 0v1542h314v-633q122 189 327 189q195 0 316 -154t121 -405q0 -258 -119.5 -410t-323.5 -152q-218 0 -321 189v-166h-314zM449 535q0 -151 59.5 -232.5t169.5 -81.5q223 0 223 314q0 152 -57.5 235.5t-161.5 83.5q-112 0 -172.5 -82.5t-60.5 -236.5z" />
<glyph unicode="c" horiz-adv-x="1122" d="M82 528q0 254 146 412t382 158q313 0 457 -285l-260 -121q-38 91 -79 126.5t-107 35.5q-106 0 -163 -82t-57 -235q0 -155 57.5 -235.5t166.5 -80.5q75 0 123 38t83 126l248 -121q-137 -287 -467 -287q-241 0 -385.5 150t-144.5 401z" />
<glyph unicode="d" horiz-adv-x="1302" d="M82 537q0 256 119 408.5t319 152.5q217 0 324 -185v629h313v-1542h-313v170q-106 -193 -324 -193q-201 0 -319.5 151.5t-118.5 408.5zM401 535q0 -155 56.5 -234.5t165.5 -79.5q111 0 171 82t60 234q0 148 -60.5 232.5t-166.5 84.5q-110 0 -168 -81.5t-58 -237.5z" />
<glyph unicode="e" horiz-adv-x="1200" d="M82 526q0 252 151.5 412t389.5 160q235 0 368 -148t133 -409v-84h-727q11 -72 24 -106.5t42 -65.5q63 -72 178 -72q76 0 126 29t93 98l244 -121q-148 -242 -467 -242q-247 0 -401 152t-154 397zM403 647h416q-12 116 -58.5 167.5t-139.5 51.5q-92 0 -144 -52.5 t-74 -166.5z" />
<glyph unicode="f" horiz-adv-x="800" d="M55 827v244h148v119q0 182 95.5 280.5t272.5 98.5q132 0 246 -68l-80 -219q-57 33 -108 33q-53 0 -83 -34.5t-30 -94.5v-115h219v-244h-219v-827h-313v827h-148z" />
<glyph unicode="g" horiz-adv-x="1179" d="M37 -135q0 130 174 205q-121 72 -121 194q0 138 152 217q-129 103 -129 254q0 158 125 260.5t317 102.5q141 0 276 -72l289 66v-236h-137q25 -74 25 -127q0 -152 -123 -246t-324 -94q-98 0 -194 29q-43 -30 -43 -74q0 -43 32 -60.5t113 -17.5h270q186 0 285.5 -76.5 t99.5 -220.5q0 -181 -151 -280t-428 -99q-240 0 -374 72.5t-134 202.5zM309 -86q0 -63 59 -92t185 -29q289 0 289 135q0 45 -35 65.5t-113 20.5h-248q-53 0 -71 4q-66 -45 -66 -104zM395 735q0 -78 44.5 -123t121.5 -45q76 0 120 45t44 123q0 77 -44 121.5t-120 44.5 q-78 0 -122 -44t-44 -122z" />
<glyph unicode="h" horiz-adv-x="1261" d="M143 0v1542h314v-639q107 195 331 195q161 0 249.5 -106t88.5 -300v-692h-313v651q0 104 -39 153.5t-121 49.5q-94 0 -145 -58.5t-51 -164.5v-631h-314z" />
<glyph unicode="i" horiz-adv-x="616" d="M127 1384q0 72 53 122t129 50q75 0 127.5 -50.5t52.5 -121.5q0 -72 -53 -123t-129 -51q-75 0 -127.5 50.5t-52.5 123.5zM152 0v1071h313v-1071h-313z" />
<glyph unicode="j" horiz-adv-x="632" d="M-57 -340l57 219q42 -18 76 -18q48 0 70 27.5t22 88.5v1094h313v-1102q0 -175 -84.5 -267.5t-244.5 -92.5q-117 0 -209 51zM143 1384q0 72 53 122t130 50q75 0 127.5 -50.5t52.5 -121.5q0 -72 -53 -123t-129 -51q-75 0 -128 50.5t-53 123.5z" />
<glyph unicode="k" horiz-adv-x="1204" d="M143 0v1542h314v-889l336 418h340l-359 -420l395 -651h-348l-256 430l-108 -127v-303h-314z" />
<glyph unicode="l" horiz-adv-x="616" d="M152 0v1542h313v-1542h-313z" />
<glyph unicode="m" horiz-adv-x="1853" d="M143 0v1071h314v-160q111 187 309 187q195 0 285 -178q72 93 150.5 135.5t180.5 42.5q160 0 248 -107t88 -299v-692h-313v664q0 190 -143 190q-80 0 -127.5 -56.5t-47.5 -152.5v-645h-313v668q0 186 -145 186q-80 0 -126 -55t-46 -150v-649h-314z" />
<glyph unicode="n" horiz-adv-x="1261" d="M143 0v1071h314v-168q107 195 331 195q161 0 249.5 -106t88.5 -300v-692h-313v651q0 104 -39.5 153.5t-122.5 49.5q-92 0 -143 -58.5t-51 -164.5v-631h-314z" />
<glyph unicode="o" horiz-adv-x="1259" d="M82 530q0 251 154.5 409.5t400.5 158.5q235 0 388 -157t153 -400q0 -249 -153.5 -406.5t-395.5 -157.5q-243 0 -395 154t-152 399zM401 537q0 -152 59.5 -234t168.5 -82q110 0 169.5 82t59.5 236q0 152 -58 233.5t-165 81.5q-116 0 -175 -80t-59 -237z" />
<glyph unicode="p" horiz-adv-x="1302" d="M143 -373v1444h314v-162q122 189 327 189q197 0 317 -153.5t120 -405.5q0 -256 -119.5 -409t-319.5 -153q-219 0 -325 183v-533h-314zM449 535q0 -151 59.5 -232.5t169.5 -81.5q223 0 223 314q0 152 -57.5 235.5t-161.5 83.5q-112 0 -172.5 -82.5t-60.5 -236.5z" />
<glyph unicode="q" horiz-adv-x="1300" d="M82 537q0 256 119 408.5t319 152.5q217 0 324 -185v158h313v-1444h-313v537q-106 -187 -326 -187q-199 0 -317.5 152.5t-118.5 407.5zM401 535q0 -155 56.5 -234.5t165.5 -79.5q111 0 171 82t60 234q0 148 -60.5 232.5t-166.5 84.5q-110 0 -168 -81.5t-58 -237.5z" />
<glyph unicode="r" horiz-adv-x="888" d="M143 0v1071h314v-182q53 106 119 155.5t157 49.5q88 0 156 -43l-78 -283q-62 37 -129 37q-103 0 -164 -71.5t-61 -194.5v-539h-314z" />
<glyph unicode="s" horiz-adv-x="1071" d="M49 133l146 203q73 -67 148.5 -97t170.5 -30q176 0 176 102q0 47 -41 68q-22 11 -48.5 17.5t-137.5 27.5q-188 35 -274.5 116t-86.5 220q0 158 116 248t321 90q129 0 228 -30t191 -97l-143 -199q-125 94 -283 94q-137 0 -137 -84q0 -47 39.5 -68t171.5 -46 q176 -32 252 -80q135 -82 135 -256q0 -169 -123.5 -262t-347.5 -93q-155 0 -265.5 36.5t-207.5 119.5z" />
<glyph unicode="t" horiz-adv-x="835" d="M55 827v244h148v215l313 109v-324h225v-244h-225v-473q0 -116 90 -116q55 0 109 32l76 -209q-109 -84 -256 -84q-158 0 -245 88.5t-87 249.5v512h-148z" />
<glyph unicode="u" horiz-adv-x="1243" d="M135 383v688h314v-651q0 -101 35 -149t110 -48q91 0 141.5 58t50.5 161v629h314v-1071h-314v164q-52 -97 -129 -142t-190 -45q-158 0 -245 106t-87 300z" />
<glyph unicode="v" horiz-adv-x="1126" d="M20 1071h336l226 -733l221 733h303l-367 -1071h-348z" />
<glyph unicode="w" horiz-adv-x="1712" d="M43 1071h328l168 -686l198 686h269l178 -686l182 686h303l-323 -1071h-310l-180 664l-188 -664h-312z" />
<glyph unicode="x" horiz-adv-x="1200" d="M37 0l373 547l-349 524h361l190 -305l191 305h323l-348 -500l385 -571h-366l-215 344l-222 -344h-323z" />
<glyph unicode="y" horiz-adv-x="1142" d="M20 1071h334l236 -670l225 670h307l-420 -1126q-64 -173 -162.5 -253.5t-244.5 -80.5q-133 0 -244 70l86 213q62 -39 131 -39q60 0 95.5 31t60.5 104l6 18z" />
<glyph unicode="z" horiz-adv-x="1052" d="M72 0v225l512 602h-486v244h863v-229l-502 -598h520v-244h-907z" />
<glyph unicode="{" horiz-adv-x="894" d="M70 516v258q116 3 162.5 41.5t46.5 130.5v250q0 239 153 326q64 36 142 51t217 18v-243q-123 -12 -161 -47.5t-38 -137.5v-239q0 -113 -48 -179.5t-151 -95.5q105 -32 152 -97t47 -177v-244q0 -105 39.5 -143.5t159.5 -48.5v-244q-133 3 -210.5 19t-142.5 53 q-159 91 -159 325v250q0 94 -46 132.5t-163 41.5z" />
<glyph unicode="|" horiz-adv-x="591" d="M174 -303v1892h244v-1892h-244z" />
<glyph unicode="}" horiz-adv-x="894" d="M104 -61q123 12 161 47.5t38 136.5v239q0 113 48 179.5t151 95.5q-105 32 -152 97t-47 177v244q0 105 -40 144t-159 49v243q133 -3 210.5 -18.5t142.5 -52.5q159 -92 159 -326v-250q0 -94 46 -132.5t163 -41.5v-258q-116 -3 -162.5 -41.5t-46.5 -130.5v-250 q0 -239 -153 -326q-64 -36 -142 -51t-217 -18v244z" />
<glyph unicode="~" horiz-adv-x="1146" d="M113 510q12 88 27 140t42 98q81 137 221 137q47 0 93 -17t114 -59q75 -47 115 -47q37 0 57.5 28.5t32.5 98.5l221 -17q-12 -91 -27 -142.5t-44 -96.5q-78 -135 -220 -135q-46 0 -91.5 16t-110.5 57q-44 29 -68 39.5t-47 10.5q-41 0 -62 -29t-32 -98z" />
<glyph unicode="&#xa2;" d="M117 528q0 244 139 398q65 73 140.5 111t191.5 57v194h149v-196q271 -35 389 -271l-243 -114q-34 63 -68 96t-78 47v-641q107 29 168 166l232 -111q-52 -124 -155 -196t-245 -86v-258h-149v258q-121 19 -198 57t-142 111q-131 146 -131 378zM420 532q0 -133 41 -211 t127 -110v639q-86 -32 -127 -109.5t-41 -208.5z" />
<glyph unicode="&#xa3;" d="M0 215q0 103 67.5 166t176.5 63q77 0 151 -34q-37 126 -84 202h-233v195h143q-47 126 -47 246q0 204 128 319t355 115q257 0 406 -146q43 -43 66.5 -81.5t50.5 -114.5l8 -25l-281 -96q-37 117 -87.5 164t-141.5 47q-83 0 -128.5 -53t-45.5 -150q0 -87 49 -225h350v-195 h-282q43 -141 43 -250q0 -26 -7 -73q78 -60 150 -60q62 0 95 37.5t48 124.5l269 -35q-19 -114 -34.5 -162t-47.5 -94q-85 -123 -265 -123q-86 0 -158.5 25.5t-160.5 87.5q-116 -110 -279 -110q-126 0 -200 64t-74 171zM188 213q0 -32 22 -50t60 -18q41 0 68.5 19t52.5 65 q-5 5 -20 17q-51 39 -107 39q-34 0 -55 -20t-21 -52z" />
<glyph unicode="&#xa5;" d="M6 1464h356l265 -555l270 555h328l-369 -678h264v-155h-346v-142h346v-155h-346v-334h-315v334h-342v155h342v142h-342v155h258z" />
<glyph unicode="&#xa8;" horiz-adv-x="1024" d="M127 1382q0 67 49 115.5t117 48.5q66 0 114 -48.5t48 -115.5q0 -66 -48 -114.5t-114 -48.5q-67 0 -116.5 48.5t-49.5 114.5zM569 1382q0 68 48.5 116t115.5 48q66 0 115 -48.5t49 -113.5q0 -67 -49 -116t-117 -49q-66 0 -114 48.5t-48 114.5z" />
<glyph unicode="&#xa9;" horiz-adv-x="1693" d="M104 727q0 158 57.5 298t157 240t239 158t296.5 58q152 0 288 -58.5t233.5 -158t154.5 -238.5t57 -295t-57.5 -295.5t-156 -238.5t-236.5 -157t-293 -58q-154 0 -291.5 57.5t-235.5 156.5t-155.5 237t-57.5 294zM233 727q0 -135 46.5 -253t126.5 -202t193.5 -132 t242.5 -48q265 0 440.5 182t175.5 457q0 181 -78.5 327.5t-217 229t-310.5 82.5q-270 0 -444.5 -181t-174.5 -462zM426 735q0 195 120 318t310 123q132 0 222 -55.5t145 -172.5l-203 -110q-28 65 -64 92.5t-94 27.5q-82 0 -128 -58t-46 -161q0 -104 46.5 -162.5t131.5 -58.5 q58 0 96 29t64 94l209 -113q-60 -121 -152.5 -178t-228.5 -57q-193 0 -310.5 121t-117.5 321z" />
<glyph unicode="&#xab;" horiz-adv-x="1101" d="M96 492l234 417h260l-238 -417l238 -416h-260zM514 492l236 417h260l-238 -417l238 -416h-260z" />
<glyph unicode="&#xad;" horiz-adv-x="616" d="M70 528v285h477v-285h-477z" />
<glyph unicode="&#xae;" horiz-adv-x="1189" d="M88 977q0 140 67.5 256t185 182t259.5 66q138 0 253.5 -66.5t182 -182t66.5 -253.5q0 -215 -146.5 -361.5t-361.5 -146.5q-140 0 -256.5 66.5t-183 183t-66.5 256.5zM199 977q0 -180 110 -293t285 -113t286 114t111 294t-108 290.5t-283 110.5q-182 0 -291.5 -110 t-109.5 -293zM389 745v480h246q85 0 131.5 -38.5t46.5 -107.5q0 -49 -21 -76.5t-69 -41.5q39 -10 57 -39.5t35 -112.5q8 -44 23 -59v-5h-148q-17 31 -26 82q-6 45 -22 62.5t-52 17.5h-51v-162h-150zM539 1014h71q62 0 62 51q0 53 -60 53h-73v-104z" />
<glyph unicode="&#xb4;" horiz-adv-x="1024" d="M395 1202l86 340h359l-224 -340h-221z" />
<glyph unicode="&#xb8;" horiz-adv-x="1024" d="M309 -344l129 61q28 -47 86 -47q35 0 54.5 16.5t19.5 45.5t-17.5 45t-48.5 16q-41 0 -63 -31l-90 60l129 178h135l-84 -111q35 7 47 7q66 0 110 -48t44 -120q0 -88 -59.5 -137.5t-163.5 -49.5q-149 0 -228 115z" />
<glyph unicode="&#xbb;" horiz-adv-x="1101" d="M94 76l238 416l-238 417h258l236 -417l-236 -416h-258zM514 76l238 416l-238 417h258l236 -417l-236 -416h-258z" />
<glyph unicode="&#x2c6;" horiz-adv-x="1024" d="M170 1202l225 340h236l223 -340h-215l-129 137l-127 -137h-213z" />
<glyph unicode="&#x2da;" horiz-adv-x="1024" d="M281 1391q0 95 67 158t168 63q97 0 163 -63.5t66 -157.5t-66.5 -159t-164.5 -65q-100 0 -166.5 64.5t-66.5 159.5zM422 1389q0 -40 26 -66.5t66 -26.5q38 0 64 26.5t26 66.5t-26 67t-64 27q-40 0 -66 -26.5t-26 -67.5z" />
<glyph unicode="&#x2dc;" horiz-adv-x="1024" d="M147 1249q34 291 234 291q69 0 156 -49q57 -33 92 -33q26 0 41 18t24 60l185 -12q-41 -291 -238 -291q-69 0 -154 47q-66 35 -96 35q-54 0 -72 -78z" />
<glyph unicode="&#x401;" horiz-adv-x="1318" d="M164 0v1464h1032v-266h-702v-328h532v-254h-532v-350h733v-266h-1063zM336 1712q0 63 45 107.5t108 44.5q61 0 105.5 -45t44.5 -107q0 -63 -44 -107t-106 -44q-63 0 -108 44.5t-45 106.5zM745 1712q0 63 44 107.5t108 44.5q61 0 106.5 -45t45.5 -107t-45.5 -106.5 t-108.5 -44.5q-62 0 -106 44t-44 107z" />
<glyph unicode="&#x402;" horiz-adv-x="1646" d="M20 1194v270h1158v-270h-492v-397q90 83 181.5 118t213.5 35q214 0 317 -120t103 -369v-228q0 -237 -27.5 -348t-99.5 -168q-62 -48 -147 -67.5t-244 -22.5l-14 221q42 3 69 10t49 25t33.5 42.5t19 71t9.5 102t2 143.5v184q0 151 -38.5 208.5t-139.5 57.5 q-86 0 -152 -37.5t-135 -126.5v-528h-334v1194h-332z" />
<glyph unicode="&#x403;" horiz-adv-x="1167" d="M164 0v1464h942v-270h-612v-1194h-330zM516 1579l86 356h359l-224 -356h-221z" />
<glyph unicode="&#x404;" horiz-adv-x="1458" d="M100 713q0 353 192.5 563.5t516.5 210.5q420 0 584 -342l-281 -121q-51 101 -122.5 147t-178.5 46q-106 0 -185.5 -51t-123.5 -148q-24 -55 -41 -156h583v-241h-587q12 -84 25.5 -129t39.5 -84q103 -160 295 -160q109 0 182.5 46t120.5 144l281 -133q-177 -328 -594 -328 q-327 0 -517 198t-190 538z" />
<glyph unicode="&#x405;" horiz-adv-x="1337" d="M47 326l287 123q82 -209 330 -209q117 0 185.5 45.5t68.5 122.5q0 80 -80 124q-41 23 -75 33t-198 47q-245 55 -349.5 154t-104.5 274q0 207 141.5 326t388.5 119q401 0 561 -303l-268 -125q-51 89 -119 127.5t-176 38.5q-104 0 -160.5 -38t-56.5 -108q0 -78 67 -114 q41 -22 81 -33.5t198 -44.5q253 -54 362 -157t109 -288q0 -219 -150 -341t-419 -122q-235 0 -398 97q-79 46 -130 102.5t-95 149.5z" />
<glyph unicode="&#x406;" horiz-adv-x="696" d="M180 0v1464h334v-1464h-334z" />
<glyph unicode="&#x407;" horiz-adv-x="704" d="M-4 1712q0 63 45.5 107.5t108.5 44.5q61 0 105 -45t44 -107q0 -63 -43.5 -107t-105.5 -44q-63 0 -108.5 44.5t-45.5 106.5zM184 0v1464h334v-1464h-334zM406 1712q0 65 43.5 108.5t107.5 43.5q61 0 106.5 -45t45.5 -107t-45.5 -106.5t-108.5 -44.5q-62 0 -105.5 44 t-43.5 107z" />
<glyph unicode="&#x408;" horiz-adv-x="1282" d="M98 471v78h326v-57q0 -125 45 -185.5t139 -60.5q97 0 141 66.5t44 213.5v938h333v-940q0 -270 -129 -408.5t-381 -138.5q-243 0 -380.5 131t-137.5 363z" />
<glyph unicode="&#x409;" horiz-adv-x="2146" d="M-10 0q72 119 106.5 201.5t59.5 195.5q55 261 55 713v354h1065v-549h246q161 0 258.5 -24.5t165.5 -81.5q141 -116 141 -352q0 -269 -186 -383q-66 -40 -153.5 -57t-225.5 -17h-582v1194h-410v-260q0 -139 -16 -308.5t-41 -285.5q-41 -181 -117 -340h-366zM1276 256h250 q239 0 239 201q0 202 -239 202h-250v-403z" />
<glyph unicode="&#x40a;" horiz-adv-x="2220" d="M164 0v1464h334v-549h516v549h334v-549h245q161 0 258.5 -24.5t165.5 -81.5q142 -117 142 -352q0 -132 -48 -229.5t-139 -153.5q-66 -40 -153.5 -57t-225.5 -17h-579v643h-516v-643h-334zM1348 256h249q240 0 240 201q0 202 -240 202h-249v-403z" />
<glyph unicode="&#x40b;" horiz-adv-x="1646" d="M20 1194v270h1158v-270h-492v-397q94 83 184 118t213 35q420 0 420 -452v-498h-348v438q0 146 -38.5 200t-141.5 54q-86 0 -153 -38t-136 -126v-528h-334v1194h-332z" />
<glyph unicode="&#x40c;" horiz-adv-x="1388" d="M164 0v1464h334v-604h30q68 0 105 43t104 201q40 95 74 155.5t72 104.5t86 65.5t104 31t139 9.5q45 0 117 -6v-247q-37 4 -84 4q-67 0 -104 -17t-68 -61q-29 -50 -74 -160q-44 -105 -69.5 -142.5t-83.5 -76.5q73 -28 139.5 -99.5t142.5 -205.5l267 -459h-387l-195 354 q-97 176 -149 228.5t-129 52.5h-37v-635h-334zM621 1579l86 356h358l-223 -356h-221z" />
<glyph unicode="&#x40e;" horiz-adv-x="1314" d="M4 1464h369l342 -673l243 673h328l-409 -1077q-88 -233 -192.5 -322.5t-289.5 -89.5q-103 0 -209 25l35 264q68 -16 125 -16q89 0 134 31t77 114l18 45zM334 1890h209q6 -65 39.5 -96t97.5 -31q126 0 135 127h209q-9 -167 -93.5 -248t-250.5 -81q-167 0 -251 80.5 t-95 248.5z" />
<glyph unicode="&#x40f;" horiz-adv-x="1476" d="M170 0v1464h334v-1198h471v1198h334v-1464h-418l-33 -354h-237l-33 354h-418z" />
<glyph unicode="&#x410;" horiz-adv-x="1464" d="M16 0l529 1464h385l518 -1464h-352l-95 283h-577l-96 -283h-312zM502 524h422l-209 629z" />
<glyph unicode="&#x411;" horiz-adv-x="1415" d="M164 0v1464h1034v-256h-704v-317h278q161 0 258.5 -23.5t165.5 -79.5q141 -116 141 -342q0 -129 -47 -224.5t-137 -149.5q-66 -38 -154.5 -55t-226.5 -17h-608zM494 256h282q240 0 240 190q0 189 -240 189h-282v-379z" />
<glyph unicode="&#x412;" horiz-adv-x="1445" d="M164 0v1464h661q229 0 354.5 -103t125.5 -290q0 -113 -48 -185t-159 -126q137 -50 199.5 -132t62.5 -214q0 -199 -133 -306.5t-381 -107.5h-682zM494 256h327q104 0 160.5 49.5t56.5 140.5q0 93 -58 141t-171 48h-315v-379zM494 872h311q184 0 184 168q0 86 -48.5 127 t-149.5 41h-297v-336z" />
<glyph unicode="&#x413;" horiz-adv-x="1167" d="M164 0v1464h942v-270h-612v-1194h-330z" />
<glyph unicode="&#x414;" horiz-adv-x="1503" d="M-33 270h139q81 152 116.5 385t35.5 615v194h1059v-1194h160v-624h-238l-31 354h-970l-33 -354h-238v624zM455 262h530v932h-414v-111q0 -100 -12 -252.5t-29 -259.5q-24 -172 -75 -309z" />
<glyph unicode="&#x415;" horiz-adv-x="1318" d="M164 0v1464h1032v-266h-702v-328h532v-254h-532v-350h733v-266h-1063z" />
<glyph unicode="&#x416;" horiz-adv-x="2000" d="M-8 0l254 459q78 139 139.5 208t130.5 97q-57 41 -83 84.5t-87 202.5q-41 103 -81.5 136.5t-123.5 33.5q-45 0 -84 -2v245q72 6 111 6q100 0 162 -12.5t114.5 -52t89.5 -101.5t82 -171q38 -95 61 -143.5t49 -80t50 -39.5t66 -10v604h319v-604q42 2 66 10t50 39.5t49 80 t60 143.5q59 144 113.5 213.5t129 96.5t206.5 27q39 0 111 -6v-245q-39 2 -84 2q-34 0 -54.5 -2t-42 -12t-34.5 -23.5t-30.5 -43t-32.5 -64t-38 -93.5q-42 -107 -66.5 -145t-76.5 -74q70 -29 130 -97t140 -208l254 -459h-373l-180 354q-92 170 -145.5 222t-151.5 65v-641 h-319v641q-98 -13 -151.5 -65t-145.5 -222l-180 -354h-373z" />
<glyph unicode="&#x417;" horiz-adv-x="1388" d="M45 389l299 74q38 -116 115.5 -169.5t206.5 -53.5q128 0 200 52t72 144q0 94 -69 143.5t-199 49.5h-154v243h143q126 0 195.5 47.5t69.5 133.5q0 80 -65 126t-179 46t-183.5 -46t-113.5 -151l-272 86q63 182 212 276.5t373 94.5q248 0 400.5 -112.5t152.5 -295.5 q0 -212 -227 -305q264 -88 264 -344q0 -207 -162.5 -329t-439.5 -122q-153 0 -283 41.5t-213 116.5q-59 53 -90 108.5t-53 145.5z" />
<glyph unicode="&#x418;" horiz-adv-x="1505" d="M164 0v1464h325v-876l525 749v127h325v-1464h-325v889l-525 -752v-137h-325z" />
<glyph unicode="&#x419;" horiz-adv-x="1505" d="M164 0v1464h325v-876l525 749v127h325v-1464h-325v889l-525 -752v-137h-325zM420 1888h205q12 -127 139 -127q125 0 137 127h205q-7 -165 -92 -246t-250 -81q-166 0 -250.5 80.5t-93.5 246.5z" />
<glyph unicode="&#x41a;" horiz-adv-x="1388" d="M164 0v1464h334v-604h30q68 0 105 43t104 201q40 95 74 155.5t72 104.5t86 65.5t104 31t139 9.5q45 0 117 -6v-247q-37 4 -84 4q-67 0 -104 -17t-68 -61q-29 -50 -74 -160q-44 -105 -69.5 -142.5t-83.5 -76.5q73 -28 139.5 -99.5t142.5 -205.5l267 -459h-387l-195 354 q-97 176 -149 228.5t-129 52.5h-37v-635h-334z" />
<glyph unicode="&#x41b;" horiz-adv-x="1439" d="M-10 0q72 117 106.5 200t59.5 197q55 261 55 713v354h1065v-1464h-336v1194h-410v-260q0 -139 -16 -308.5t-41 -285.5q-41 -181 -117 -340h-366z" />
<glyph unicode="&#x41c;" horiz-adv-x="1945" d="M164 0v1464h475l330 -995l331 995h480v-1464h-330v1096l-371 -1096h-248l-372 1098v-1098h-295z" />
<glyph unicode="&#x41d;" horiz-adv-x="1548" d="M164 0v1464h334v-592h551v592h333v-1464h-333v600h-551v-600h-334z" />
<glyph unicode="&#x41e;" horiz-adv-x="1626" d="M100 737q0 216 90.5 387t253.5 266t369 95q207 0 369.5 -95.5t252 -267t89.5 -391.5t-89.5 -391.5t-252 -267t-369.5 -95.5q-210 0 -372 95.5t-251.5 268.5t-89.5 396zM449 735q0 -230 95 -358.5t267 -128.5t268.5 128t96.5 355t-96.5 355t-268.5 128 q-169 0 -265.5 -127.5t-96.5 -351.5z" />
<glyph unicode="&#x41f;" horiz-adv-x="1515" d="M164 0v1464h1186v-1464h-334v1192h-518v-1192h-334z" />
<glyph unicode="&#x420;" horiz-adv-x="1398" d="M164 0v1464h616q257 0 398 -124t141 -351q0 -215 -136 -336t-378 -121h-307v-532h-334zM498 780h260q237 0 237 217q0 104 -58.5 157.5t-172.5 53.5h-266v-428z" />
<glyph unicode="&#x421;" horiz-adv-x="1499" d="M100 727q0 222 88.5 395t248 269t364.5 96q277 0 444 -162q52 -49 86.5 -101.5t75.5 -146.5l-295 -121q-53 140 -125.5 200.5t-189.5 60.5q-167 0 -257.5 -126.5t-90.5 -359.5t92 -358t262 -125q121 0 196.5 64t126.5 210l299 -123q-44 -106 -93.5 -173.5t-123.5 -125.5 q-166 -123 -405 -123q-320 0 -511.5 204.5t-191.5 545.5z" />
<glyph unicode="&#x422;" horiz-adv-x="1230" d="M37 1194v270h1157v-270h-412v-1194h-333v1194h-412z" />
<glyph unicode="&#x423;" horiz-adv-x="1314" d="M4 1464h369l319 -735l266 735h328l-409 -1077q-88 -233 -192.5 -322.5t-289.5 -89.5q-103 0 -209 25l35 264q68 -16 127 -16q83 0 128.5 28.5t74.5 98.5z" />
<glyph unicode="&#x424;" horiz-adv-x="1896" d="M100 733q0 149 69.5 271t195.5 196q87 52 186 78t248 37v225h295v-225q149 -11 248 -37t186 -78q126 -73 195 -195.5t69 -271.5q0 -151 -69 -273t-195 -196q-87 -52 -186 -77.5t-248 -36.5v-226h-295v226q-149 11 -248 36.5t-186 77.5q-126 74 -195.5 196.5t-69.5 272.5z M442 733q0 -160 83 -239.5t274 -102.5v682q-191 -23 -274 -102.5t-83 -237.5zM1094 391q190 23 273 103t83 239q0 157 -83 237t-273 103v-682z" />
<glyph unicode="&#x425;" horiz-adv-x="1474" d="M49 0l492 754l-457 710h397l271 -463l266 463h354l-440 -700l495 -764h-397l-311 524l-311 -524h-359z" />
<glyph unicode="&#x426;" horiz-adv-x="1490" d="M164 0v1464h334v-1194h471v1194h334v-1194h161v-624h-237l-33 354h-1030z" />
<glyph unicode="&#x427;" horiz-adv-x="1411" d="M123 813v651h334v-596q0 -123 48 -174t163 -51q118 0 181.5 62t63.5 178v581h334v-1464h-334v526q-62 -75 -152 -111t-220 -36q-418 0 -418 434z" />
<glyph unicode="&#x428;" horiz-adv-x="2193" d="M164 0v1464h334v-1194h432v1194h334v-1194h432v1194h334v-1464h-1866z" />
<glyph unicode="&#x429;" horiz-adv-x="2217" d="M164 0v1464h334v-1194h432v1194h334v-1194h432v1194h334v-1194h159v-624h-235l-33 354h-1757z" />
<glyph unicode="&#x42a;" horiz-adv-x="1546" d="M4 1194v270h668v-510h250q162 0 259.5 -25t166.5 -85q139 -124 139 -367q0 -137 -47.5 -240.5t-136.5 -158.5q-67 -42 -155 -60t-226 -18h-580v1194h-338zM672 256h256q237 0 237 221q0 112 -58.5 166.5t-178.5 54.5h-256v-442z" />
<glyph unicode="&#x42b;" horiz-adv-x="2007" d="M164 0v1464h330v-510h249q162 0 259.5 -25t166.5 -85q140 -124 140 -367q0 -137 -48 -240.5t-137 -158.5q-67 -42 -155 -60t-226 -18h-579zM494 256h254q239 0 239 221t-239 221h-254v-442zM1507 0v1464h334v-1464h-334z" />
<glyph unicode="&#x42c;" horiz-adv-x="1370" d="M164 0v1464h330v-510h249q162 0 259.5 -25t166.5 -85q140 -124 140 -367q0 -137 -48 -240.5t-137 -158.5q-67 -42 -155 -60t-226 -18h-579zM494 256h254q239 0 239 221t-239 221h-254v-442z" />
<glyph unicode="&#x42d;" horiz-adv-x="1433" d="M45 272l270 146q52 -90 123.5 -130t179.5 -40q311 0 357 373h-590v241h588q-28 180 -113 267.5t-231 87.5q-110 0 -186 -44t-132 -139l-243 148q165 305 563 305q322 0 511 -209.5t189 -566.5q0 -343 -189 -538.5t-521 -195.5q-277 0 -457 148q-35 29 -60 60t-59 87z" />
<glyph unicode="&#x42e;" horiz-adv-x="2215" d="M164 0v1464h334v-592h268q43 284 223 448.5t447 164.5q197 0 351.5 -95.5t240.5 -267.5t86 -391q0 -220 -85.5 -392t-240 -267t-352.5 -95q-269 0 -449 167t-223 456h-266v-600h-334zM1102 731q0 -226 88 -354.5t242 -128.5q160 0 246.5 124.5t86.5 354.5 q0 229 -87.5 358t-243.5 129q-155 0 -243.5 -128t-88.5 -355z" />
<glyph unicode="&#x42f;" horiz-adv-x="1492" d="M72 0v2q48 64 106 324q37 169 85.5 236t160.5 102q-75 23 -118 49t-77 69q-79 98 -79 260q0 232 180 344q71 43 157 60.5t234 17.5h608v-1464h-334v549h-250q-125 0 -180 -70q-23 -32 -37 -70.5t-34 -127.5q-42 -197 -95 -281h-327zM471 1006q0 -104 58.5 -158.5 t172.5 -54.5h293v413h-282q-129 0 -185.5 -46.5t-56.5 -153.5z" />
<glyph unicode="&#x430;" horiz-adv-x="1150" d="M76 281q0 185 153.5 275t472.5 93v29q0 89 -40.5 128.5t-131.5 39.5q-148 0 -303 -105l-133 201q104 82 218.5 119t262.5 37q256 0 365 -142q42 -53 60 -118.5t18 -165.5v-486q0 -95 29 -174v-12h-304q-15 40 -28 127q-114 -150 -305 -150q-152 0 -243 83t-91 221z M383 309q0 -51 33.5 -79.5t93.5 -28.5q87 0 141 46t54 120v94q-169 -3 -245.5 -39t-76.5 -113z" />
<glyph unicode="&#x431;" horiz-adv-x="1269" d="M106 692q0 270 36 435.5t114 261.5q71 83 177 118t292 35h377l-43 -237h-285q-150 0 -220.5 -19.5t-111.5 -71.5q-43 -54 -62 -129t-22 -204q97 107 176 146.5t197 39.5q207 0 332 -145.5t125 -386.5q0 -253 -147 -405.5t-392 -152.5q-270 0 -411 181q-72 94 -102 213.5 t-30 320.5zM430 526q0 -149 56.5 -230t162.5 -81q101 0 157 80.5t56 228.5q0 155 -56 239.5t-159 84.5t-160 -85t-57 -237z" />
<glyph unicode="&#x432;" horiz-adv-x="1255" d="M164 0v1071h579q381 0 381 -297q0 -79 -28.5 -129t-96.5 -88q90 -40 127 -95.5t37 -150.5q0 -311 -405 -311h-594zM469 219h250q71 0 104 29t33 90q0 59 -34 86t-107 27h-246v-232zM473 645h234q61 0 89.5 25t28.5 78q0 55 -29.5 79.5t-97.5 24.5h-225v-207z" />
<glyph unicode="&#x433;" horiz-adv-x="976" d="M164 0v1071h762v-248h-445v-823h-317z" />
<glyph unicode="&#x434;" horiz-adv-x="1316" d="M-23 248h115q76 94 119 233q25 83 42 221t17 254v115h865v-823h133v-561h-228l-26 313h-778l-31 -313h-228v561zM428 242h397v581h-276v-35q0 -58 -13 -158.5t-28 -166.5q-26 -111 -80 -221z" />
<glyph unicode="&#x435;" horiz-adv-x="1208" d="M82 532q0 250 151.5 408t391.5 158q235 0 369 -148t134 -407v-84h-722q13 -126 70.5 -185t164.5 -59q77 0 127.5 30.5t91.5 100.5l246 -123q-147 -246 -465 -246q-251 0 -405 153t-154 402zM410 647h409q-10 115 -56.5 166t-139.5 51q-89 0 -140 -51.5t-73 -165.5z" />
<glyph unicode="&#x436;" horiz-adv-x="1685" d="M8 0l201 338q57 99 95 141t99 74q-45 38 -63.5 65.5t-46.5 98.5q-20 53 -30.5 76t-29.5 39t-37 18t-59 2h-55v219h106q65 0 106 -5.5t75 -18.5t59 -42t46 -68.5t48 -105.5q46 -115 72 -146.5t76 -31.5h18v418h305v-418h19q50 0 75.5 31.5t71.5 146.5q23 56 40 91t39.5 64 t43 44t53.5 25t69 13t91 3h107v-219h-56q-75 0 -96.5 -19t-58.5 -116q-26 -67 -45.5 -96t-55.5 -58l-10 -10q61 -33 100 -75.5t95 -139.5l200 -338h-352l-158 309q-40 77 -73.5 108.5t-75.5 31.5h-23v-449h-305v449h-20q-44 0 -78 -31.5t-74 -108.5l-158 -309h-350z" />
<glyph unicode="&#x437;" horiz-adv-x="1130" d="M35 303l270 70q31 -87 87.5 -124.5t156.5 -37.5q174 0 174 119q0 57 -41.5 88t-116.5 31h-147v198h141q72 0 115 29t43 76q0 52 -47 83t-127 31q-83 0 -136.5 -29t-103.5 -100l-231 103q72 138 186 198t303 60q220 0 340.5 -85t120.5 -239q0 -74 -30.5 -122.5 t-100.5 -88.5q158 -73 158 -233q0 -170 -129.5 -261.5t-372.5 -91.5q-281 0 -416 132q-39 37 -59 77.5t-37 116.5z" />
<glyph unicode="&#x438;" horiz-adv-x="1284" d="M164 0v1071h309v-582l336 476v106h309v-1071h-309v588l-336 -475v-113h-309z" />
<glyph unicode="&#x439;" horiz-adv-x="1284" d="M164 0v1071h309v-582l336 476v106h309v-1071h-309v588l-336 -475v-113h-309zM301 1530h205q12 -127 131 -127q121 0 133 127h205q-9 -166 -92 -247t-246 -81q-321 0 -336 328z" />
<glyph unicode="&#x43a;" horiz-adv-x="1216" d="M164 0v1071h317v-422h29q51 0 78.5 29t73.5 129q30 65 49.5 103.5t44.5 71.5t45.5 47.5t56 25.5t72 13.5t96.5 2.5h107v-219h-56q-44 0 -63.5 -2t-39.5 -18t-31 -38.5t-34 -76.5q-29 -69 -49 -98.5t-57 -55.5l-12 -10q63 -32 103.5 -75t100.5 -140l211 -338h-364 l-168 303q-41 74 -78 106.5t-80 32.5h-35v-442h-317z" />
<glyph unicode="&#x43b;" horiz-adv-x="1253" d="M23 0q109 183 151.5 371.5t42.5 486.5v213h873v-1071h-316v823h-274v-135q0 -209 -35 -368t-115 -320h-327z" />
<glyph unicode="&#x43c;" horiz-adv-x="1652" d="M164 0v1071h422l235 -680l238 680h428v-1071h-316v743l-258 -743h-202l-260 743v-743h-287z" />
<glyph unicode="&#x43d;" horiz-adv-x="1294" d="M164 0v1071h317v-405h330v405h317v-1071h-317v418h-330v-418h-317z" />
<glyph unicode="&#x43e;" horiz-adv-x="1263" d="M82 537q0 245 155 403t396 158q242 0 394.5 -156t152.5 -403q0 -248 -153.5 -405t-397.5 -157q-245 0 -396 155t-151 405zM408 541q0 -155 58 -238.5t165 -83.5q109 0 166 83t57 241q0 153 -56.5 233t-164.5 80q-110 0 -167.5 -80.5t-57.5 -234.5z" />
<glyph unicode="&#x43f;" horiz-adv-x="1290" d="M164 0v1071h960v-1071h-317v823h-338v-823h-305z" />
<glyph unicode="&#x440;" horiz-adv-x="1298" d="M141 -373v1444h318v-162q116 189 321 189q197 0 315.5 -153t118.5 -406q0 -257 -118.5 -409.5t-317.5 -152.5q-216 0 -319 183v-533h-318zM449 535q0 -151 58 -233.5t165 -82.5q217 0 217 311q0 160 -54.5 243t-160.5 83q-107 0 -166 -83.5t-59 -237.5z" />
<glyph unicode="&#x441;" horiz-adv-x="1134" d="M82 530q0 254 147 411t385 157q316 0 463 -287l-264 -121q-41 97 -81 131.5t-109 34.5q-104 0 -159.5 -80.5t-55.5 -234.5q0 -157 57 -239.5t164 -82.5q75 0 124.5 39.5t84.5 128.5l252 -123q-143 -287 -472 -287q-244 0 -390 150.5t-146 402.5z" />
<glyph unicode="&#x442;" horiz-adv-x="970" d="M33 823v248h905v-248h-293v-823h-317v823h-295z" />
<glyph unicode="&#x443;" horiz-adv-x="1124" d="M8 1071h340l232 -661l223 661h313l-418 -1124q-65 -171 -165.5 -252.5t-247.5 -81.5q-137 0 -244 68l86 217q64 -43 129 -43q52 0 91 28.5t56 79.5l15 47z" />
<glyph unicode="&#x444;" horiz-adv-x="1792" d="M82 539q0 253 108 406t287 153q176 0 277 -170v614h286v-614q101 170 277 170q179 0 287 -153t108 -406q0 -255 -107.5 -408.5t-287.5 -153.5q-190 0 -277 179v-529h-286v529q-87 -179 -277 -179q-180 0 -287.5 153.5t-107.5 408.5zM408 537q0 -155 43.5 -236.5 t126.5 -81.5q90 0 138 81.5t48 234.5q0 152 -48 236.5t-134 84.5q-85 0 -129.5 -82t-44.5 -237zM1030 535q0 -152 47 -234t135 -82q85 0 129.5 80.5t44.5 232.5q0 159 -45 241.5t-133 82.5q-85 0 -131.5 -84.5t-46.5 -236.5z" />
<glyph unicode="&#x445;" horiz-adv-x="1204" d="M37 0l371 547l-349 524h369l186 -303l189 303h330l-351 -500l385 -571h-370l-213 342l-219 -342h-328z" />
<glyph unicode="&#x446;" horiz-adv-x="1296" d="M164 0v1071h317v-823h314v823h317v-823h133v-561h-227l-25 313h-829z" />
<glyph unicode="&#x447;" horiz-adv-x="1222" d="M98 639v432h318v-385q0 -92 34.5 -133t112.5 -41t127 51.5t49 134.5v373h318v-1071h-318v416q-106 -156 -305 -156q-161 0 -248.5 98t-87.5 281z" />
<glyph unicode="&#x448;" horiz-adv-x="1845" d="M164 0v1071h315v-823h293v823h297v-823h295v823h315v-1071h-1515z" />
<glyph unicode="&#x449;" horiz-adv-x="1863" d="M164 0v1071h315v-823h293v823h297v-823h295v823h315v-825h133v-559h-225l-22 313h-1401z" />
<glyph unicode="&#x44a;" horiz-adv-x="1275" d="M4 844v227h551v-338h211q127 0 203 -18.5t129 -61.5q108 -89 108 -286q0 -225 -143 -312q-96 -55 -297 -55h-516v844h-246zM555 225h170q65 0 95 9.5t50 37.5q29 40 29 99q0 71 -39 110q-20 20 -48.5 27.5t-86.5 7.5h-170v-291z" />
<glyph unicode="&#x44b;" horiz-adv-x="1759" d="M164 0v1071h305v-338h211q127 0 203 -18.5t129 -61.5q108 -89 108 -286q0 -225 -143 -312q-96 -55 -297 -55h-516zM469 225h170q65 0 95 9.5t50 37.5q29 40 29 99q0 74 -39 110q-22 20 -49.5 27.5t-85.5 7.5h-170v-291zM1276 0v1071h317v-1071h-317z" />
<glyph unicode="&#x44c;" horiz-adv-x="1193" d="M164 0v1071h305v-338h211q127 0 203 -18.5t129 -61.5q108 -89 108 -286q0 -225 -143 -312q-96 -55 -297 -55h-516zM469 225h170q65 0 95 9.5t50 37.5q29 40 29 99q0 74 -39 110q-22 20 -49.5 27.5t-85.5 7.5h-170v-291z" />
<glyph unicode="&#x44d;" horiz-adv-x="1159" d="M37 201l219 139q59 -66 113.5 -93.5t130.5 -27.5q107 0 163.5 54t71.5 171h-405v197h403q-38 213 -227 213q-72 0 -128 -30t-116 -99l-201 162q159 211 463 211q254 0 399.5 -150t145.5 -411q0 -252 -143 -404q-75 -80 -176.5 -118t-241.5 -38q-318 0 -471 224z" />
<glyph unicode="&#x44e;" horiz-adv-x="1761" d="M164 0v1071h317v-409h160q40 200 178.5 318t333.5 118q230 0 377 -156t147 -401q0 -249 -147 -406.5t-379 -157.5q-199 0 -339 119.5t-175 317.5h-156v-414h-317zM950 539q0 -154 52 -237t147 -83q100 0 151.5 82.5t51.5 239.5q0 153 -51 233t-148 80q-98 0 -150.5 -81 t-52.5 -234z" />
<glyph unicode="&#x44f;" horiz-adv-x="1247" d="M41 0v12q40 53 59 100t45 160q25 91 53.5 135t80.5 72q-83 41 -118.5 105.5t-35.5 169.5q0 187 143 266q53 28 124 39.5t192 11.5h499v-1071h-305v391h-184q-64 0 -100 -55q-16 -21 -24 -43t-21 -80q-36 -153 -78 -213h-330zM430 727q0 -60 36.5 -98.5t92.5 -38.5h219 v262h-213q-135 0 -135 -125z" />
<glyph unicode="&#x451;" horiz-adv-x="1208" d="M82 532q0 250 151.5 408t391.5 158q235 0 369 -148t134 -407v-84h-722q13 -126 70.5 -185t164.5 -59q77 0 127.5 30.5t91.5 100.5l246 -123q-147 -246 -465 -246q-251 0 -405 153t-154 402zM254 1370q0 66 47 113t113 47q65 0 111 -47t46 -113q0 -65 -46.5 -111.5 t-110.5 -46.5q-65 0 -112.5 47t-47.5 111zM410 647h409q-10 115 -56.5 166t-139.5 51q-89 0 -140 -51.5t-73 -165.5zM682 1370q0 67 46 113.5t112 46.5q64 0 111.5 -47.5t47.5 -110.5q0 -66 -47 -113t-112 -47q-66 0 -112 46.5t-46 111.5z" />
<glyph unicode="&#x452;" horiz-adv-x="1325" d="M37 1184v198h129v160h317v-160h226v-198h-226v-281q109 193 336 193q166 0 257 -106t91 -298v-469q0 -241 -24.5 -346t-93.5 -164q-59 -47 -140 -67t-229 -23l-14 207q43 3 70 9.5t49.5 24.5t33.5 42t19 70.5t10 101.5t2 143v397q0 117 -40 167.5t-132 50.5 q-91 0 -143 -58t-52 -160v-618h-317v1184h-129z" />
<glyph unicode="&#x453;" horiz-adv-x="976" d="M164 0v1071h762v-248h-445v-823h-317zM412 1186l86 356h362l-221 -356h-227z" />
<glyph unicode="&#x454;" horiz-adv-x="1161" d="M90 537q0 261 147 411t402 150q152 0 264 -51t197 -158l-203 -164q-57 69 -112.5 99t-127.5 30q-193 0 -231 -213h416v-197h-418q17 -119 74.5 -172t167.5 -53q74 0 128 27.5t109 93.5l221 -139q-85 -117 -197 -170.5t-272 -53.5q-302 0 -450 191q-115 145 -115 369z" />
<glyph unicode="&#x455;" horiz-adv-x="1081" d="M55 131l135 209q83 -72 156 -101.5t168 -29.5q174 0 174 98q0 31 -16 49.5t-51 30.5q-16 5 -175 35q-168 31 -254 115.5t-86 218.5q0 163 115 252.5t324 89.5q263 0 420 -127l-140 -203q-118 100 -284 100q-140 0 -140 -86q0 -44 38 -64t173 -46q184 -35 256 -82 q133 -81 133 -254q0 -172 -125 -265.5t-352 -93.5q-153 0 -257 34.5t-212 119.5z" />
<glyph unicode="&#x456;" horiz-adv-x="618" d="M127 1374q0 75 52 126.5t128 51.5q74 0 125 -51.5t51 -126.5t-51 -126.5t-125 -51.5q-76 0 -128 51.5t-52 126.5zM150 0v1071h317v-1071h-317z" />
<glyph unicode="&#x457;" horiz-adv-x="618" d="M-63 1370q0 66 46.5 113t112.5 47q65 0 111.5 -47t46.5 -113q0 -64 -47 -111t-111 -47q-65 0 -112 47t-47 111zM150 0v1071h317v-1071h-317zM365 1370q0 67 45.5 113.5t111.5 46.5q64 0 112 -48t48 -112t-47.5 -111t-112.5 -47q-66 0 -111.5 46.5t-45.5 111.5z" />
<glyph unicode="&#x458;" horiz-adv-x="626" d="M-68 -340l60 223q40 -18 71 -18q44 0 69.5 26t25.5 72v1108h317v-1102q0 -175 -85.5 -267.5t-246.5 -92.5q-125 0 -211 51zM135 1374q0 76 51.5 127t128.5 51q74 0 125.5 -51.5t51.5 -126.5t-51.5 -126.5t-125.5 -51.5q-76 0 -128 51.5t-52 126.5z" />
<glyph unicode="&#x459;" horiz-adv-x="1785" d="M23 0q109 183 151.5 372t42.5 486v213h862v-354h197q132 0 206.5 -17t125.5 -59q108 -89 108 -283q0 -189 -101 -273.5t-325 -84.5h-516v823h-274v-135q0 -205 -35 -366.5t-115 -321.5h-327zM1079 227h176q85 0 120.5 31t35.5 104q0 70 -35 105q-18 20 -43 26.5t-78 6.5 h-176v-273z" />
<glyph unicode="&#x45a;" horiz-adv-x="1806" d="M164 0v1071h317v-391h314v391h305v-354h198q132 0 206.5 -17t125.5 -59q109 -89 109 -281q0 -190 -100.5 -275t-325.5 -85h-518v453h-314v-453h-317zM1100 227h178q85 0 120.5 31.5t35.5 106.5q0 66 -35 104q-20 19 -44 25t-77 6h-178v-273z" />
<glyph unicode="&#x45b;" horiz-adv-x="1312" d="M37 1184v198h129v160h317v-160h226v-198h-226v-281q108 193 334 193q161 0 249.5 -105.5t88.5 -298.5v-692h-317v641q0 100 -39.5 147.5t-122.5 47.5q-91 0 -142 -57.5t-51 -160.5v-618h-317v1184h-129z" />
<glyph unicode="&#x45c;" horiz-adv-x="1216" d="M164 0v1071h317v-422h29q51 0 78.5 29t73.5 129q30 65 49.5 103.5t44.5 71.5t45.5 47.5t56 25.5t72 13.5t96.5 2.5h107v-219h-56q-44 0 -63.5 -2t-39.5 -18t-31 -38.5t-34 -76.5q-29 -69 -49 -98.5t-57 -55.5l-12 -10q63 -32 103.5 -75t100.5 -140l211 -338h-364 l-168 303q-41 74 -78 106.5t-80 32.5h-35v-442h-317zM528 1186l86 356h363l-221 -356h-228z" />
<glyph unicode="&#x45e;" horiz-adv-x="1124" d="M8 1071h340l232 -661l223 661h313l-418 -1124q-65 -171 -165.5 -252.5t-247.5 -81.5q-137 0 -244 68l86 217q64 -43 129 -43q52 0 91 28.5t56 79.5l15 47zM236 1530h204q12 -127 131 -127q122 0 134 127h204q-9 -166 -92 -247t-246 -81q-161 0 -244.5 81t-90.5 247z" />
<glyph unicode="&#x45f;" horiz-adv-x="1277" d="M164 0v1071h317v-823h314v823h317v-1071h-344l-25 -313h-211l-24 313h-344z" />
<glyph unicode="&#x490;" horiz-adv-x="1167" d="M164 0v1464h686l33 258h223v-528h-612v-1194h-330z" />
<glyph unicode="&#x491;" horiz-adv-x="976" d="M164 0v1071h512l22 219h215v-467h-434v-823h-315z" />
<glyph unicode="&#x4c0;" horiz-adv-x="696" d="M180 0v1464h334v-1464h-334z" />
<glyph unicode="&#x2000;" horiz-adv-x="967" />
<glyph unicode="&#x2001;" horiz-adv-x="1935" />
<glyph unicode="&#x2002;" horiz-adv-x="967" />
<glyph unicode="&#x2003;" horiz-adv-x="1935" />
<glyph unicode="&#x2004;" horiz-adv-x="645" />
<glyph unicode="&#x2005;" horiz-adv-x="483" />
<glyph unicode="&#x2006;" horiz-adv-x="322" />
<glyph unicode="&#x2007;" horiz-adv-x="322" />
<glyph unicode="&#x2008;" horiz-adv-x="241" />
<glyph unicode="&#x2009;" horiz-adv-x="387" />
<glyph unicode="&#x200a;" horiz-adv-x="107" />
<glyph unicode="&#x2010;" horiz-adv-x="616" d="M70 528v285h477v-285h-477z" />
<glyph unicode="&#x2011;" horiz-adv-x="616" d="M70 528v285h477v-285h-477z" />
<glyph unicode="&#x2012;" horiz-adv-x="616" d="M70 528v285h477v-285h-477z" />
<glyph unicode="&#x2013;" d="M119 543v256h993v-256h-993z" />
<glyph unicode="&#x2014;" d="M-82 543v256h1397v-256h-1397z" />
<glyph unicode="&#x2018;" horiz-adv-x="598" d="M115 1145q0 194 106 303q45 45 95 67t130 31v-119q-137 -42 -149 -202l16 -2q79 -6 123.5 -48.5t44.5 -113.5t-48.5 -117.5t-123.5 -46.5q-89 0 -141.5 67t-52.5 181z" />
<glyph unicode="&#x2019;" horiz-adv-x="598" d="M115 1382q0 71 48.5 117.5t123.5 46.5q89 0 141.5 -67t52.5 -181q0 -194 -106 -303q-45 -45 -95 -67t-130 -31v119q137 42 149 203l-16 2q-80 6 -124 48.5t-44 112.5z" />
<glyph unicode="&#x201a;" horiz-adv-x="598" d="M115 160q0 71 48.5 117.5t123.5 46.5q89 0 141.5 -67t52.5 -181q0 -194 -106 -303q-45 -45 -95 -67.5t-130 -31.5v119q137 42 149 203l-16 2q-79 6 -123.5 48.5t-44.5 113.5z" />
<glyph unicode="&#x201c;" horiz-adv-x="1056" d="M115 1145q0 194 106 303q45 45 95 67t130 31v-119q-137 -42 -149 -202l16 -2q79 -6 123.5 -48.5t44.5 -113.5t-48.5 -117.5t-123.5 -46.5q-89 0 -141.5 67t-52.5 181zM573 1145q0 193 107 303q45 45 95 67t130 31v-119q-137 -42 -149 -202l16 -2q79 -6 123.5 -48.5 t44.5 -113.5t-48.5 -117.5t-123.5 -46.5q-89 0 -142 67t-53 181z" />
<glyph unicode="&#x201d;" horiz-adv-x="1056" d="M115 1382q0 71 48.5 117.5t123.5 46.5q89 0 141.5 -67t52.5 -181q0 -194 -106 -303q-45 -45 -95 -67t-130 -31v119q137 42 149 203l-16 2q-80 6 -124 48.5t-44 112.5zM573 1382q0 71 48.5 117.5t123.5 46.5q89 0 142 -67t53 -181q0 -194 -106 -303q-45 -45 -95 -67 t-131 -31v119q138 43 150 203l-17 2q-80 6 -124 48.5t-44 112.5z" />
<glyph unicode="&#x201e;" horiz-adv-x="1056" d="M115 160q0 71 48.5 117.5t123.5 46.5q89 0 141.5 -67t52.5 -181q0 -194 -106 -303q-45 -45 -95 -67.5t-130 -31.5v119q137 42 149 203l-16 2q-79 6 -123.5 48.5t-44.5 113.5zM573 160q0 71 48.5 117.5t123.5 46.5q89 0 142 -67t53 -181q0 -194 -106 -303 q-45 -45 -95.5 -67.5t-130.5 -31.5v119q138 43 150 203l-17 2q-79 6 -123.5 48.5t-44.5 113.5z" />
<glyph unicode="&#x2026;" horiz-adv-x="1849" d="M117 172q0 82 56 137.5t138 55.5q78 0 134.5 -57.5t56.5 -135.5q0 -79 -56.5 -135.5t-136.5 -56.5t-136 55.5t-56 136.5zM733 172q0 82 56.5 137.5t138.5 55.5q78 0 134 -57.5t56 -135.5q0 -80 -56 -136t-136 -56t-136.5 55.5t-56.5 136.5zM1350 172q0 82 56 137.5 t138 55.5q78 0 134.5 -57.5t56.5 -135.5q0 -79 -56.5 -135.5t-136.5 -56.5t-136 55.5t-56 136.5z" />
<glyph unicode="&#x202f;" horiz-adv-x="387" />
<glyph unicode="&#x2039;" horiz-adv-x="684" d="M96 492l234 417h260l-238 -417l238 -416h-260z" />
<glyph unicode="&#x203a;" horiz-adv-x="684" d="M94 76l238 416l-238 417h258l236 -417l-236 -416h-258z" />
<glyph unicode="&#x205f;" horiz-adv-x="483" />
<glyph unicode="&#x20ac;" d="M-12 500v155h127q-2 23 -2 78q0 46 2 64h-127v155h147q34 137 75.5 219t113.5 154q159 162 399 162q241 0 375 -162q41 -50 64 -93.5t52 -129.5l9 -27l-279 -88q-40 138 -90.5 193t-136.5 55q-98 0 -162 -69.5t-98 -213.5h317v-155h-336q-2 -20 -2 -64q0 -55 2 -78h336 v-155h-313q37 -142 99 -206.5t163 -64.5q142 0 203 158q14 35 30 105l287 -82q-55 -212 -190.5 -322.5t-339.5 -110.5q-262 0 -418 185q-61 67 -94.5 137.5t-65.5 200.5h-147z" />
<glyph unicode="&#x2122;" horiz-adv-x="1611" d="M72 1309v155h579v-155h-188v-502h-191v502h-200zM754 807v657h241l140 -444l131 444h243v-657h-170v420l-137 -420h-145l-133 420v-420h-170z" />
<glyph unicode="&#xe000;" horiz-adv-x="1075" d="M0 0v1075h1075v-1075h-1075z" />
</font>
</defs>
</svg>
