<?xml version="1.0" standalone="no"?>
<!DOCTYPE svg PUBLIC "-//W3C//DTD SVG 1.1//EN" "http://www.w3.org/Graphics/SVG/1.1/DTD/svg11.dtd" >
<svg xmlns="http://www.w3.org/2000/svg">
<metadata></metadata>
<defs>
<font id="PFDinDisplayProBold" horiz-adv-x="1093" >
<font-face units-per-em="2048" ascent="1536" descent="-512" />
<missing-glyph horiz-adv-x="520" />
<glyph horiz-adv-x="0" />
<glyph horiz-adv-x="2048" />
<glyph unicode=" "  horiz-adv-x="520" />
<glyph unicode="&#x09;" horiz-adv-x="520" />
<glyph unicode="&#xa0;" horiz-adv-x="520" />
<glyph unicode="!" horiz-adv-x="544" d="M111 154q0 66 46 111.5t113 45.5q69 0 116.5 -45.5t47.5 -111.5q0 -70 -44.5 -119t-117.5 -49q-68 0 -114.5 49t-46.5 119zM143 1425h256l-14 -1001h-227z" />
<glyph unicode="&#x22;" horiz-adv-x="710" d="M106 987v438h211v-438h-211zM399 987v438h207v-438h-207z" />
<glyph unicode="#" horiz-adv-x="1130" d="M47 418v192h197l30 209h-174v193h201l57 413h213l-55 -413h170l59 413h213l-57 -413h178v-193h-205l-28 -209h180v-192h-207l-57 -418h-219l59 418h-168l-57 -418h-221l59 418h-168zM459 610h172l28 209h-170z" />
<glyph unicode="$" d="M43 201l147 196q187 -149 361 -149q111 0 168 46t57 122q0 22 -6 41.5t-19.5 35t-27.5 27.5t-37.5 22.5t-40 18t-46 15t-45 11.5t-46 10.5t-41.5 8.5q-365 73 -365 387q0 157 100 265.5t263 138.5v184h174q-2 -59 -2 -176q191 -14 385 -150l-139 -213q-160 117 -316 117 q-85 0 -141.5 -43.5t-56.5 -120.5q0 -120 252 -168q45 -10 73 -16.5t78 -23.5t82.5 -35.5t72.5 -50.5t63.5 -70t40 -93t16.5 -120q0 -170 -112 -277.5t-296 -128.5v-223h-174v221q-119 11 -220 55.5t-202 135.5z" />
<glyph unicode="%" horiz-adv-x="1746" d="M106 795v383q0 75 46.5 131t113 82t140.5 26q72 0 137.5 -26t111 -82t45.5 -131v-383q0 -75 -45.5 -130.5t-110.5 -80.5t-138 -25q-74 0 -140.5 25t-113 80.5t-46.5 130.5zM301 821q0 -46 31.5 -69t73.5 -23q41 0 71.5 23t30.5 69v328q0 47 -30.5 71.5t-71.5 24.5 q-42 0 -73.5 -24.5t-31.5 -71.5v-328zM352 -35l871 1495h186l-872 -1495h-185zM1044 227v385q0 75 46 131.5t113 82.5t140 26q72 0 138 -26t111.5 -82.5t45.5 -131.5v-385q0 -109 -90 -171t-205 -62q-117 0 -208 62t-91 171zM1239 256q0 -46 31 -69t73 -23t73.5 23t31.5 69 v328q0 47 -31.5 71.5t-73.5 24.5t-73 -24.5t-31 -71.5v-328z" />
<glyph unicode="&#x26;" horiz-adv-x="1683" d="M113 1038q0 124 50 238t139.5 201.5t224 139.5t292.5 52q142 0 264 -39.5t211 -110.5t152 -167.5t94 -211.5t31 -241q0 -179 -70 -348t-198 -303q137 -122 307 -199l-101 -182q-91 32 -200.5 104.5t-178.5 145.5q-67 -57 -174.5 -97t-207.5 -40q-193 0 -323 111.5 t-130 301.5q0 130 82 237t215 185q-78 121 -78 236q0 140 82.5 228.5t226.5 88.5q135 0 227.5 -84.5t92.5 -208.5q0 -193 -238 -338q111 -168 258 -344q94 105 146.5 237t52.5 267q0 115 -36.5 217t-103.5 179.5t-169.5 123t-225.5 45.5q-224 0 -362.5 -120t-138.5 -293 q0 -146 82 -271l-177 -110q-118 172 -118 370zM510 395q0 -103 61 -159t158 -56q123 0 264 84q-67 74 -146.5 184t-127.5 191q-209 -114 -209 -244zM737 1059q0 -52 60 -139q65 35 96 69.5t31 85.5q0 37 -29.5 63.5t-71.5 26.5q-41 0 -63.5 -31t-22.5 -75z" />
<glyph unicode="'" horiz-adv-x="534" d="M166 987v438h209v-438h-209z" />
<glyph unicode="(" horiz-adv-x="706" d="M121 625q0 451 401 895l150 -95q-138 -182 -210.5 -389t-72.5 -401q0 -203 75 -413t208 -390l-142 -108q-182 196 -295.5 429t-113.5 472z" />
<glyph unicode=")" horiz-adv-x="706" d="M86 -168q135 178 209 388.5t74 414.5q0 194 -72.5 401t-210.5 389l147 95q404 -446 404 -895q0 -162 -59 -331t-146.5 -304.5t-204.5 -265.5z" />
<glyph unicode="*" horiz-adv-x="880" d="M90 1092l55 184l228 -96l-25 245h201l-27 -245l228 96l55 -184l-236 -56l162 -184q-5 -4 -162 -117l-123 211l-129 -211l-159 117l164 184z" />
<glyph unicode="+" d="M45 506v203h393v381h215v-381h394v-203h-394v-385h-215v385h-393z" />
<glyph unicode="," horiz-adv-x="600" d="M135 -199q53 37 86 88.5t39 102.5q-50 11 -82.5 51.5t-32.5 99.5q0 65 48.5 111.5t115.5 46.5q84 0 132 -58t48 -149q0 -124 -73 -239.5t-191 -176.5z" />
<glyph unicode="-" horiz-adv-x="868" d="M98 418v231h670v-231h-670z" />
<glyph unicode="." horiz-adv-x="589" d="M137 154q0 66 46.5 111.5t113.5 45.5q69 0 115.5 -45.5t46.5 -111.5q0 -70 -44.5 -119t-115.5 -49q-68 0 -115 49t-47 119z" />
<glyph unicode="/" horiz-adv-x="718" d="M-23 -86l517 1571h208l-518 -1571h-207z" />
<glyph unicode="0" d="M104 365v679q0 74 27 137.5t71.5 107.5t102.5 75.5t120 46t124 14.5q63 0 125 -14.5t120 -46t102 -75.5t70.5 -107.5t26.5 -137.5v-679q0 -74 -26.5 -137t-70.5 -106t-102 -73.5t-120 -44.5t-125 -14q-79 0 -156 23.5t-142.5 67.5t-106 118t-40.5 166zM367 418 q0 -92 54.5 -136t127.5 -44q74 0 128 44t54 136v573q0 91 -54.5 137t-127.5 46q-72 0 -127 -46t-55 -137v-573z" />
<glyph unicode="1" d="M197 1141l309 270h237v-1411h-260v1073l-141 -119z" />
<glyph unicode="2" d="M109 0v201q0 82 24.5 156.5t71 136.5t97 110t116.5 96q12 9 45.5 32t46.5 32.5t42 31t41.5 32t35 30.5t33 33t25.5 31.5t21.5 34t11.5 33.5t5 36q0 67 -59 108.5t-140 41.5q-155 0 -270 -103l-135 207q78 69 187 107t231 38q69 0 132 -12.5t123 -41.5t103 -73.5 t69.5 -113.5t26.5 -156q0 -214 -274 -424q-22 -18 -74 -55.5t-88.5 -66.5t-78.5 -69.5t-67 -86t-32 -93.5h612v-233h-882z" />
<glyph unicode="3" d="M86 131l137 207q56 -49 132 -77t145 -28q98 0 154.5 49.5t56.5 135.5q0 81 -53 135.5t-136 54.5h-168v223h164q73 0 126.5 50t53.5 133q0 57 -31.5 95t-73 52.5t-87.5 14.5q-69 0 -143 -27.5t-130 -77.5l-137 209q78 69 190.5 107t239.5 38q86 0 162.5 -22.5t140 -67.5 t101 -121.5t37.5 -175.5q0 -103 -48.5 -182t-134.5 -121q91 -41 141 -124t50 -185q0 -89 -27 -163.5t-72.5 -124.5t-105.5 -85t-124.5 -51t-131.5 -16q-125 0 -237.5 38t-190.5 107z" />
<glyph unicode="4" d="M70 203v211l452 997h277l-439 -975h299v404h265v-404h114v-233h-114v-203h-265v203h-589z" />
<glyph unicode="5" d="M125 135l139 209q117 -106 271 -106q32 0 65 9.5t64.5 28.5t51 54.5t19.5 81.5v157q0 71 -33 106.5t-94 35.5q-51 0 -118 -32t-109 -63l-236 93v702h807v-235h-544v-277q129 76 237 76q164 0 258 -105t94 -272v-219q0 -93 -37.5 -168.5t-100.5 -122.5t-144 -72.5 t-172 -25.5q-261 0 -418 145z" />
<glyph unicode="6" d="M113 377v657q0 125 64.5 215.5t165 133t222.5 42.5q257 0 414 -145l-137 -211q-118 107 -269 107q-30 0 -63 -11t-64 -31.5t-51 -56.5t-20 -80v-151q88 47 148 64.5t118 17.5q168 0 261 -105.5t93 -275.5v-168q0 -94 -37.5 -170t-100.5 -122.5t-140.5 -71.5t-161.5 -25 q-90 0 -169 24t-140.5 70.5t-97 122t-35.5 170.5zM375 420q0 -91 53.5 -136.5t126.5 -45.5q70 0 123 46t53 136v108q0 76 -37 113t-90 37q-98 0 -229 -80v-178z" />
<glyph unicode="7" d="M117 971v440h878v-219l-497 -1192h-281l481 1176h-338v-205h-243z" />
<glyph unicode="8" horiz-adv-x="1058" d="M78 397q0 102 57.5 195t138.5 131q-78 35 -120.5 112.5t-42.5 182.5q0 79 25 146.5t66.5 114t96.5 80t115.5 49t122.5 15.5q80 0 155 -25.5t136 -74.5t98 -128.5t37 -178.5q0 -98 -43.5 -177t-118.5 -116q90 -40 140 -127t50 -188q0 -84 -27 -155t-71.5 -119t-104 -81.5 t-124.5 -49t-132 -15.5q-91 0 -171 24t-144 72t-101.5 128.5t-37.5 184.5zM309 401q0 -97 62 -151.5t164 -54.5q101 0 163 55.5t62 155.5q0 90 -66 147t-159 57q-94 0 -160 -57.5t-66 -151.5zM328 1016q0 -94 62 -148.5t147 -54.5q83 0 144.5 56.5t61.5 146.5 q0 93 -60 145.5t-146 52.5q-83 0 -146 -54.5t-63 -143.5z" />
<glyph unicode="9" d="M109 883v143q0 126 63 218.5t161 136.5t216 44q192 0 316 -108t124 -297v-641q0 -93 -36.5 -168.5t-99.5 -122.5t-143.5 -72.5t-170.5 -25.5q-259 0 -416 145l139 209q114 -104 266 -104q70 0 133.5 46.5t63.5 131.5v164q-154 -80 -264 -80q-159 0 -255.5 106.5 t-96.5 274.5zM369 901q0 -76 37.5 -111.5t93.5 -35.5q92 0 225 77v164q0 91 -52.5 137t-123.5 46t-125.5 -46.5t-54.5 -136.5v-94z" />
<glyph unicode=":" horiz-adv-x="645" d="M158 154q0 66 46 111.5t113 45.5q69 0 115.5 -45.5t46.5 -111.5q0 -70 -44.5 -119t-115.5 -49q-68 0 -114.5 49t-46.5 119zM158 733q0 68 46 115t113 47q69 0 115.5 -47t46.5 -115t-44.5 -116t-115.5 -48q-69 0 -115 47.5t-46 116.5z" />
<glyph unicode=";" horiz-adv-x="600" d="M117 -199q52 37 84.5 88t40.5 103q-50 11 -82.5 51.5t-32.5 99.5q0 65 48.5 111.5t115.5 46.5q84 0 131 -58t47 -149q0 -125 -72 -239t-190 -177zM143 733q0 68 46.5 115t113.5 47q69 0 115.5 -47t46.5 -115t-44.5 -116t-115.5 -48t-116.5 47t-45.5 117z" />
<glyph unicode="&#x3c;" d="M57 510v197l975 442v-229l-702 -312l702 -313v-229z" />
<glyph unicode="=" d="M43 287v198h1004v-198h-1004zM43 731v199h1004v-199h-1004z" />
<glyph unicode="&#x3e;" d="M57 66v229l705 313l-705 312v229l975 -442v-197z" />
<glyph unicode="?" horiz-adv-x="1001" d="M61 1292q178 142 428 142q190 0 310.5 -104t120.5 -261q0 -74 -28.5 -142t-69 -120.5t-81.5 -103t-69.5 -111t-28.5 -123.5v-53h-264v53q0 57 24 116.5t59 111t69.5 103t58.5 111.5t24 119q0 64 -45 107t-131 43q-131 0 -250 -101zM352 152q0 66 46 111.5t112 45.5 q69 0 116.5 -45.5t47.5 -111.5q0 -69 -44 -116.5t-116 -47.5q-71 0 -116.5 47t-45.5 117z" />
<glyph unicode="@" horiz-adv-x="1773" d="M104 731q0 163 63 305.5t172.5 244.5t265 161t333.5 59q182 0 327 -56t237.5 -153.5t141 -226t48.5 -277.5q0 -207 -117 -342t-287 -135q-176 0 -237 99q-134 -84 -252 -84q-127 0 -191.5 68.5t-64.5 176.5q0 64 31 114t79.5 77t98.5 40t96 13h178v27q0 114 -141 114 q-115 0 -203 -69q-86 123 -98 147q139 109 313 109q158 0 247 -79t89 -235v-268q0 -33 21.5 -48t50.5 -15q22 0 47 9t51 31t46.5 54t34 82t13.5 110q0 113 -36.5 210t-105 169.5t-176 114t-241.5 41.5q-140 0 -261 -46.5t-203.5 -125.5t-129.5 -186.5t-47 -227.5 q0 -122 43.5 -229.5t119.5 -185.5t186.5 -123t238.5 -45q119 0 260 51l57 -168q-132 -62 -330 -62q-227 0 -403 99.5t-270.5 272t-94.5 388.5zM754 584q0 -32 25 -52t71 -20q76 0 178 57v93h-158q-116 0 -116 -78z" />
<glyph unicode="A" horiz-adv-x="1306" d="M14 0l496 1411h287l491 -1411h-305l-86 291h-491l-93 -291h-299zM481 526h340l-55 181l-111 372h-8l-108 -366z" />
<glyph unicode="B" horiz-adv-x="1277" d="M121 0v1411h635q83 0 151 -20t115.5 -55.5t80 -84t47.5 -104.5t15 -119q0 -85 -44.5 -165t-129.5 -122q64 -31 110.5 -88t67.5 -116.5t21 -116.5q0 -116 -45.5 -209.5t-139.5 -152t-223 -58.5h-661zM401 250h301q92 0 141.5 47.5t49.5 130.5t-51.5 132.5t-141.5 49.5 h-299v-360zM401 852h289q87 0 137 40.5t50 108.5q0 160 -191 160h-285v-309z" />
<glyph unicode="C" horiz-adv-x="1148" d="M119 440v529q0 109 45.5 197.5t121.5 143t170.5 84t196.5 29.5q276 0 432 -137l-135 -217q-117 98 -288 98q-49 0 -94 -14t-84 -43t-62 -80.5t-23 -118.5v-411q0 -66 23.5 -117t62.5 -80.5t84 -44t93 -14.5q164 0 290 98l133 -217q-78 -66 -190.5 -102.5t-237.5 -36.5 q-102 0 -196.5 29t-171.5 83.5t-123.5 143.5t-46.5 198z" />
<glyph unicode="D" horiz-adv-x="1263" d="M123 0v1411h534q99 0 188 -29t159.5 -83.5t112.5 -142.5t42 -198v-505q0 -108 -42 -195.5t-113.5 -143t-161 -85t-187.5 -29.5h-532zM401 248h213q48 0 92 14t83 43t62 80.5t23 118.5v401q0 67 -23 118t-61.5 79.5t-82.5 42.5t-93 14h-213v-911z" />
<glyph unicode="E" horiz-adv-x="1181" d="M123 0v1411h973v-252h-693v-323h592v-252h-592v-334h693v-250h-973z" />
<glyph unicode="F" horiz-adv-x="1118" d="M123 0v1411h973v-252h-693v-334h592v-250h-592v-575h-280z" />
<glyph unicode="G" horiz-adv-x="1241" d="M119 440v523q0 110 46 199.5t123 146t174.5 86.5t203.5 30q129 0 244 -35t194 -104l-137 -217q-117 98 -297 98q-51 0 -97 -14t-86 -43t-64 -80t-24 -119v-411q0 -66 22.5 -117t60.5 -80.5t83.5 -44t96.5 -14.5q109 0 184 61v236h-205v239h485v-594 q-86 -105 -211.5 -152.5t-252.5 -47.5q-80 0 -157 18t-147 55t-123 90t-84.5 128t-31.5 163z" />
<glyph unicode="H" horiz-adv-x="1323" d="M119 0v1411h280v-567h521v567h284v-1411h-284v590h-521v-590h-280z" />
<glyph unicode="I" horiz-adv-x="608" d="M164 0v1411h280v-1411h-280z" />
<glyph unicode="J" horiz-adv-x="1091" d="M10 117l131 217q123 -92 267 -92q256 0 256 268v901h282v-969q0 -110 -42 -198t-112.5 -143t-159.5 -84t-188 -29q-125 0 -241.5 33t-192.5 96z" />
<glyph unicode="K" horiz-adv-x="1286" d="M119 0v1411h280v-608h11q56 62 229 272l276 336h332l-469 -569l502 -842h-330l-356 621q-132 -152 -195 -228v-393h-280z" />
<glyph unicode="L" horiz-adv-x="1116" d="M127 0v1411h276v-1161h699v-250h-975z" />
<glyph unicode="M" horiz-adv-x="1607" d="M123 0v1411h258l252 -498l170 -348h12l172 357l242 489h258v-1411h-281v758h-8l-131 -260l-160 -303h-202l-158 297l-137 266h-9v-758h-278z" />
<glyph unicode="N" horiz-adv-x="1382" d="M123 0v1411h254l328 -483l268 -410h8v893h281v-1411h-256l-359 532l-233 357h-13v-889h-278z" />
<glyph unicode="O" horiz-adv-x="1306" d="M111 451v518q0 110 45 198.5t121 143.5t172.5 84.5t203.5 29.5t204 -31t173 -88t121 -146.5t45 -198.5v-510q0 -147 -74.5 -254t-196 -159t-272.5 -52t-272 52t-195.5 159t-74.5 254zM391 500q0 -68 22 -119t60 -80t83.5 -43t96.5 -14t95.5 14t82.5 43t60 80t22 119v411 q0 66 -22 117t-60 80.5t-83 44t-95 14.5q-51 0 -96.5 -14.5t-83.5 -44t-60 -80.5t-22 -117v-411z" />
<glyph unicode="P" horiz-adv-x="1179" d="M119 0v1411h631q81 0 149 -26t114 -69.5t78 -101t47 -119t15 -124.5q0 -78 -28 -155.5t-79 -141.5t-131 -104t-174 -40h-342v-530h-280zM399 784h287q94 0 144.5 52t50.5 135q0 84 -51.5 136t-143.5 52h-287v-375z" />
<glyph unicode="Q" horiz-adv-x="1316" d="M113 457v497q0 109 45 200t121 149t173 90t203 32q107 0 204 -31t173 -89t121 -148t45 -199v-501q0 -187 -116 -308t-302 -151v-33q0 -29 2.5 -49t11 -34t19 -21.5t31.5 -12t42 -5.5t58 -1h31v-211q-27 -6 -123 -6q-151 0 -239.5 74t-88.5 209v90q-184 30 -297.5 151.5 t-113.5 307.5zM393 553q0 -311 262 -311q110 0 185 62.5t75 193.5v356q0 313 -260 313q-51 0 -96.5 -14.5t-83.5 -44t-60 -80.5t-22 -117v-358z" />
<glyph unicode="R" horiz-adv-x="1216" d="M121 0v1411h629q102 0 183 -39.5t128 -104t71.5 -140.5t24.5 -156q0 -117 -62 -227.5t-169 -165.5l254 -578h-303q-23 64 -106 260.5t-116 269.5h-254v-530h-280zM401 784h285q95 0 146 51t51 136q0 84 -51.5 136t-145.5 52h-285v-375z" />
<glyph unicode="S" horiz-adv-x="1226" d="M66 184l157 205q188 -147 389 -147q126 0 186 47t60 117q0 42 -19 71.5t-61 51t-86.5 36.5t-118.5 35q-10 2 -15.5 3.5t-14 4t-15.5 4.5q-72 18 -128 38.5t-111.5 53.5t-92 74t-59 101t-22.5 133q0 186 133 305t348 119h17q291 0 491 -131l-123 -226q-172 105 -360 105 q-57 0 -106.5 -17t-83.5 -55.5t-34 -93.5q0 -34 15 -60.5t38.5 -45t67 -35.5t86 -28t109.5 -26q225 -50 334.5 -150.5t109.5 -264.5q0 -133 -72 -229t-192 -142.5t-275 -46.5q-161 0 -294.5 44.5t-257.5 149.5z" />
<glyph unicode="T" horiz-adv-x="1077" d="M25 1157v254h1028v-254h-373v-1157h-281v1157h-374z" />
<glyph unicode="U" horiz-adv-x="1318" d="M119 442v969h278v-915q0 -66 22 -117t60 -80.5t83.5 -44t96.5 -14.5q50 0 95 14.5t83 44t60.5 80.5t22.5 117v915h282v-962q0 -110 -45 -199.5t-121.5 -146t-173 -87t-203.5 -30.5t-203 29t-172 84.5t-120.5 144t-44.5 198.5z" />
<glyph unicode="V" horiz-adv-x="1236" d="M20 1411h302l153 -510l141 -487h13l143 501l148 496h294l-450 -1411h-291z" />
<glyph unicode="W" horiz-adv-x="1859" d="M20 1411h299l123 -557l95 -436h14l108 440l140 553h262l147 -582l103 -411h12l88 416l129 577h299l-364 -1411h-306l-131 532l-102 400h-14l-101 -402l-131 -530h-309z" />
<glyph unicode="X" horiz-adv-x="1218" d="M12 0l449 723l-422 688h319l252 -453l252 453h316l-418 -688l446 -723h-317l-279 487l-280 -487h-318z" />
<glyph unicode="Y" horiz-adv-x="1179" d="M20 1411h302l145 -324l117 -266h14l119 275l141 315h299l-426 -858v-553h-280v553z" />
<glyph unicode="Z" horiz-adv-x="1105" d="M66 0v242l636 919h-610v250h948v-233l-645 -928h645v-250h-974z" />
<glyph unicode="[" horiz-adv-x="606" d="M141 -201v1633h428v-185h-190v-1267h190v-181h-428z" />
<glyph unicode="\" horiz-adv-x="718" d="M-23 1485h211l517 -1571h-209z" />
<glyph unicode="]" horiz-adv-x="606" d="M43 -20h188v1267h-188v185h426v-1633h-426v181z" />
<glyph unicode="^" d="M51 545l402 878h196l400 -876h-228l-270 612l-275 -614h-225z" />
<glyph unicode="_" horiz-adv-x="1024" d="M0 -141h1024v-166h-1024v166z" />
<glyph unicode="`" horiz-adv-x="1040" d="M285 1481l237 80l176 -385l-147 -68z" />
<glyph unicode="a" horiz-adv-x="1075" d="M82 301q0 80 34.5 141.5t90.5 96t118 52t126 17.5h262v43q0 74 -42.5 109t-144.5 35q-160 0 -268 -88l-117 190q169 131 412 131q215 0 318.5 -98t103.5 -297v-633h-240l-18 82l-6 2q-157 -92 -303 -92q-154 0 -240 82.5t-86 226.5zM362 317q0 -43 30.5 -67.5t88.5 -24.5 q103 0 234 74v117h-217q-136 0 -136 -99z" />
<glyph unicode="b" horiz-adv-x="1075" d="M100 0v1466h260v-534q162 94 297 94q167 0 248.5 -97t81.5 -270v-299q0 -182 -91 -275t-255 -93q-120 0 -281 90l-20 -82h-240zM360 309q41 -29 116 -53.5t122 -24.5q57 0 92 39t35 117v238q0 153 -127 153q-83 0 -238 -94v-375z" />
<glyph unicode="c" horiz-adv-x="927" d="M92 356v299q0 89 36.5 161.5t96.5 117t133.5 68.5t151.5 24q55 0 97.5 -4.5t93.5 -18t99 -42.5t91 -74l-150 -191q-45 39 -87 60t-66.5 25.5t-55.5 4.5q-72 0 -126 -44t-54 -132v-202q0 -91 51 -135t125 -44q49 0 106 21t103 67l156 -178q-83 -87 -176.5 -118t-206.5 -31 q-85 0 -159.5 23t-133 67t-92 115.5t-33.5 160.5z" />
<glyph unicode="d" horiz-adv-x="1075" d="M86 360v299q0 168 93 267.5t261 99.5q157 0 273 -57v497h262v-1466h-242l-20 94q-166 -104 -285 -104q-342 0 -342 370zM348 383q0 -152 129 -152q46 0 114 26t122 62v406q-124 55 -217 55q-66 0 -107 -38.5t-41 -120.5v-238z" />
<glyph unicode="e" horiz-adv-x="1040" d="M92 362v263q0 123 59 215t156 138t217 46q194 0 314 -105t120 -290v-199h-606v-33q0 -85 53 -128.5t132 -43.5q135 0 241 84l144 -178q-86 -83 -176.5 -112t-204.5 -29q-123 0 -222.5 39t-163 125t-63.5 208zM352 600h346v21q0 82 -49 123.5t-123 41.5q-75 0 -124.5 -46 t-49.5 -128v-12z" />
<glyph unicode="f" horiz-adv-x="651" d="M45 801v211h117v168q0 140 83.5 213t215.5 73h178v-217h-133q-90 0 -90 -98v-139h223v-211h-223v-801h-254v801h-117z" />
<glyph unicode="g" horiz-adv-x="1073" d="M84 367v284q0 179 89.5 276t250.5 97q134 0 287 -96l20 84h242v-1067q0 -73 -29 -135t-76 -104t-108.5 -71.5t-125.5 -43t-128 -13.5q-257 0 -408 164l168 172q42 -51 112 -73.5t128 -22.5q91 0 148 42.5t57 133.5v98q-151 -90 -295 -90q-166 0 -249 97t-83 268zM346 401 q0 -153 129 -153q95 0 236 88v354q-55 39 -120.5 64.5t-115.5 25.5q-58 0 -93.5 -37.5t-35.5 -117.5v-224z" />
<glyph unicode="h" horiz-adv-x="1083" d="M100 0v1466h260v-544q166 104 316 104q165 0 242 -97.5t77 -271.5v-657h-264v625q0 80 -38 116.5t-95 36.5q-95 0 -238 -90v-688h-260z" />
<glyph unicode="i" horiz-adv-x="550" d="M129 1286q0 61 42.5 104.5t102.5 43.5t103 -43.5t43 -104.5t-43 -103t-103 -42t-102.5 42t-42.5 103zM145 0v1012h261v-1012h-261z" />
<glyph unicode="j" horiz-adv-x="557" d="M-25 -188h66q65 0 89 31t24 91v1078h262v-1118q0 -145 -89 -225.5t-235 -80.5h-117v224zM139 1288q0 60 42.5 103t103.5 43t104 -43t43 -103q0 -61 -42.5 -103t-104.5 -42t-104 42t-42 103z" />
<glyph unicode="k" horiz-adv-x="1058" d="M100 0v1466h262v-753h84q60 0 97.5 26t68.5 88l95 189h294l-122 -254q-33 -67 -66 -104.5t-90 -59.5q41 -14 70.5 -36.5t49 -55.5t29.5 -58t23 -67l127 -381h-293l-102 330q-25 76 -65.5 107.5t-117.5 31.5h-82v-469h-262z" />
<glyph unicode="l" horiz-adv-x="583" d="M137 276v1190h260v-1140q0 -67 26 -87t112 -20l4 -219q-59 -10 -125 -10q-72 0 -123 14t-81 36.5t-46.5 61t-21.5 78t-5 96.5z" />
<glyph unicode="m" horiz-adv-x="1622" d="M96 0v1012h240l20 -92q96 65 157 85.5t122 20.5q182 0 256 -139q115 85 188 112t138 27q160 0 236.5 -98.5t76.5 -272.5v-655h-260v629q0 147 -121 147q-45 0 -92 -20.5t-115 -71.5q2 -33 2 -96v-588h-262v631q0 78 -32 111.5t-83 33.5q-48 0 -94 -18.5t-117 -67.5v-690 h-260z" />
<glyph unicode="n" horiz-adv-x="1083" d="M98 0v1012h240l20 -88q166 102 318 102q162 0 239.5 -95.5t77.5 -268.5v-662h-264v625q0 153 -133 153q-95 0 -238 -90v-688h-260z" />
<glyph unicode="o" horiz-adv-x="1062" d="M86 360v293q0 120 65.5 206.5t164.5 126.5t216 40q92 0 171.5 -24t140.5 -69.5t96 -118.5t35 -165v-289q0 -91 -38 -163.5t-101.5 -116.5t-141.5 -67t-164 -23q-88 0 -166.5 23t-141 67t-99.5 116.5t-37 163.5zM346 408q0 -92 53 -135.5t133 -43.5q74 0 128.5 44 t54.5 135v200q0 89 -54.5 132.5t-128.5 43.5q-48 0 -88.5 -16.5t-69 -57.5t-28.5 -102v-200z" />
<glyph unicode="p" horiz-adv-x="1075" d="M102 -406v1418h240l20 -92q163 102 291 102q338 0 338 -371v-297q0 -170 -91.5 -269t-264.5 -99q-160 0 -273 59v-451h-260zM362 289q120 -56 220 -56h7q60 0 98 35q40 38 40 119v242q0 151 -127 151q-47 0 -116.5 -26t-121.5 -62v-403z" />
<glyph unicode="q" horiz-adv-x="1071" d="M84 358v297q0 182 92.5 276.5t255.5 94.5q119 0 281 -96l20 82h240v-1418h-260v486q-158 -88 -295 -88q-166 0 -250 97.5t-84 268.5zM348 393q0 -153 129 -153q95 0 236 88v379q-54 30 -123.5 54.5t-112.5 24.5q-58 0 -93.5 -38.5t-35.5 -116.5v-238z" />
<glyph unicode="r" horiz-adv-x="778" d="M119 0v1016h239l19 -150h2q60 60 171.5 111t209.5 51v-268q-126 -11 -214 -39.5t-167 -75.5v-645h-260z" />
<glyph unicode="s" horiz-adv-x="956" d="M33 137l141 187q132 -111 305 -111q70 0 115 26t45 70q0 38 -28.5 60t-96.5 34q-163 29 -224 50q-161 55 -189 184q-7 30 -7 65q0 102 56 177t141 110t186 35q133 0 228 -24t186 -93l-123 -194q-121 84 -287 84q-64 0 -97.5 -25t-33.5 -63q0 -27 24 -44.5t63 -26.5 t89 -19.5t102.5 -20.5t102.5 -31.5t89 -51.5t63 -82.5t24 -121.5q0 -102 -59 -176t-153.5 -109.5t-211.5 -35.5q-132 0 -239 29.5t-211 117.5z" />
<glyph unicode="t" horiz-adv-x="772" d="M49 801v211h131l45 254h209v-254h246v-211h-246v-422q0 -80 26.5 -117t106.5 -37q63 0 148 23l47 -221q-104 -39 -256 -39q-96 0 -162.5 26t-102 76.5t-50.5 112.5t-15 145v453h-127z" />
<glyph unicode="u" horiz-adv-x="1087" d="M92 369v643h262v-625q0 -80 39.5 -117t95.5 -37q91 0 236 95v684h262v-1012h-242l-20 88q-167 -102 -309 -102q-164 0 -244 104t-80 279z" />
<glyph unicode="v" horiz-adv-x="1032" d="M12 1016h293l105 -334l108 -350h8l105 348l104 336h283l-365 -1016h-274z" />
<glyph unicode="w" horiz-adv-x="1486" d="M20 1016h275l82 -336l72 -309h10q7 29 47.5 152.5t52.5 154.5l76 240h221l86 -263l90 -295h8l76 334l78 322h272l-280 -1016h-264l-88 270l-86 273l-9 2q-11 -24 -44.5 -133t-43.5 -148l-86 -264h-260z" />
<glyph unicode="x" horiz-adv-x="1038" d="M6 0l373 516l-356 498h311l182 -303l186 303h312l-361 -496l375 -518h-313l-199 319l-199 -319h-311z" />
<glyph unicode="y" horiz-adv-x="1005" d="M20 1016h269l94 -383l88 -338h6l113 342l123 379h270l-518 -1424h-262l155 431l-59 45z" />
<glyph unicode="z" horiz-adv-x="970" d="M76 0v209l504 586h-476v219h793v-205l-504 -582h504v-227h-821z" />
<glyph unicode="{" horiz-adv-x="606" d="M27 524v176q77 6 116 61.5t39 151.5v269q0 108 65 175.5t161 67.5h180v-176h-84q-45 0 -65.5 -41.5t-20.5 -95.5v-246q0 -98 -46 -159.5t-110 -92.5v-2q67 -26 111.5 -88t44.5 -159v-250q0 -28 2.5 -48t10.5 -43.5t26.5 -36t46.5 -12.5h84v-172h-180q-105 0 -165.5 69 t-60.5 196v204q0 127 -33 187.5t-122 64.5z" />
<glyph unicode="|" horiz-adv-x="493" d="M139 -422v1909h213v-1909h-213z" />
<glyph unicode="}" horiz-adv-x="606" d="M23 -25h83q28 0 47 12.5t27 36t10.5 44t2.5 47.5v250q0 97 44 159t111 88v2q-64 30 -109.5 92t-45.5 160v246q0 137 -87 137h-83v172h178q100 0 162.5 -65.5t62.5 -173.5v-269q0 -97 40 -152t118 -61v-176q-88 -4 -123 -65.5t-35 -186.5v-204q0 -120 -60 -192.5 t-163 -72.5h-180v172z" />
<glyph unicode="~" d="M20 514q54 96 131 149.5t191 53.5q54 0 130 -33.5t149.5 -66.5t121.5 -33q39 0 76.5 27t89.5 112l164 -115q-125 -233 -323 -233q-46 0 -103 20.5t-102 45t-102.5 45t-104.5 20.5q-48 0 -87 -25t-85 -90z" />
<glyph unicode="&#xa2;" horiz-adv-x="927" d="M92 356v299q0 82 31.5 150.5t84.5 113.5t119 72t138 33v252h108v-252q197 -11 318 -137l-150 -191q-88 77 -168 88v-551q96 16 164 84l156 -178q-131 -133 -320 -147v-260h-108v260q-163 13 -268 106.5t-105 257.5zM352 408q0 -129 113 -170v538q-113 -41 -113 -166v-202 z" />
<glyph unicode="&#xa3;" d="M78 561v191h137q-10 35 -33 94.5t-36 104t-13 83.5q0 79 27 149.5t79.5 126.5t138.5 89t195 33q139 0 248 -45.5t195 -157.5l-193 -162q-99 129 -237 129q-71 0 -117.5 -43t-46.5 -125q0 -48 36.5 -139t47.5 -137h301v-191h-295q-14 -202 -96 -338h598v-223h-928v193 q71 92 108 177.5t44 190.5h-160z" />
<glyph unicode="&#xa5;" d="M31 1411h301l207 -596h14l205 596h301l-273 -623h199v-172h-272l-27 -63v-78h299v-168h-299v-307h-280v307h-293v168h293v78l-31 63h-258v172h186z" />
<glyph unicode="&#xa8;" horiz-adv-x="1005" d="M160 1280q0 60 39.5 99.5t99.5 39.5t99.5 -39.5t39.5 -99.5q0 -58 -40 -98.5t-99 -40.5t-99 40.5t-40 98.5zM563 1280q0 60 41 99.5t101 39.5t99.5 -39.5t39.5 -99.5q0 -58 -40 -98.5t-99 -40.5q-60 0 -101 41t-41 98z" />
<glyph unicode="&#xa9;" horiz-adv-x="1669" d="M115 700q0 155 55.5 291t151.5 233t230 152.5t286 55.5q203 0 368 -93.5t260 -261.5t95 -377q0 -208 -95 -375t-260 -260.5t-368 -93.5q-153 0 -286.5 54t-229.5 149.5t-151.5 231.5t-55.5 294zM279 700q0 -163 73 -295.5t201.5 -208t284.5 -75.5q157 0 285 75.5t200 208 t72 295.5q0 252 -158.5 416t-398.5 164q-117 0 -220.5 -44.5t-178 -121.5t-117.5 -184.5t-43 -229.5zM494 528v308q0 96 52.5 168t131 106.5t168.5 34.5q82 0 158.5 -24t128.5 -70l-93 -140q-79 68 -190 68q-70 0 -122 -42.5t-52 -127.5v-244q0 -85 52.5 -127.5t121.5 -42.5 q104 0 192 68l91 -141q-124 -95 -285 -95q-90 0 -169 33t-132 103.5t-53 164.5z" />
<glyph unicode="&#xab;" horiz-adv-x="1120" d="M94 463l285 422h244l-279 -422l279 -418h-244zM522 463l285 422h246l-279 -422l279 -418h-246z" />
<glyph unicode="&#xad;" horiz-adv-x="868" d="M98 418v231h670v-231h-670z" />
<glyph unicode="&#xae;" horiz-adv-x="1099" d="M109 995q0 123 60.5 225t162 159t219.5 57q189 0 316.5 -126t127.5 -315q0 -121 -60.5 -221.5t-162.5 -156.5t-221 -56q-189 0 -315.5 124t-126.5 310zM211 995q0 -143 98 -242.5t242 -99.5q145 0 242.5 99t97.5 243q0 147 -97 245.5t-243 98.5q-145 0 -242.5 -99 t-97.5 -245zM385 750v497h201q68 0 111.5 -39.5t43.5 -107.5q0 -90 -86 -137l103 -213h-109l-88 196h-78v-196h-98zM483 1038h95q31 0 49 16.5t18 45.5q0 55 -63 55h-99v-117z" />
<glyph unicode="&#xb4;" horiz-adv-x="1040" d="M381 1163l166 400l237 -76l-252 -379z" />
<glyph unicode="&#xb8;" horiz-adv-x="927" d="M256 -389q7 19 22.5 56.5t22.5 56.5q70 -33 154 -33q36 0 62 18t26 47t-19.5 45.5t-54.5 16.5q-19 0 -37 -6q-13 7 -37.5 19t-36.5 19q13 41 38.5 121t37.5 121h129l-55 -168q103 -7 152 -59.5t49 -118.5q0 -74 -62.5 -130t-171.5 -56q-122 0 -219 51z" />
<glyph unicode="&#xbb;" horiz-adv-x="1120" d="M94 45l279 418l-279 422h244l287 -422l-287 -418h-244zM522 45l281 418l-281 422h244l287 -422l-287 -418h-244z" />
<glyph unicode="&#x2c6;" horiz-adv-x="1040" d="M129 1180l303 317h178l301 -315l-104 -95l-287 216q-33 -22 -145 -106.5t-146 -106.5z" />
<glyph unicode="&#x2da;" horiz-adv-x="1040" d="M313 1317q0 94 72 161.5t170 67.5t169 -67.5t71 -161.5t-72 -162t-170 -68t-169 68t-71 162zM461 1317q0 -37 26.5 -62.5t67.5 -25.5q38 0 65 25.5t27 62.5t-27 62.5t-65 25.5q-41 0 -67.5 -25.5t-26.5 -62.5z" />
<glyph unicode="&#x2dc;" horiz-adv-x="1040" d="M137 1243q53 109 113 161t143 52q56 -3 149.5 -51.5t123.5 -48.5q35 0 63 20t66 74l131 -78q-54 -112 -110 -161.5t-128 -49.5q-46 0 -100 23t-101.5 46t-78.5 23q-39 0 -68.5 -17t-71.5 -71z" />
<glyph unicode="&#x401;" horiz-adv-x="1181" d="M123 0v1411h973v-252h-693v-323h592v-252h-592v-334h693v-250h-973zM283 1663q0 57 41 97t98 40q60 0 99.5 -40t39.5 -97q0 -60 -39.5 -100.5t-99.5 -40.5q-58 0 -98.5 41t-40.5 100zM688 1663q0 57 40 97t99 40t98.5 -39.5t39.5 -97.5q0 -60 -39 -100.5t-99 -40.5 t-99.5 40.5t-39.5 100.5z" />
<glyph unicode="&#x402;" horiz-adv-x="1511" d="M20 1157v254h1080v-254h-465v-285q190 91 358 91q211 0 320.5 -107t109.5 -297v-285q0 -221 -150 -342.5t-392 -121.5v249q124 5 191 64.5t67 189.5v181q0 112 -50 164.5t-165 52.5q-59 0 -137.5 -23.5t-151.5 -64.5v-623h-281v1157h-334z" />
<glyph unicode="&#x403;" horiz-adv-x="1095" d="M133 0v1411h971v-252h-690v-1159h-281zM434 1628l348 258l164 -188l-409 -195z" />
<glyph unicode="&#x404;" horiz-adv-x="1128" d="M113 440v518q0 88 29 164t79.5 130.5t118 93.5t144 58t157.5 19q272 0 428 -137l-135 -217q-117 98 -285 98q-49 0 -93 -14t-81.5 -43t-59.5 -80t-22 -119v-69h447v-240h-447v-102q0 -66 23 -117t61.5 -80.5t83 -44t92.5 -14.5q167 0 293 98l133 -217 q-79 -66 -192 -102.5t-236 -36.5q-105 0 -200 29t-171.5 84t-121.5 143t-45 198z" />
<glyph unicode="&#x405;" horiz-adv-x="1226" d="M66 184l157 205q188 -147 389 -147q126 0 186 47t60 117q0 42 -19 71.5t-61 51t-86.5 36.5t-118.5 35q-10 2 -15.5 3.5t-14 4t-15.5 4.5q-72 18 -128 38.5t-111.5 53.5t-92 74t-59 101t-22.5 133q0 186 133 305t348 119q302 4 508 -131l-123 -226q-172 105 -360 105 q-57 0 -106.5 -17t-83.5 -55.5t-34 -93.5q0 -34 15 -60.5t38.5 -45t67 -35.5t86 -28t109.5 -26q225 -50 334.5 -150.5t109.5 -264.5q0 -133 -72 -229t-192 -142.5t-275 -46.5q-161 0 -294.5 44.5t-257.5 149.5z" />
<glyph unicode="&#x406;" horiz-adv-x="608" d="M164 0v1411h280v-1411h-280z" />
<glyph unicode="&#x407;" horiz-adv-x="608" d="M-33 1647q0 60 39.5 99.5t99.5 39.5t100 -39.5t40 -99.5q0 -58 -40.5 -99t-99.5 -41t-99 41t-40 99zM164 0v1411h280v-1411h-280zM371 1647q0 60 40.5 99.5t100.5 39.5t99.5 -39.5t39.5 -99.5q0 -58 -40 -99t-99 -41t-100 41t-41 99z" />
<glyph unicode="&#x408;" horiz-adv-x="1091" d="M10 117l131 217q123 -92 267 -92q256 0 256 268v901h282v-969q0 -110 -42 -198t-112.5 -143t-159.5 -84t-188 -29q-125 0 -241.5 33t-192.5 96z" />
<glyph unicode="&#x409;" horiz-adv-x="1945" d="M8 190q52 11 92 31t68.5 46t48.5 65t32 80.5t19 102.5t9 119.5t2 141.5v635h856v-541h329q205 0 323 -120.5t118 -313.5q0 -81 -24.5 -155.5t-73.5 -139t-134.5 -103t-197.5 -38.5h-621v1157h-301v-373q0 -91 -4 -165.5t-13.5 -149.5t-26.5 -134t-42.5 -115t-62.5 -97 t-85 -74.5t-111 -53.5t-140 -28zM1135 250h295q94 0 148 52t54 134q0 86 -54.5 136.5t-150.5 50.5h-292v-373z" />
<glyph unicode="&#x40a;" horiz-adv-x="1910" d="M119 0v1411h280v-551h412v551h283v-549h327q206 0 324.5 -116t118.5 -308q0 -64 -14.5 -124.5t-48 -118t-82 -100.5t-122.5 -69t-165 -26h-621v606h-412v-606h-280zM1094 252h292q92 0 147.5 52.5t55.5 133.5q0 82 -54 128t-151 46h-290v-360z" />
<glyph unicode="&#x40b;" horiz-adv-x="1511" d="M20 1157v254h1080v-254h-465v-283q186 89 354 89q222 0 328 -111.5t106 -306.5v-545h-284v465q0 126 -44.5 186t-166.5 60q-60 0 -140.5 -23.5t-152.5 -64.5v-623h-281v1157h-334z" />
<glyph unicode="&#x40c;" horiz-adv-x="1267" d="M121 0v1411h280v-567h144q92 0 147 37t90 143l123 387h287l-127 -412q-68 -219 -201 -266q83 -28 133.5 -97t83.5 -181l136 -455h-306l-116 410q-32 110 -88.5 148t-151.5 38h-154v-596h-280zM457 1628l348 258l164 -188l-410 -195z" />
<glyph unicode="&#x40e;" horiz-adv-x="1167" d="M18 1411h293l168 -459q13 -35 109 -311h10l113 328q7 23 80 224.5t77 217.5h279l-404 -1071q-73 -193 -168 -274.5t-239 -81.5h-150v223h127q54 0 85 18.5t51 61.5q13 29 16 35zM287 1743h188q0 -47 34 -91t89 -44q59 0 93 43.5t34 91.5h186q-6 -42 -16 -79.5t-33.5 -81 t-56 -75t-86 -52.5t-121.5 -21q-66 0 -119.5 21t-87 53t-57 74.5t-34 81.5t-13.5 79z" />
<glyph unicode="&#x40f;" horiz-adv-x="1323" d="M119 0v1411h280v-1159h521v1159h284v-1411h-399v-346h-283v346h-403z" />
<glyph unicode="&#x410;" horiz-adv-x="1306" d="M14 0l496 1411h287l491 -1411h-305l-86 291h-491l-93 -291h-299zM481 526h340l-55 181l-111 372h-8l-108 -366z" />
<glyph unicode="&#x411;" horiz-adv-x="1216" d="M119 0v1411h921v-252h-641v-287h322q208 0 328 -120.5t120 -313.5q0 -63 -15.5 -124t-49.5 -118.5t-84 -100.5t-124.5 -69t-164.5 -26h-612zM399 252h287q93 0 152 53t59 133q0 82 -58.5 133.5t-154.5 51.5h-285v-371z" />
<glyph unicode="&#x412;" horiz-adv-x="1277" d="M121 0v1411h635q83 0 151 -20t115.5 -55.5t80 -84t47.5 -104.5t15 -119q0 -85 -44.5 -165t-129.5 -122q64 -31 110.5 -88t67.5 -116.5t21 -116.5q0 -116 -45.5 -209.5t-139.5 -152t-223 -58.5h-661zM401 250h301q92 0 141.5 47.5t49.5 130.5t-51.5 132.5t-141.5 49.5 h-299v-360zM401 852h289q87 0 137 40.5t50 108.5q0 160 -191 160h-285v-309z" />
<glyph unicode="&#x413;" horiz-adv-x="1095" d="M133 0v1411h971v-252h-690v-1159h-281z" />
<glyph unicode="&#x414;" horiz-adv-x="1492" d="M20 248h105q93 68 133.5 198t52.5 385l27 580h954q0 -195 1 -582.5t1 -582.5h123v-561h-256v315h-885v-315h-256v563zM449 246h567v917h-426l-17 -338q-5 -113 -9.5 -174.5t-17 -146t-36.5 -146t-61 -112.5z" />
<glyph unicode="&#x415;" horiz-adv-x="1181" d="M123 0v1411h973v-252h-693v-323h592v-252h-592v-334h693v-250h-973z" />
<glyph unicode="&#x416;" horiz-adv-x="1878" d="M37 0l135 455q33 112 84.5 181t134.5 97q-137 47 -201 264l-129 414h289l123 -387q34 -106 91 -143t149 -37h86v567h280v-567h86q91 0 148.5 37t91.5 143l123 387h287l-127 -414q-67 -217 -201 -264q83 -28 133.5 -97t83.5 -181l135 -455h-305l-117 410q-32 110 -88 148 t-151 38h-99v-596h-280v596h-99q-95 0 -152 -38.5t-89 -147.5l-115 -410h-307z" />
<glyph unicode="&#x417;" horiz-adv-x="1126" d="M18 129l146 207q58 -47 153.5 -75t171.5 -28q129 0 199 53.5t70 145.5q0 90 -62.5 137t-169.5 47h-188v222h180q94 0 158.5 49t64.5 133t-67 123t-168 39q-73 0 -156.5 -27t-140.5 -76l-137 201q182 143 465 143q100 0 184.5 -21t154 -65t109 -121t39.5 -180 q0 -101 -52 -181t-141 -122q100 -37 153.5 -120.5t53.5 -186.5q0 -91 -28.5 -165t-77.5 -124.5t-117 -85t-144 -50t-161 -15.5q-145 0 -278.5 38t-213.5 105z" />
<glyph unicode="&#x418;" horiz-adv-x="1382" d="M121 0v1411h278v-928h9l294 461l302 467h256v-1411h-281v920h-10l-140 -215q-49 -78 -227 -352.5t-227 -352.5h-254z" />
<glyph unicode="&#x419;" horiz-adv-x="1382" d="M121 0v1411h278v-928h9l294 461l302 467h256v-1411h-281v920h-10l-140 -215q-49 -78 -227 -352.5t-227 -352.5h-254zM397 1772h189q0 -47 34 -91.5t89 -44.5q59 0 93 44t34 92h186q-6 -42 -16 -79.5t-33.5 -81.5t-56 -75.5t-86 -52.5t-121.5 -21q-66 0 -120 21t-87.5 53 t-57 75t-34 82t-13.5 79z" />
<glyph unicode="&#x41a;" horiz-adv-x="1267" d="M121 0v1411h280v-567h144q92 0 147 37t90 143l123 387h287l-127 -412q-68 -219 -201 -266q83 -28 133.5 -97t83.5 -181l136 -455h-306l-116 410q-32 110 -88.5 148t-151.5 38h-154v-596h-280z" />
<glyph unicode="&#x41b;" horiz-adv-x="1325" d="M-8 195q70 23 118 57t78.5 78.5t47 112.5t22.5 144.5t6 188.5v635h930v-1411h-285v1159h-368v-375q0 -106 -6 -192t-21 -167.5t-39.5 -144.5t-62 -118t-88 -93.5t-118.5 -65t-153 -38.5z" />
<glyph unicode="&#x41c;" horiz-adv-x="1607" d="M123 0v1411h258l252 -498l170 -348h12l172 357l242 489h258v-1411h-281v758h-8l-131 -260l-160 -303h-202l-158 297l-137 266h-9v-758h-278z" />
<glyph unicode="&#x41d;" horiz-adv-x="1323" d="M119 0v1411h280v-567h521v567h284v-1411h-284v590h-521v-590h-280z" />
<glyph unicode="&#x41e;" horiz-adv-x="1306" d="M111 451v518q0 110 45 198.5t121 143.5t172.5 84.5t203.5 29.5t204 -31t173 -88t121 -146.5t45 -198.5v-510q0 -147 -74.5 -254t-196 -159t-272.5 -52t-272 52t-195.5 159t-74.5 254zM391 500q0 -68 22 -119t60 -80t83.5 -43t96.5 -14t95.5 14t82.5 43t60 80t22 119v411 q0 66 -22 117t-60 80.5t-83 44t-95 14.5q-51 0 -96.5 -14.5t-83.5 -44t-60 -80.5t-22 -117v-411z" />
<glyph unicode="&#x41f;" horiz-adv-x="1323" d="M119 0v1411h1085v-1411h-284v1159h-521v-1159h-280z" />
<glyph unicode="&#x420;" horiz-adv-x="1179" d="M119 0v1411h631q81 0 149 -26t114 -69.5t78 -101t47 -119t15 -124.5q0 -78 -28 -155.5t-79 -141.5t-131 -104t-174 -40h-342v-530h-280zM399 784h287q94 0 144.5 52t50.5 135q0 84 -51.5 136t-143.5 52h-287v-375z" />
<glyph unicode="&#x421;" horiz-adv-x="1148" d="M119 440v529q0 109 45.5 197.5t121.5 143t170.5 84t196.5 29.5q276 0 432 -137l-135 -217q-117 98 -288 98q-49 0 -94 -14t-84 -43t-62 -80.5t-23 -118.5v-411q0 -66 23.5 -117t62.5 -80.5t84 -44t93 -14.5q164 0 290 98l133 -217q-78 -66 -190.5 -102.5t-237.5 -36.5 q-102 0 -196.5 29t-171.5 83.5t-123.5 143.5t-46.5 198z" />
<glyph unicode="&#x422;" horiz-adv-x="1077" d="M25 1157v254h1028v-254h-373v-1157h-281v1157h-374z" />
<glyph unicode="&#x423;" horiz-adv-x="1167" d="M18 1411h293l168 -459q13 -35 109 -311h10l113 328q7 23 80 224.5t77 217.5h279l-404 -1071q-73 -193 -168 -274.5t-239 -81.5h-150v223h127q54 0 85 18.5t51 61.5q13 29 16 35z" />
<glyph unicode="&#x424;" horiz-adv-x="1624" d="M117 639v199q0 145 75 261t201.5 181t278.5 70v75h280v-75q240 -8 397.5 -150.5t157.5 -361.5v-197q0 -224 -156 -370.5t-399 -151.5v-119h-280v119q-251 12 -403 154.5t-152 365.5zM391 657q0 -128 80.5 -205.5t200.5 -82.5v731q-120 -5 -200.5 -84t-80.5 -207v-152z M952 369q125 5 203 81.5t78 206.5v152q0 131 -77 208.5t-204 82.5v-731z" />
<glyph unicode="&#x425;" horiz-adv-x="1218" d="M12 0l449 723l-422 688h319l252 -453l252 453h316l-418 -688l446 -723h-317l-279 487l-280 -487h-318z" />
<glyph unicode="&#x426;" horiz-adv-x="1370" d="M119 0v1411h280v-1161h521v1161h284v-1165h123v-563h-256v317h-952z" />
<glyph unicode="&#x427;" horiz-adv-x="1251" d="M55 961v450h283v-416q0 -128 64.5 -186.5t199.5 -58.5q63 0 135 20t129 51v590h283v-1409h-285v582q-146 -76 -325 -76q-144 0 -251 48t-170 151.5t-63 253.5z" />
<glyph unicode="&#x428;" horiz-adv-x="1878" d="M121 0v1411h278v-1161h400v1161h278v-1161h400v1161h282v-1411h-1638z" />
<glyph unicode="&#x429;" horiz-adv-x="1918" d="M121 0v1411h278v-1161h400v1161h278v-1161h398v1161h284v-1165h123v-563h-254v317h-1507z" />
<glyph unicode="&#x42a;" horiz-adv-x="1550" d="M23 1165v246h700v-539h328q204 0 324 -121t120 -313q0 -63 -15 -124t-49 -118.5t-83.5 -100.5t-123.5 -69t-163 -26h-619v1165h-419zM723 252h293q92 0 148.5 52.5t56.5 133.5q0 82 -57 133.5t-150 51.5h-291v-371z" />
<glyph unicode="&#x42b;" horiz-adv-x="1714" d="M123 0v1411h280v-539h326q204 0 324.5 -121t120.5 -313q0 -63 -15 -124t-49.5 -118.5t-83.5 -100.5t-123.5 -69t-163.5 -26h-616zM403 252h291q93 0 150 52.5t57 133.5q0 83 -56.5 134t-152.5 51h-289v-371zM1307 0v1411h278v-1411h-278z" />
<glyph unicode="&#x42c;" horiz-adv-x="1220" d="M123 0v1411h280v-539h326q204 0 324.5 -121t120.5 -313q0 -63 -15 -124t-49.5 -118.5t-83.5 -100.5t-123.5 -69t-163.5 -26h-616zM403 252h291q93 0 150 52.5t57 133.5q0 83 -56.5 134t-152.5 51h-289v-371z" />
<glyph unicode="&#x42d;" horiz-adv-x="1130" d="M45 125l137 215q110 -98 295 -98q114 0 186 63t72 193v114h-467v238h467v59q0 133 -67.5 195.5t-182.5 62.5q-148 0 -268 -90l-129 219q174 127 436 127q147 0 256 -47t173.5 -150.5t64.5 -254.5v-529q0 -110 -44.5 -198.5t-120 -143.5t-170.5 -84.5t-200 -29.5 q-126 0 -244 36.5t-194 102.5z" />
<glyph unicode="&#x42e;" horiz-adv-x="1712" d="M131 0v1411h279v-567h159v125q0 111 40.5 199t111.5 143.5t163 84.5t199 29q106 0 199 -30.5t164 -88t112 -146.5t41 -199v-510q0 -221 -143 -343t-373 -122q-149 0 -264 52t-182.5 158.5t-67.5 254.5v139h-159v-590h-279zM850 500q0 -133 64 -194.5t169 -61.5 q106 0 170 62t64 194v411q0 130 -64.5 193t-169.5 63t-169 -63t-64 -193v-411z" />
<glyph unicode="&#x42f;" horiz-adv-x="1282" d="M72 0l118 387q30 94 61 148t91 86q-80 23 -133.5 82.5t-74.5 129t-21 148.5q0 83 26.5 158.5t77.5 137t135 98t191 36.5h622v-1411h-282v559h-164q-92 0 -147 -39t-85 -147l-106 -373h-309zM397 969q0 -81 51 -123.5t148 -42.5h287v356h-283q-102 0 -152.5 -50 t-50.5 -140z" />
<glyph unicode="&#x430;" horiz-adv-x="1075" d="M82 301q0 80 34.5 141.5t90.5 96t118 52t126 17.5h262v43q0 74 -42.5 109t-144.5 35q-160 0 -268 -88l-117 190q169 131 412 131q215 0 318.5 -98t103.5 -297v-633h-240l-18 82l-6 2q-157 -92 -303 -92q-154 0 -240 82.5t-86 226.5zM362 317q0 -43 30.5 -67.5t88.5 -24.5 q103 0 234 74v117h-217q-136 0 -136 -99z" />
<glyph unicode="&#x431;" horiz-adv-x="1064" d="M86 373v245q0 224 36 359.5t128 236.5q40 45 107 85.5t119 63t136 54.5q25 10 70.5 27.5t79 31t69.5 31.5l87 -209q-145 -61 -222 -90q-62 -24 -97.5 -40t-82.5 -43.5t-74 -55t-49.5 -68.5t-30.5 -90l9 -6q40 31 100.5 49.5t112.5 18.5q183 0 288 -97.5t105 -289.5v-213 q0 -121 -63.5 -210t-163.5 -131t-222 -42q-203 0 -322.5 99t-119.5 284zM348 406q0 -91 51.5 -134t130.5 -43q78 0 133.5 43.5t55.5 133.5v147q0 91 -51.5 135.5t-132.5 44.5q-75 0 -131 -49t-56 -139v-139z" />
<glyph unicode="&#x432;" horiz-adv-x="1048" d="M96 0v1014h531q155 0 237 -77t82 -198q0 -66 -38.5 -125.5t-94.5 -81.5v-2q70 -30 111 -89t41 -136q0 -134 -86.5 -219.5t-247.5 -85.5h-535zM356 211h215q64 0 95.5 27.5t31.5 76.5q0 48 -32.5 76.5t-87.5 28.5h-222v-209zM356 627h226q50 0 77 22.5t27 61.5 q0 42 -29 65t-79 23h-222v-172z" />
<glyph unicode="&#x433;" horiz-adv-x="872" d="M98 0v1014h772v-217h-514v-797h-258z" />
<glyph unicode="&#x434;" horiz-adv-x="1191" d="M23 221q52 0 77 2q27 20 48.5 54t36 70.5t26.5 93.5t18.5 101t12 116.5t7.5 115.5t5.5 123t5.5 117h782v-791h97v-487h-232v264h-653v-264h-231v485zM397 223h394v576h-306l-12 -199q-7 -129 -23 -220.5t-53 -156.5z" />
<glyph unicode="&#x435;" horiz-adv-x="1040" d="M92 362v263q0 123 59 215t156 138t217 46q194 0 314 -105t120 -290v-199h-606v-33q0 -85 53 -128.5t132 -43.5q135 0 241 84l144 -178q-86 -83 -176.5 -112t-204.5 -29q-123 0 -222.5 39t-163 125t-63.5 208zM352 600h346v21q0 82 -49 123.5t-123 41.5q-75 0 -124.5 -46 t-49.5 -128v-12z" />
<glyph unicode="&#x436;" horiz-adv-x="1507" d="M14 0l113 330q28 85 62.5 131t103.5 69q-60 24 -94.5 69t-61.5 122l-104 295h278l86 -240q29 -81 69 -109t107 -28h45v377h263v-377h45q70 0 109 28t67 109l86 240h276l-102 -295q-28 -78 -63 -123t-95 -68q69 -23 103.5 -68.5t64.5 -131.5l111 -330h-291l-78 268 q-23 86 -64 113t-120 27h-49v-408h-263v408h-49q-78 0 -119.5 -27t-64.5 -113l-80 -268h-291z" />
<glyph unicode="&#x437;" horiz-adv-x="935" d="M41 106l127 179q52 -39 124.5 -61.5t127.5 -22.5q93 0 136.5 30t43.5 78q0 107 -149 107h-148v194h143q66 0 105 28t39 75q0 48 -40 72t-101 24q-135 0 -234 -78l-125 176q75 60 177.5 89.5t213.5 29.5q161 0 265 -76t104 -217q0 -62 -35.5 -118.5t-101.5 -90.5 q70 -34 106.5 -93.5t36.5 -123.5q0 -154 -114 -236.5t-300 -82.5q-111 0 -218 29.5t-183 88.5z" />
<glyph unicode="&#x438;" horiz-adv-x="1101" d="M102 0v1014h260v-598h11l147 225l248 373h231v-1014h-260v602h-10l-172 -264l-227 -338h-228z" />
<glyph unicode="&#x439;" horiz-adv-x="1101" d="M102 0v1014h260v-598h11l147 225l248 373h231v-1014h-260v602h-10l-172 -264l-227 -338h-228zM244 1462h188q0 -47 34 -91t89 -44q59 0 93 43.5t34 91.5h186q-6 -42 -16 -79.5t-33.5 -81t-56 -75t-86 -52.5t-121.5 -21q-66 0 -119.5 21t-87 53t-57 74.5t-34 81.5 t-13.5 79z" />
<glyph unicode="&#x43a;" horiz-adv-x="1073" d="M102 0v1016h263v-377h84q72 0 115.5 28.5t72.5 108.5l88 240h279l-107 -295q-27 -77 -61.5 -122t-94.5 -69q69 -23 103.5 -69t62.5 -131l115 -330h-291l-80 268q-27 86 -72.5 113t-127.5 27h-86v-408h-263z" />
<glyph unicode="&#x43b;" horiz-adv-x="1077" d="M2 178q82 25 123.5 65t59.5 113.5t18 208.5v449h764v-1014h-260v795h-250v-224q0 -280 -94.5 -424t-307.5 -174z" />
<glyph unicode="&#x43c;" horiz-adv-x="1308" d="M102 0v1014h236l154 -291l153 -289h10l154 283l162 297h231v-1014h-256v512h-6l-104 -203l-99 -180h-174l-104 186l-94 179l-7 -2v-492h-256z" />
<glyph unicode="&#x43d;" horiz-adv-x="1095" d="M102 0v1014h256v-389h373v389h262v-1014h-262v406h-373v-406h-256z" />
<glyph unicode="&#x43e;" horiz-adv-x="1062" d="M86 360v293q0 120 65.5 206.5t164.5 126.5t216 40q92 0 171.5 -24t140.5 -69.5t96 -118.5t35 -165v-289q0 -91 -38 -163.5t-101.5 -116.5t-141.5 -67t-164 -23q-88 0 -166.5 23t-141 67t-99.5 116.5t-37 163.5zM346 408q0 -92 53 -135.5t133 -43.5q74 0 128.5 44 t54.5 135v200q0 89 -54.5 132.5t-128.5 43.5q-48 0 -88.5 -16.5t-69 -57.5t-28.5 -102v-200z" />
<glyph unicode="&#x43f;" horiz-adv-x="1089" d="M102 0v1016h887v-1016h-262v788h-365v-788h-260z" />
<glyph unicode="&#x440;" horiz-adv-x="1075" d="M102 -406v1418h240l20 -92q163 102 291 102q338 0 338 -371v-297q0 -170 -91.5 -269t-264.5 -99q-160 0 -273 59v-451h-260zM362 289q120 -56 220 -56q65 -2 105 35.5t40 118.5v242q0 151 -127 151q-47 0 -116.5 -26t-121.5 -62v-403z" />
<glyph unicode="&#x441;" horiz-adv-x="927" d="M92 356v299q0 89 36.5 161.5t96.5 117t133.5 68.5t151.5 24q55 0 97.5 -4.5t93.5 -18t99 -42.5t91 -74l-150 -191q-45 39 -87 60t-66.5 25.5t-55.5 4.5q-72 0 -126 -44t-54 -132v-202q0 -91 51 -135t125 -44q49 0 106 21t103 67l156 -178q-83 -87 -176.5 -118t-206.5 -31 q-85 0 -159.5 23t-133 67t-92 115.5t-33.5 160.5z" />
<glyph unicode="&#x442;" horiz-adv-x="864" d="M14 795v219h838v-219h-289v-795h-260v795h-289z" />
<glyph unicode="&#x443;" horiz-adv-x="1007" d="M20 1016h269l94 -383l88 -338h6l113 342l123 379h270l-518 -1424h-262l155 431l-59 45z" />
<glyph unicode="&#x444;" horiz-adv-x="1347" d="M86 420v172q0 186 124 304.5t333 125.5v387h260v-387q204 -8 330.5 -127t126.5 -303v-172q0 -186 -127.5 -308t-329.5 -122v-398h-260v398q-202 0 -329.5 122t-127.5 308zM344 442q0 -94 54 -154t145 -61v555q-94 0 -146.5 -59t-52.5 -154v-127zM803 227q94 1 146 60.5 t52 154.5v127q0 96 -50.5 154t-147.5 59v-555z" />
<glyph unicode="&#x445;" horiz-adv-x="1038" d="M6 0l373 516l-356 498h311l182 -303l186 303h312l-361 -496l375 -518h-313l-199 319l-199 -319h-311z" />
<glyph unicode="&#x446;" horiz-adv-x="1114" d="M106 0v1014h256v-789h359v789h260v-789l94 -2v-489h-233v266h-736z" />
<glyph unicode="&#x447;" horiz-adv-x="1044" d="M53 680v334h258v-303q0 -152 170 -152q96 0 207 57v398h258v-1014h-258v403q-127 -61 -264 -61q-167 0 -269 84.5t-102 253.5z" />
<glyph unicode="&#x448;" horiz-adv-x="1531" d="M104 0v1014h261v-787h268v787h258v-787h270v787h262v-1014h-1319z" />
<glyph unicode="&#x449;" horiz-adv-x="1552" d="M106 0v1014h259v-787h268v787h256v-787h272v787h260v-791h97v-489h-234v266h-1178z" />
<glyph unicode="&#x44a;" horiz-adv-x="1234" d="M18 801v213h582v-369h236q175 0 270.5 -85t95.5 -234q0 -64 -21 -120.5t-62.5 -103.5t-113 -74.5t-163.5 -27.5h-500v801h-324zM600 215h215q66 0 99.5 30t33.5 81q0 46 -33 77t-100 31h-215v-219z" />
<glyph unicode="&#x44b;" horiz-adv-x="1419" d="M102 0v1014h256v-369h238q172 0 268.5 -85t96.5 -234q0 -64 -21 -120.5t-62.5 -103.5t-112.5 -74.5t-163 -27.5h-500zM358 215h215q67 0 101.5 30t34.5 81q0 45 -34 76.5t-102 31.5h-215v-219zM1053 0v1014h258v-1014h-258z" />
<glyph unicode="&#x44c;" horiz-adv-x="989" d="M106 0v1014h256v-369h236q175 0 271 -85t96 -234q0 -64 -21.5 -120.5t-63.5 -103.5t-113 -74.5t-163 -27.5h-498zM360 215h218q66 0 99.5 30t33.5 81q0 46 -33 77t-100 31h-218v-219z" />
<glyph unicode="&#x44d;" horiz-adv-x="919" d="M29 127l143 188q42 -40 87 -61t69 -24t57 -3q77 0 129.5 43t52.5 131v25h-317v188h317v17q0 85 -43 119t-118 34q-126 0 -207 -75l-138 188q145 129 369 129q187 0 292 -93.5t105 -273.5v-297q0 -118 -59 -204.5t-152 -127t-206 -40.5q-119 0 -210 26.5t-171 110.5z" />
<glyph unicode="&#x44e;" horiz-adv-x="1411" d="M106 0v1014h254v-391h117v39q0 111 60.5 196t156.5 127.5t209 42.5q178 0 300 -99t122 -265v-308q0 -112 -56.5 -196.5t-151.5 -127t-214 -42.5q-185 0 -305.5 100.5t-120.5 269.5v46h-117v-406h-254zM733 395q0 -87 47.5 -129.5t122.5 -42.5q70 0 118 43t48 129v221 q0 91 -46.5 135t-119.5 44t-121.5 -44t-48.5 -135v-221z" />
<glyph unicode="&#x44f;" horiz-adv-x="1044" d="M59 0l84 293q19 56 44.5 91.5t66.5 51.5q-83 27 -122.5 100.5t-39.5 157.5q0 61 21 117t62 102t109.5 73.5t155.5 27.5h506v-1014h-262v383h-109q-74 0 -116.5 -28.5t-65.5 -110.5l-61 -244h-273zM352 692q0 -96 125 -96h207v201h-209q-56 0 -89.5 -28t-33.5 -77z" />
<glyph unicode="&#x451;" horiz-adv-x="1040" d="M92 362v263q0 123 59 215t156 138t217 46q194 0 314 -105t120 -290v-199h-606v-33q0 -85 53 -128.5t132 -43.5q135 0 241 84l144 -178q-86 -83 -176.5 -112t-204.5 -29q-123 0 -222.5 39t-163 125t-63.5 208zM190 1294q0 60 40 100t100 40t99.5 -40t39.5 -100 q0 -58 -40 -98.5t-99 -40.5t-99.5 40.5t-40.5 98.5zM352 600h346v21q0 82 -49 123.5t-123 41.5q-75 0 -124.5 -46t-49.5 -128v-12zM594 1294q0 60 40.5 100t100.5 40t99.5 -40t39.5 -100q0 -58 -40 -98.5t-99 -40.5t-100 40.5t-41 98.5z" />
<glyph unicode="&#x452;" horiz-adv-x="1097" d="M14 1151v176h101v139h260v-139h379v-176h-379v-229q166 104 313 104q165 0 242.5 -97.5t77.5 -271.5v-446q0 -100 -34.5 -176.5t-96 -123t-140 -70t-172.5 -23.5v227q183 0 183 172l-3 408q0 80 -38 116.5t-95 36.5q-94 0 -237 -90v-688h-260v1151h-101z" />
<glyph unicode="&#x453;" horiz-adv-x="872" d="M98 0v1014h772v-217h-514v-797h-258zM338 1163l166 400l237 -76l-252 -379z" />
<glyph unicode="&#x454;" horiz-adv-x="927" d="M92 354v301q0 72 24 133t64 104t93.5 74t113 45.5t121.5 14.5q114 0 204 -25.5t169 -103.5l-146 -197q-43 38 -84.5 58.5t-65 24t-55.5 3.5q-71 0 -124.5 -39.5t-53.5 -123.5v-9h287v-202h-287v-13q0 -87 50.5 -128.5t123.5 -41.5q49 0 106 21t103 67l158 -178 q-88 -88 -179 -118.5t-204 -30.5q-115 0 -207.5 39.5t-151.5 123.5t-59 201z" />
<glyph unicode="&#x455;" horiz-adv-x="956" d="M33 137l141 187q132 -111 305 -111q70 0 115 26t45 70q0 38 -28.5 60t-96.5 34q-163 29 -224 50q-161 55 -189 184q-7 30 -7 65q0 102 56 177t141 110t186 35q133 0 228 -24t186 -93l-123 -194q-121 84 -287 84q-64 0 -97.5 -25t-33.5 -63q0 -27 24 -44.5t63 -26.5 t89 -19.5t102.5 -20.5t102.5 -31.5t89 -51.5t63 -82.5t24 -121.5q0 -102 -59 -176t-153.5 -109.5t-211.5 -35.5q-132 0 -239 29.5t-211 117.5z" />
<glyph unicode="&#x456;" horiz-adv-x="550" d="M129 1286q0 61 42.5 104.5t102.5 43.5t103 -43.5t43 -104.5t-43 -103t-103 -42t-102.5 42t-42.5 103zM145 0v1012h261v-1012h-261z" />
<glyph unicode="&#x457;" horiz-adv-x="550" d="M-59 1280q0 60 39.5 99.5t99.5 39.5t99.5 -39.5t39.5 -99.5q0 -58 -40 -98.5t-99 -40.5t-99 40.5t-40 98.5zM145 0v1012h261v-1012h-261zM344 1280q0 60 40.5 99.5t100.5 39.5t100 -39.5t40 -99.5q0 -58 -40.5 -98.5t-99.5 -40.5t-100 40.5t-41 98.5z" />
<glyph unicode="&#x458;" horiz-adv-x="557" d="M-25 -188h66q65 0 89 31t24 91v1078h262v-1118q0 -145 -89 -225.5t-235 -80.5h-117v224zM139 1288q0 60 42.5 103t103.5 43t104 -43t43 -103q0 -61 -42.5 -103t-104.5 -42t-104 42t-42 103z" />
<glyph unicode="&#x459;" horiz-adv-x="1568" d="M20 178q119 37 161 116t42 265v455h703v-369h235q175 0 271 -85t96 -234q0 -64 -21.5 -120.5t-63.5 -103.5t-113 -74.5t-163 -27.5h-497v797h-195v-228q0 -271 -94.5 -417.5t-306.5 -178.5zM924 215h217q66 0 99.5 30t33.5 81q0 46 -33 77t-100 31h-217v-219z" />
<glyph unicode="&#x45a;" horiz-adv-x="1546" d="M109 0v1014h258v-375h282v375h258v-369h234q175 0 271.5 -85t96.5 -234q0 -64 -21 -120.5t-63 -103.5t-113 -74.5t-163 -27.5h-500v424h-282v-424h-258zM907 215h213q66 0 100.5 30t34.5 81q0 45 -34 76.5t-101 31.5h-213v-219z" />
<glyph unicode="&#x45b;" horiz-adv-x="1097" d="M14 1151v176h101v139h260v-139h379v-176h-379v-229q166 104 313 104q165 0 242.5 -97.5t77.5 -271.5v-657h-263v625q0 80 -38 116.5t-95 36.5q-94 0 -237 -90v-688h-260v1151h-101z" />
<glyph unicode="&#x45c;" horiz-adv-x="1073" d="M102 0v1016h263v-377h84q72 0 115.5 28.5t72.5 108.5l88 240h279l-107 -295q-27 -77 -61.5 -122t-94.5 -69q69 -23 103.5 -69t62.5 -131l115 -330h-291l-80 268q-27 86 -72.5 113t-127.5 27h-86v-408h-263zM399 1163l166 400l238 -76l-252 -379z" />
<glyph unicode="&#x45e;" horiz-adv-x="1007" d="M20 1016h269l94 -383l88 -338h6l113 342l123 379h270l-518 -1424h-262l155 431l-59 45zM199 1462h188q0 -47 34 -91t89 -44q59 0 93 43.5t34 91.5h186q-6 -42 -16 -79.5t-33.5 -81t-56 -75t-86 -52.5t-121.5 -21q-66 0 -119.5 21t-87 53t-57 74.5t-34 81.5t-13.5 79z" />
<glyph unicode="&#x45f;" horiz-adv-x="1085" d="M102 0v1014h254v-799h369v799h260v-1014h-311v-289h-246v289h-326z" />
<glyph unicode="&#x490;" horiz-adv-x="1130" d="M133 0v1411h735v256h234v-508h-688v-1159h-281z" />
<glyph unicode="&#x491;" horiz-adv-x="880" d="M98 0v1014h547v213h225v-430h-514v-797h-258z" />
<glyph unicode="&#x4d9;" horiz-adv-x="1058" d="M94 385v199h608v32q0 172 -180 172q-141 0 -246 -83l-133 182q89 80 187.5 109.5t214.5 29.5q122 0 214 -40t147 -126t55 -209v-262q0 -184 -123.5 -290.5t-309.5 -106.5q-194 0 -314 103.5t-120 289.5zM354 393q0 -82 49 -124t123 -42q76 0 125 45.5t49 128.5v13h-346 v-21z" />
<glyph unicode="&#x2000;" horiz-adv-x="943" />
<glyph unicode="&#x2001;" horiz-adv-x="1886" />
<glyph unicode="&#x2002;" horiz-adv-x="943" />
<glyph unicode="&#x2003;" horiz-adv-x="1886" />
<glyph unicode="&#x2004;" horiz-adv-x="628" />
<glyph unicode="&#x2005;" horiz-adv-x="471" />
<glyph unicode="&#x2006;" horiz-adv-x="314" />
<glyph unicode="&#x2007;" horiz-adv-x="314" />
<glyph unicode="&#x2008;" horiz-adv-x="235" />
<glyph unicode="&#x2009;" horiz-adv-x="377" />
<glyph unicode="&#x200a;" horiz-adv-x="104" />
<glyph unicode="&#x2010;" horiz-adv-x="868" d="M98 418v231h670v-231h-670z" />
<glyph unicode="&#x2011;" horiz-adv-x="868" d="M98 418v231h670v-231h-670z" />
<glyph unicode="&#x2012;" horiz-adv-x="868" d="M98 418v231h670v-231h-670z" />
<glyph unicode="&#x2013;" horiz-adv-x="1058" d="M41 455v223h977v-223h-977z" />
<glyph unicode="&#x2014;" horiz-adv-x="2117" d="M41 455v223h2036v-223h-2036z" />
<glyph unicode="&#x2018;" horiz-adv-x="618" d="M135 1126q0 123 73.5 237.5t192.5 176.5l91 -123q-53 -38 -86 -88t-39 -102q49 -8 81.5 -49t32.5 -101q0 -67 -48.5 -113t-115.5 -46q-85 0 -133.5 58.5t-48.5 149.5z" />
<glyph unicode="&#x2019;" horiz-adv-x="618" d="M135 1040q53 38 86 88.5t39 100.5q-50 11 -82.5 51.5t-32.5 99.5q0 67 49 113.5t117 46.5q84 0 132.5 -58t48.5 -151q0 -124 -74 -237.5t-193 -175.5z" />
<glyph unicode="&#x201a;" horiz-adv-x="600" d="M135 -199q53 37 86 88.5t39 102.5q-53 11 -84 49t-31 102q0 65 48.5 111.5t115.5 46.5q84 0 132 -58t48 -149q0 -124 -73 -239.5t-191 -176.5z" />
<glyph unicode="&#x201c;" horiz-adv-x="993" d="M121 1126q0 123 73.5 237.5t192.5 176.5l90 -123q-53 -38 -86 -88t-39 -102q49 -8 82 -49t33 -101q0 -67 -48.5 -113t-115.5 -46q-84 0 -133 59t-49 149zM516 1126q0 122 73.5 238t190.5 176l90 -123q-108 -77 -125 -190q49 -8 82 -49t33 -101q0 -67 -48.5 -113 t-115.5 -46q-84 0 -132 58.5t-48 149.5z" />
<glyph unicode="&#x201d;" horiz-adv-x="993" d="M123 1040q54 38 87.5 88.5t39.5 100.5q-50 11 -83.5 51.5t-33.5 99.5q0 67 49.5 113.5t116.5 46.5q84 0 132 -58t48 -151q0 -124 -73 -237.5t-191 -175.5zM518 1040q53 38 86 88.5t39 100.5q-50 11 -82.5 51.5t-32.5 99.5q0 67 48.5 113.5t115.5 46.5q84 0 132 -58 t48 -151q0 -125 -71.5 -238.5t-192.5 -174.5z" />
<glyph unicode="&#x201e;" horiz-adv-x="1075" d="M135 -199q53 37 86 88.5t39 102.5q-53 11 -84 49t-31 102q0 65 48.5 111.5t115.5 46.5q84 0 132 -58t48 -149q0 -124 -73 -239.5t-191 -176.5zM598 -199q53 37 86 88.5t39 102.5q-52 11 -83.5 49.5t-31.5 101.5q0 65 48.5 111.5t115.5 46.5q84 0 132 -58t48 -149 q0 -125 -72.5 -240t-191.5 -176z" />
<glyph unicode="&#x2026;" horiz-adv-x="1847" d="M145 154q0 66 46 111.5t112 45.5q69 0 116.5 -45.5t47.5 -111.5q0 -70 -44.5 -119t-115.5 -49t-116.5 49t-45.5 119zM774 154q0 66 46 111.5t112 45.5q69 0 116.5 -45.5t47.5 -111.5q0 -70 -44.5 -119t-115.5 -49t-116.5 49t-45.5 119zM1378 154q0 66 46.5 111.5 t113.5 45.5q69 0 116.5 -45.5t47.5 -111.5q0 -70 -44.5 -119t-117.5 -49q-68 0 -115 49t-47 119z" />
<glyph unicode="&#x202f;" horiz-adv-x="377" />
<glyph unicode="&#x2039;" horiz-adv-x="755" d="M94 463l287 422h244l-279 -422l279 -418h-244z" />
<glyph unicode="&#x203a;" horiz-adv-x="755" d="M94 45l279 418l-279 422h244l287 -422l-287 -418h-244z" />
<glyph unicode="&#x205f;" horiz-adv-x="471" />
<glyph unicode="&#x20ac;" d="M59 504v164h789v-164h-416v-35q0 -73 40.5 -126.5t98 -77t121.5 -23.5q147 0 264 77q122 -210 129 -221q-162 -112 -395 -112q-106 0 -202 29.5t-171.5 84.5t-120 143.5t-44.5 198.5v62h-93zM59 748v165h93v50q0 109 45 198t120.5 145.5t170 86.5t198.5 30 q238 0 385 -102l-127 -225q-103 71 -252 71q-101 0 -180.5 -59.5t-79.5 -165.5v-29h416v-165h-789z" />
<glyph unicode="&#x2122;" horiz-adv-x="1863" d="M74 1243v170h669v-170h-245v-686h-179v686h-245zM834 557v858h165l160 -301l111 -215h8l111 219l155 297h166v-858h-180v461h-4l-84 -160l-105 -182h-131l-100 180l-90 162h-4v-461h-178z" />
<glyph unicode="&#xe000;" horiz-adv-x="1013" d="M0 0v1014h1014v-1014h-1014z" />
</font>
</defs>
</svg>
