<?xml version="1.0" standalone="no"?>
<!DOCTYPE svg PUBLIC "-//W3C//DTD SVG 1.1//EN" "http://www.w3.org/Graphics/SVG/1.1/DTD/svg11.dtd" >
<svg xmlns="http://www.w3.org/2000/svg">
<metadata></metadata>
<defs>
<font id="PFDinDisplayProThinRegular" horiz-adv-x="968" >
<font-face units-per-em="2048" ascent="1536" descent="-512" />
<missing-glyph horiz-adv-x="419" />
<glyph horiz-adv-x="0" />
<glyph horiz-adv-x="2048" />
<glyph unicode=" "  horiz-adv-x="419" />
<glyph unicode="&#x09;" horiz-adv-x="419" />
<glyph unicode="&#xa0;" horiz-adv-x="419" />
<glyph unicode="!" horiz-adv-x="432" d="M139 72q0 29 20.5 51t55.5 22t57.5 -22.5t22.5 -50.5q0 -35 -21.5 -55.5t-56.5 -20.5q-37 0 -57.5 20.5t-20.5 55.5zM164 1425h100q0 -131 -2 -273t-3 -285.5t-3 -285t-4 -270.5h-76q0 129 -2 270.5t-3 285t-3 285.5t-4 273z" />
<glyph unicode="&#x22;" horiz-adv-x="503" d="M117 1063v362h76v-362h-76zM311 1063v362h76v-362h-76z" />
<glyph unicode="#" horiz-adv-x="1005" d="M33 457v71h207l51 375h-199v72h211l62 448h73l-59 -448h297l63 448h76l-61 -448h204v-72h-215l-53 -375h211v-71h-219l-61 -457h-80l63 457h-295l-63 -457h-80l63 457h-196zM319 528h295l52 375h-297z" />
<glyph unicode="$" d="M47 127l49 76q86 -57 186.5 -91t206.5 -34q74 0 137.5 18.5t109.5 55t73 90t27 125.5q0 80 -31 132t-80 85.5t-112.5 52t-127.5 31.5q-74 14 -148.5 38.5t-133 66.5t-95 106.5t-36.5 160.5q0 78 26.5 142.5t74.5 112.5t115.5 78t149.5 36v174h74v-172q92 -4 181 -24.5 t169 -65.5l-41 -82q-158 86 -344 86q-59 0 -114.5 -16.5t-98.5 -52t-69.5 -90t-26.5 -130.5q0 -72 30.5 -120t81 -79.5t112 -50t122.5 -32.5q88 -18 165 -45t133 -70t88 -108.5t32 -163.5q0 -86 -31 -154t-86 -116t-132 -75.5t-171 -29.5v-189h-74v191q-217 8 -391 133z" />
<glyph unicode="%" horiz-adv-x="1556" d="M90 788v408q0 49 21.5 90t58.5 70.5t86 47t106 17.5q59 0 109.5 -17.5t86.5 -47t56.5 -70.5t20.5 -90v-408q0 -49 -20.5 -90t-56.5 -71.5t-86 -47t-110 -16.5q-121 0 -196.5 63.5t-75.5 161.5zM172 801q0 -45 18.5 -77t47 -51.5t61.5 -27.5t63 -8q31 0 65 8t62.5 27.5 t47 51.5t18.5 77v381q0 45 -18.5 76.5t-47 51t-62.5 28t-65 8.5t-63.5 -8.5t-61 -28t-47 -51t-18.5 -76.5v-381zM301 -35l868 1497h82l-870 -1497h-80zM920 219v408q0 47 21.5 88t58 71.5t86 48t106.5 17.5q59 0 109.5 -17.5t86 -48t56 -71.5t20.5 -88v-410q0 -49 -20.5 -90 t-56 -71.5t-86 -47t-109.5 -16.5q-121 0 -196.5 64.5t-75.5 162.5zM1001 229q0 -45 18.5 -76.5t47.5 -51t61.5 -27.5t63.5 -8t64.5 8t62.5 27.5t47 51t18 76.5v381q0 45 -18 77t-47 52.5t-62.5 28.5t-64.5 8t-63.5 -8t-61.5 -28.5t-47.5 -52.5t-18.5 -77v-381z" />
<glyph unicode="&#x26;" horiz-adv-x="1619" d="M84 1036q0 115 49 220.5t138 186.5t213 129t274 48q178 0 315 -63.5t230.5 -171t141.5 -251t48 -303.5q0 -96 -22.5 -184t-62.5 -168t-93 -148.5t-117 -125.5q82 -78 163 -137.5t163 -92.5l-37 -69q-96 43 -185.5 107.5t-164.5 136.5q-109 -84 -232 -125t-237 -41 q-90 0 -167 23.5t-135.5 71.5t-91 120.5t-32.5 171.5q0 143 96 251.5t266 200.5q-70 92 -98.5 165t-28.5 132q0 57 18.5 108.5t53.5 90.5t85 61.5t114 22.5q61 0 112 -20.5t87 -56.5t56.5 -83t20.5 -98q0 -111 -80 -196t-217 -156q39 -61 89 -130t104.5 -138.5t113 -137.5 t113.5 -129q57 53 106.5 117.5t85 137.5t56 154t20.5 167q0 141 -42 270t-125 227.5t-204.5 156.5t-283.5 58q-131 0 -240.5 -41t-189.5 -110.5t-125 -161.5t-45 -193q0 -72 24.5 -148.5t77.5 -148.5l-63 -45q-59 82 -87 167t-28 171zM324 375q0 -82 26.5 -141.5t72.5 -98.5 t107.5 -58.5t128.5 -19.5q98 0 210 35t216 113q-123 129 -233.5 275.5t-202.5 277.5q-68 -37 -127 -78t-103 -88t-69.5 -101.5t-25.5 -115.5zM563 1124q0 -57 33 -123.5t86 -140.5q51 27 97 56.5t82 63.5t56.5 75t20.5 90q0 39 -16.5 72.5t-43 57t-61.5 37t-72 13.5 q-49 0 -83.5 -20.5t-56 -51t-32 -65.5t-10.5 -64z" />
<glyph unicode="'" horiz-adv-x="432" d="M184 1063v362h78v-362h-78z" />
<glyph unicode="(" horiz-adv-x="536" d="M135 614q0 117 24.5 235t67.5 229.5t103.5 212t132.5 184.5l45 -27q-127 -180 -198.5 -396t-71.5 -427q0 -229 73.5 -446.5t196.5 -391.5l-39 -31q-70 80 -130 178.5t-105.5 209t-72 229.5t-26.5 241z" />
<glyph unicode=")" horiz-adv-x="536" d="M55 -217q123 174 196 391t73 447q0 213 -71 428t-198 395l43 26q74 -84 134.5 -184t103.5 -211.5t67.5 -229.5t24.5 -235q0 -121 -26.5 -240.5t-71.5 -230t-105.5 -209t-128.5 -178.5z" />
<glyph unicode="*" horiz-adv-x="702" d="M61 1186q4 10 13.5 40.5t13.5 43.5l242 -101l-17 256h86l-16 -256l244 101l26 -86l-247 -72l165 -197q-10 -8 -36.5 -28.5t-36.5 -26.5l-142 221l-139 -223l-72 57l162 197q-10 2 -46 13.5t-78 23.5t-77.5 23.5t-44.5 13.5z" />
<glyph unicode="+" d="M61 535v77h385v394h76v-394h385v-77h-385v-398h-76v398h-385z" />
<glyph unicode="," horiz-adv-x="409" d="M123 68q0 33 24.5 54t59.5 21q43 0 67.5 -31.5t24.5 -80.5q0 -72 -42 -135.5t-101 -94.5l-33 41q80 59 84 148q-37 -2 -60.5 19.5t-23.5 58.5z" />
<glyph unicode="-" horiz-adv-x="757" d="M109 502v88h540v-88h-540z" />
<glyph unicode="." horiz-adv-x="385" d="M113 74q0 29 21.5 52.5t60.5 23.5q35 0 58 -24t23 -52q0 -35 -21.5 -59.5t-59.5 -24.5q-39 0 -60.5 23.5t-21.5 60.5z" />
<glyph unicode="/" horiz-adv-x="593" d="M4 -51l502 1521h80l-502 -1521h-80z" />
<glyph unicode="0" d="M76 354v705q0 80 32.5 146.5t89 115.5t130 76.5t157.5 27.5q86 0 161 -27.5t130 -76.5t87 -115.5t32 -146.5v-709q0 -80 -32 -146.5t-87 -114.5t-130 -74.5t-161 -26.5t-160.5 27.5t-130 76.5t-87 115.5t-31.5 146.5zM170 377q0 -84 30.5 -141.5t77 -93.5t102.5 -52 t105 -16t105.5 16t103.5 52t78 93.5t31 141.5v655q0 84 -31 142.5t-78 94.5t-103 52t-106 16q-49 0 -105 -16t-102.5 -52t-77 -94.5t-30.5 -142.5v-655z" />
<glyph unicode="1" d="M270 1184q12 10 54.5 43t91.5 70.5t92 70.5t55 43h92v-1411h-94v1296l-239 -184q-8 10 -25.5 36t-26.5 36z" />
<glyph unicode="2" d="M78 0v119q0 96 34.5 178t93 150.5t132.5 127t154 109.5q129 80 216 175t87 206q0 72 -28 123t-73 84t-104.5 48t-120.5 15q-102 0 -182 -32.5t-140 -77.5l-53 71q61 51 158.5 89t210.5 38q82 0 159.5 -18.5t137 -60t96.5 -109.5t37 -164q0 -68 -26.5 -130t-71.5 -119.5 t-104.5 -106.5t-123.5 -88q-59 -37 -126.5 -85t-127 -108.5t-98.5 -134.5t-39 -160v-55h713v-84h-811z" />
<glyph unicode="3" d="M61 119q8 12 28 36.5t28 37.5q59 -49 142 -85t177 -36q70 0 131.5 21.5t107.5 62.5t71.5 98t25.5 129q0 74 -22.5 130t-60.5 95t-85 59.5t-96 20.5h-156v86h156q37 0 80 17.5t82 53.5t64.5 90t25.5 130q0 74 -26.5 125t-69.5 84t-95.5 47t-103.5 14q-90 0 -173 -32.5 t-140 -79.5l-58 71q84 66 170 96.5t205 30.5q72 0 141.5 -20.5t123.5 -63.5t88 -109.5t34 -158.5q0 -53 -13.5 -104.5t-41 -96.5t-68.5 -78.5t-96 -52.5q61 -20 104 -57t71 -83t40 -99.5t12 -104.5q0 -96 -33.5 -171t-92 -127t-135.5 -79.5t-165 -27.5q-129 0 -223 41 t-154 90z" />
<glyph unicode="4" d="M51 231v86q123 274 244 547t242 547h98l-481 -1094h536v443h96v-443h125v-86h-125v-231h-96v231h-639z" />
<glyph unicode="5" d="M94 123l58 72q63 -53 140 -88t165 -35q43 0 99 12t106.5 45t86 90t35.5 146v202q0 133 -61 198.5t-170 65.5q-41 0 -88 -13t-95 -33.5t-93.5 -45t-79.5 -47.5q-6 2 -19.5 7.5t-29 11.5t-29 11t-19.5 7v682h740v-88h-643v-530q102 63 199.5 98t160.5 35q154 0 237 -92.5 t83 -249.5v-238q0 -78 -32 -144.5t-88.5 -113.5t-133 -73.5t-166.5 -26.5q-129 0 -215 42t-148 93z" />
<glyph unicode="6" d="M86 348v713q0 82 33 148.5t88 114.5t129 74.5t158 26.5q129 0 214 -39.5t140 -93.5l-62 -73q-57 55 -126.5 85.5t-165.5 30.5q-47 0 -102.5 -16t-102.5 -52t-78 -95.5t-31 -145.5v-311q127 78 225.5 113.5t163.5 35.5q152 0 234 -93t82 -251v-164q0 -80 -32 -147.5 t-86 -116.5t-128 -75.5t-158 -26.5t-155.5 25.5t-125 72.5t-84 113.5t-30.5 146.5zM180 377q0 -82 29 -139.5t73 -94.5t97 -53t102 -16t103.5 17.5t100.5 54t76 94t30 137.5v129q0 135 -63.5 199.5t-164.5 64.5q-88 0 -186 -46t-197 -106v-241z" />
<glyph unicode="7" d="M84 1102v309h797v-90l-535 -1321h-102l536 1325h-604v-223h-92z" />
<glyph unicode="8" d="M57 375q0 49 15.5 100t46.5 99.5t78 87t112 61.5q-109 39 -165 129t-56 188q0 92 33 164t88 120t125.5 72.5t148.5 24.5t151 -23.5t128 -71.5t89 -117.5t34 -161.5q0 -49 -14.5 -98.5t-42 -92.5t-71.5 -78t-102 -55q72 -23 120 -60.5t77 -85t41 -97.5t12 -95 q0 -98 -35.5 -173t-95 -124t-136.5 -74.5t-161 -25.5t-160.5 24.5t-134 72.5t-91.5 121t-34 169zM154 375q0 -135 86.5 -218t240.5 -83q72 0 132.5 21.5t103.5 60.5t67.5 95t24.5 128q0 66 -24.5 121t-68.5 95t-104.5 62.5t-130.5 22.5q-66 0 -125 -22.5t-104 -62.5 t-71.5 -96.5t-26.5 -123.5zM180 1044q0 -63 24.5 -115t65.5 -89t96.5 -57.5t114.5 -20.5q57 0 113.5 20.5t99.5 57.5t70 89t27 118q0 72 -27 126t-70 89.5t-97.5 54t-111.5 18.5q-55 0 -110.5 -18.5t-98.5 -54t-69.5 -90t-26.5 -128.5z" />
<glyph unicode="9" d="M82 897v160q0 80 31.5 147.5t86 116.5t128 76.5t157.5 27.5q82 0 154 -25.5t125 -72.5t85 -113.5t32 -146.5v-713q0 -82 -33 -148.5t-88 -114.5t-130 -74.5t-157 -26.5q-129 0 -215 40t-139 93l61 74q57 -55 126 -86t165 -31q49 0 103.5 15.5t101.5 52t77.5 96 t30.5 145.5v313q-250 -150 -387 -149q-152 0 -233.5 91t-81.5 253zM174 911q0 -135 64.5 -199.5t164.5 -64.5q86 0 184.5 47t196.5 105v239q0 82 -28.5 139.5t-71.5 93.5t-96 52t-103 16q-49 0 -104 -16t-101.5 -53t-76 -94.5t-29.5 -137.5v-127z" />
<glyph unicode=":" horiz-adv-x="407" d="M119 74q0 29 22.5 52.5t59.5 23.5q35 0 59.5 -24t24.5 -52q0 -35 -22.5 -59.5t-59.5 -24.5q-39 0 -61.5 23.5t-22.5 60.5zM119 731q0 33 22.5 56.5t59.5 23.5q35 0 59.5 -23.5t24.5 -56.5q0 -35 -22.5 -58.5t-59.5 -23.5q-39 0 -61.5 23.5t-22.5 58.5z" />
<glyph unicode=";" horiz-adv-x="407" d="M115 68q0 33 24.5 54t59.5 21q43 0 67.5 -31.5t24.5 -80.5q0 -72 -42 -135.5t-102 -94.5l-32 41q80 59 84 148q-37 -2 -60.5 19.5t-23.5 58.5zM119 731q0 33 22.5 56.5t59.5 23.5q35 0 59.5 -23.5t24.5 -56.5q0 -35 -23.5 -58.5t-58.5 -23.5q-39 0 -61.5 23.5t-22.5 58.5 z" />
<glyph unicode="&#x3c;" d="M72 537v73l821 373v-84l-727 -326q61 -27 159.5 -70.5t204 -90.5t203.5 -91.5t162 -70.5v-86z" />
<glyph unicode="=" d="M61 334v78h846v-78h-846zM61 696v76h846v-76h-846z" />
<glyph unicode="&#x3e;" d="M72 164v86q63 27 161.5 71t203 91t202.5 91t162 70l-727 326v84l821 -373v-73z" />
<glyph unicode="?" horiz-adv-x="884" d="M66 1335q84 51 165 73t175 22q88 0 155.5 -25t114.5 -70t71.5 -105.5t24.5 -131.5q0 -94 -47 -172t-104.5 -152t-104.5 -150.5t-47 -166.5v-131h-84v131q0 106 46 189t101.5 157t101.5 142.5t46 146.5q0 113 -75 185.5t-212 72.5q-78 0 -151.5 -23.5t-132.5 -62.5z M354 72q0 29 20.5 51t55.5 22t57.5 -22.5t22.5 -50.5q0 -35 -21.5 -55.5t-56.5 -20.5q-37 0 -57.5 20.5t-20.5 55.5z" />
<glyph unicode="@" horiz-adv-x="1714" d="M102 686q0 164 63.5 302t174.5 237.5t257 156t312 56.5q168 0 300 -54.5t224.5 -147.5t140.5 -221.5t48 -275.5q0 -115 -28.5 -195.5t-73.5 -133t-101.5 -76t-113.5 -23.5q-66 0 -126.5 28t-82.5 93q-98 -59 -178 -83.5t-136 -24.5q-111 0 -179 57t-68 168q0 63 25.5 107 t64.5 71t85 39t87 12h280v70q0 61 -16.5 101t-46 63.5t-70.5 32t-92 8.5q-39 0 -95.5 -14.5t-127.5 -61.5l-47 63q72 49 143.5 68.5t130.5 19.5q156 0 227.5 -67.5t71.5 -198.5v-348q2 -49 38 -91t118 -42q45 0 88 22.5t75.5 67.5t52 111.5t19.5 156.5q0 135 -44 250 t-127 199t-200.5 131t-265.5 47q-150 0 -282.5 -51t-232 -142.5t-158 -215t-58.5 -269.5q0 -147 51.5 -272t142.5 -217.5t216 -143.5t272 -51q66 0 125 10.5t135 42.5l29 -69q-84 -35 -160 -45.5t-129 -10.5q-166 0 -304 56.5t-239.5 157t-158 238.5t-56.5 302zM618 551 q0 -80 51.5 -118t123.5 -38q63 0 140 33t144 80v201h-250q-33 0 -69.5 -5.5t-67.5 -22.5t-51.5 -48t-20.5 -82z" />
<glyph unicode="A" horiz-adv-x="1163" d="M41 0l487 1411h111l491 -1411h-104q-29 86 -59.5 170t-61.5 170h-645q-29 -86 -57.5 -170t-57.5 -170h-104zM293 430h581q-8 25 -29.5 91.5t-51 153.5t-63.5 185t-63.5 186.5t-52 154t-30.5 89.5h-2q-8 -25 -30 -91t-51.5 -153.5t-62 -185.5t-62.5 -185t-52.5 -153.5 t-30.5 -91.5z" />
<glyph unicode="B" horiz-adv-x="1175" d="M115 0v1411l557 -2q98 0 170.5 -28.5t122 -77t73 -113t23.5 -135.5q0 -43 -10.5 -88t-36 -87t-68.5 -78t-106 -59q70 -23 115.5 -62.5t74.5 -89.5t41 -103.5t12 -102.5q0 -76 -25.5 -145.5t-74.5 -123t-122 -85t-165 -31.5h-581zM213 88h461q66 0 122 18.5t98 55.5 t66.5 93t24.5 130q0 72 -25.5 129t-67.5 98t-97.5 63.5t-116.5 22.5h-465v-610zM213 788h459q53 0 105 16.5t92 49.5t64.5 82t24.5 117q0 74 -25.5 124t-68.5 82.5t-99 47t-118 14.5h-434v-533z" />
<glyph unicode="C" horiz-adv-x="1028" d="M104 459v499q0 102 36 188.5t101.5 148t156.5 96t202 34.5q106 0 195.5 -24.5t169.5 -79.5l-54 -80q-66 47 -145.5 70.5t-165.5 23.5q-74 0 -145.5 -22.5t-128 -70.5t-90 -123t-33.5 -179v-465q0 -104 34.5 -180t90 -125t125 -72.5t141.5 -23.5q180 0 321 100l52 -76 q-55 -41 -149.5 -76.5t-217.5 -35.5q-113 0 -205 34.5t-156.5 98t-99.5 149.5t-35 191z" />
<glyph unicode="D" horiz-adv-x="1189" d="M115 0v1411h522q104 0 189 -34t143.5 -95t90.5 -146t32 -188v-491q0 -102 -33 -186.5t-93.5 -143.5t-145.5 -93t-189 -34h-516zM213 86h391q70 0 138.5 20.5t124 66.5t90 120t34.5 182v457q0 106 -32.5 180t-84 120t-117 67.5t-128.5 21.5h-416v-1235z" />
<glyph unicode="E" horiz-adv-x="1089" d="M117 0v1411h907v-90h-809v-561h696v-88h-696v-584h809v-88h-907z" />
<glyph unicode="F" horiz-adv-x="1056" d="M117 0v1411h909v-90h-811v-561h696v-90h-696v-670h-98z" />
<glyph unicode="G" horiz-adv-x="1124" d="M98 459v499q0 102 37 188.5t103.5 148t160 96t207.5 34.5q106 0 198.5 -24.5t170.5 -79.5l-53 -80q-66 47 -148 70.5t-168 23.5q-78 0 -150.5 -22.5t-131 -70.5t-93 -123t-34.5 -179v-465q0 -104 33.5 -180t90 -125t128 -72.5t147.5 -23.5q25 0 61.5 3t80.5 15t92.5 35 t97.5 61v420h-244v92h342v-553q-88 -84 -197.5 -122.5t-230.5 -38.5q-113 0 -205 34.5t-157.5 98t-101.5 149.5t-36 191z" />
<glyph unicode="H" horiz-adv-x="1220" d="M113 0v1411h96v-649h799v649h102v-1411h-102v674h-799v-674h-96z" />
<glyph unicode="I" horiz-adv-x="442" d="M172 0v1411h98v-1411h-98z" />
<glyph unicode="J" horiz-adv-x="1032" d="M53 74l47 80q66 -39 131.5 -59.5t137.5 -20.5q84 0 156.5 23.5t124.5 73.5t82 127t30 181v934h98v-952q0 -104 -31.5 -191.5t-93 -150t-152.5 -98t-208 -35.5q-96 0 -179 25.5t-143 62.5z" />
<glyph unicode="K" horiz-adv-x="1103" d="M113 0v1411h98v-874l709 874h118l-438 -545l502 -866h-115l-455 784q-80 -98 -159.5 -198.5t-161.5 -200.5v-385h-98z" />
<glyph unicode="L" horiz-adv-x="1028" d="M119 0v1411h98v-1323h803v-88h-901z" />
<glyph unicode="M" horiz-adv-x="1447" d="M113 0v1411h98q78 -162 156.5 -320.5t156.5 -318.5q51 -106 101.5 -211.5t103.5 -210.5l74 148l129 274q78 160 156.5 320.5t152.5 318.5h92v-1411h-98v1182h-2q-59 -127 -113.5 -242t-107.5 -225q-63 -127 -122 -247t-118 -243h-82l-250 502l-225 457h-4v-1184h-98z" />
<glyph unicode="N" horiz-adv-x="1255" d="M115 0v1411h98l524 -790q76 -115 151 -228.5t152 -226.5v1245h99v-1411h-105q-129 195 -257 388.5t-259 389.5q-76 115 -150.5 230.5t-154.5 228.5v-1237h-98z" />
<glyph unicode="O" horiz-adv-x="1202" d="M104 457v501q0 102 34 188.5t98.5 148t156.5 96t207 34.5q113 0 205 -34.5t156.5 -97t100.5 -148.5t36 -187v-507q0 -104 -36 -190.5t-100.5 -147t-156.5 -94t-205 -33.5q-115 0 -206 33.5t-155.5 96t-99.5 149.5t-35 192zM203 467q0 -104 34.5 -178t91 -122t128 -70.5 t143.5 -22.5q82 0 154.5 23.5t127 71.5t86 122t31.5 176v473q0 100 -32.5 175t-88 124t-127 72.5t-151.5 23.5q-82 0 -154.5 -23.5t-126 -72.5t-85 -124t-31.5 -175v-473z" />
<glyph unicode="P" horiz-adv-x="1103" d="M113 0v1411h553q98 0 171.5 -36t123 -93t73 -128.5t23.5 -145.5t-25.5 -145.5t-76 -129t-123 -92.5t-166.5 -35h-457v-606h-96zM209 698h438q63 0 119.5 20.5t98.5 60.5t66.5 97.5t24.5 131.5q0 72 -24.5 129t-66.5 98t-98 63.5t-120 22.5h-438v-623z" />
<glyph unicode="Q" horiz-adv-x="1202" d="M104 457v501q0 102 34 188.5t98.5 148t156.5 96t207 34.5q113 0 205 -34.5t156.5 -97t100.5 -148.5t36 -187v-507q0 -98 -32 -181.5t-91.5 -143.5t-143 -96t-186.5 -42v-66q0 -100 45 -141t146 -41h22t27 2v-86q-18 -2 -37 -3t-35 -1q-141 0 -200.5 67.5t-59.5 196.5v72 q-104 6 -187 43t-141.5 98t-89.5 144t-31 184zM203 467q0 -104 34.5 -178t91 -122t128 -70.5t143.5 -22.5q82 0 154.5 23.5t127 71.5t86 122t31.5 176v473q0 100 -32.5 175t-88 124t-127 72.5t-151.5 23.5q-82 0 -154.5 -23.5t-126 -72.5t-85 -124t-31.5 -175v-473z" />
<glyph unicode="R" horiz-adv-x="1136" d="M115 0v1411h553q100 0 175 -36t124 -93t73.5 -130t24.5 -146q0 -59 -17.5 -119t-53.5 -112t-89 -92t-123 -58l275 -625h-109l-264 606h-471v-606h-98zM213 696h440q63 0 119.5 20.5t99.5 60.5t68 97.5t25 131.5q0 72 -25 130t-68 99t-99 62.5t-120 21.5h-440v-623z" />
<glyph unicode="S" horiz-adv-x="1097" d="M61 127l56 76q94 -57 204.5 -92t227.5 -35q80 0 149.5 19.5t120.5 56t81 92t30 127.5q0 82 -34 134t-88 85t-124 51t-139 33q-82 14 -163 39.5t-144.5 68.5t-103.5 108.5t-40 162.5q0 84 31 153.5t88 118.5t140 77t186 28q113 0 219 -20.5t200 -72.5l-45 -86 q-88 47 -186 67.5t-197 20.5q-66 0 -126 -16t-106 -52t-74.5 -91.5t-28.5 -130.5q0 -74 33.5 -122t89 -80t124 -50.5t136.5 -32.5q96 -20 179 -47t144.5 -70t96 -109.5t34.5 -166.5q0 -90 -34.5 -161t-98 -120t-153 -75.5t-199.5 -26.5q-139 0 -258 35.5t-228 103.5z" />
<glyph unicode="T" horiz-adv-x="1050" d="M35 1319v92h979v-92h-439v-1319h-98v1319h-442z" />
<glyph unicode="U" horiz-adv-x="1208" d="M106 451v960h101v-944q0 -104 33.5 -178t89 -121t127 -69.5t147.5 -22.5q78 0 150.5 22.5t128 69.5t88.5 120.5t33 178.5v944h100v-962q0 -104 -37 -190.5t-103.5 -147t-158.5 -93t-201 -32.5q-111 0 -202 32.5t-156.5 94t-102.5 147.5t-37 191z" />
<glyph unicode="V" horiz-adv-x="1114" d="M35 1411h106l217 -672l193 -604q14 39 27.5 76t25.5 74q37 117 75 231.5t73 231.5l217 663h106q-117 -356 -232.5 -705.5t-232.5 -705.5h-114z" />
<glyph unicode="W" horiz-adv-x="1716" d="M20 1411h107l197 -762q33 -129 65.5 -259t67.5 -259h2l137 520l201 760h104l201 -766l135 -512h4l131 514l199 764h104q-96 -356 -189 -705.5t-188 -705.5h-120l-197 741l-131 502l-180 -682l-152 -561h-119z" />
<glyph unicode="X" horiz-adv-x="1026" d="M23 0l436 725l-406 686h115l344 -600l344 600h115l-406 -686l436 -725h-114l-375 637l-375 -637h-114z" />
<glyph unicode="Y" horiz-adv-x="1003" d="M25 1411h108l160 -332l153 -327q16 -29 29.5 -55.5t28.5 -55.5l207 442l157 328h105q-104 -221 -210 -439t-212 -437v-535h-98v530q-106 223 -213 440.5t-215 440.5z" />
<glyph unicode="Z" horiz-adv-x="1056" d="M82 0v86l780 1235h-747v90h864v-88l-778 -1235h776v-88h-895z" />
<glyph unicode="[" horiz-adv-x="479" d="M156 -223v1650h290v-71h-202v-1510h202v-69h-290z" />
<glyph unicode="\" horiz-adv-x="598" d="M-8 1485h74l516 -1571h-74z" />
<glyph unicode="]" horiz-adv-x="479" d="M72 -154h200v1510h-200v71h288v-1650h-288v69z" />
<glyph unicode="^" horiz-adv-x="956" d="M92 682l350 737h74l346 -735h-84l-301 647q-23 -55 -63.5 -142t-84.5 -181.5t-85 -182.5t-66 -143h-86z" />
<glyph unicode="_" horiz-adv-x="1009" d="M0 -143h1010v-76h-1010v76z" />
<glyph unicode="`" horiz-adv-x="987" d="M422 1454l98 39l162 -315l-57 -25z" />
<glyph unicode="a" horiz-adv-x="954" d="M66 272q0 80 32.5 135.5t81.5 89t108.5 49t114.5 15.5h365v101q0 270 -285 270q-72 0 -147.5 -20.5t-153.5 -73.5l-49 73q86 57 172 81t184 24q104 0 175 -23.5t114 -68.5t61.5 -107.5t18.5 -140.5v-676h-74l-16 125h-2q-74 -47 -132.5 -73.5t-104.5 -41t-82.5 -18.5 t-65.5 -4q-141 0 -228 71.5t-87 212.5zM162 272q0 -53 18.5 -91t50 -62.5t73.5 -36.5t89 -12q45 0 93.5 13t97.5 33.5t96 46t88 50.5v268h-330q-41 0 -89 -6t-90 -27.5t-69.5 -63.5t-27.5 -112z" />
<glyph unicode="b" horiz-adv-x="983" d="M109 0v1464h92v-598q82 51 142 82t104.5 46.5t78 19.5t62.5 4q152 0 231.5 -85t79.5 -259v-344q0 -172 -90 -257t-229 -85q-29 0 -63 3t-79 15t-103.5 38t-133.5 71l-17 -115h-75zM201 211q98 -66 200.5 -101.5t169.5 -35.5q115 0 175.5 68.5t60.5 211.5v297 q0 150 -57.5 213.5t-174.5 63.5q-35 0 -78.5 -12.5t-93 -34t-101.5 -51t-101 -62.5v-557z" />
<glyph unicode="c" horiz-adv-x="839" d="M100 354v303q0 82 29 148.5t81 114t122.5 74t156.5 26.5q78 0 161 -21.5t145 -74.5l-58 -74q-59 47 -123.5 65.5t-115.5 18.5q-57 0 -111.5 -16.5t-97.5 -52.5t-68.5 -93t-25.5 -139v-256q0 -80 25.5 -137.5t68.5 -94t97 -53t110 -16.5q49 0 120.5 17.5t120.5 56.5 l56 -70q-63 -47 -143.5 -68.5t-157.5 -21.5q-90 0 -163 26.5t-124 75.5t-78 115.5t-27 146.5z" />
<glyph unicode="d" horiz-adv-x="983" d="M94 330v338q0 170 95.5 260t256.5 90q61 0 142.5 -16.5t204.5 -75.5v538h90v-1462h-74l-16 131q-74 -47 -131.5 -74.5t-103.5 -44t-82 -21.5t-64 -5q-147 0 -232.5 83t-85.5 259zM184 350q0 -150 60.5 -213t171.5 -63q70 0 172 42t205 113v600q-109 53 -191 78t-147 25 q-270 0 -271 -287v-295z" />
<glyph unicode="e" horiz-adv-x="954" d="M100 354v285q0 86 29 155.5t81 120t125 77t159 26.5q84 0 153.5 -27.5t120.5 -77t78.5 -119t27.5 -151.5v-178h-681v-94q0 -84 26.5 -141.5t69.5 -93.5t98 -52t115 -16q84 0 151.5 28.5t120.5 79.5l57 -65q-63 -63 -147 -93t-186 -30q-86 0 -159 23.5t-126 69.5 t-83 114.5t-30 158.5zM193 545h589v86q0 82 -25.5 139t-66.5 94t-92 53.5t-104 16.5q-55 0 -109.5 -17.5t-96.5 -54.5t-68.5 -95t-26.5 -138v-84z" />
<glyph unicode="f" horiz-adv-x="577" d="M63 922v86h123v223q0 123 68 182.5t166 59.5h147v-84h-129q-49 0 -79.5 -14.5t-49 -38t-24.5 -56.5t-6 -70v-202h288v-86h-288v-922h-93v922h-123z" />
<glyph unicode="g" horiz-adv-x="980" d="M90 330v344q0 172 90.5 257t229.5 85q29 0 63.5 -3t80.5 -16.5t103.5 -40t130.5 -71.5l17 121h76v-1086q0 -86 -31 -151.5t-84 -110.5t-129 -67.5t-164 -22.5q-82 0 -171 23.5t-155 76.5l60 72q49 -41 126 -63.5t142 -22.5q63 0 120.5 15.5t100.5 50t67.5 91t24.5 140.5 v186q-72 -47 -129 -75.5t-103 -45t-84 -22.5t-69 -6h-13q-136 0 -216 83q-84 87 -84 259zM182 354q0 -147 56.5 -212.5t171.5 -65.5q76 0 177 44t201 111v553q-104 72 -199 108t-171 36q-111 0 -173.5 -63.5t-62.5 -215.5v-295z" />
<glyph unicode="h" horiz-adv-x="980" d="M100 0v1466h93v-600q141 90 234.5 121t156.5 31q307 0 307 -344v-674h-92v651q0 150 -57.5 213.5t-172.5 63.5q-37 0 -83 -12.5t-95 -34t-100 -48t-98 -57.5v-776h-93z" />
<glyph unicode="i" horiz-adv-x="378" d="M123 1337q0 29 19.5 47.5t45.5 18.5q29 0 48.5 -18.5t19.5 -47.5t-19.5 -48t-48.5 -19q-27 0 -46 19.5t-19 47.5zM143 0v1006h90v-1006h-90z" />
<glyph unicode="j" horiz-adv-x="450" d="M-18 -344h63q82 0 115 39t33 143v1168h92v-1184q0 -131 -55.5 -190.5t-172.5 -59.5h-75v84zM174 1337q0 29 19.5 47.5t46.5 18.5q29 0 48 -18.5t19 -47.5t-19.5 -48t-47.5 -19q-27 0 -46.5 19.5t-19.5 47.5z" />
<glyph unicode="k" horiz-adv-x="919" d="M100 0v1466h90v-841h234q61 0 119.5 26.5t99.5 112.5l117 246h100l-117 -258q-27 -57 -61.5 -99.5t-99.5 -66.5q39 -6 67.5 -25.5t48 -46.5t32.5 -58.5t24 -64.5l135 -391h-101l-122 350q-20 59 -41 95t-46.5 56.5t-59.5 27t-83 6.5h-246v-535h-90z" />
<glyph unicode="l" horiz-adv-x="512" d="M186 217v1249h90v-1235q0 -95 36 -125q32 -26 102 -26h20l4 -84q-18 -4 -33.5 -4h-31.5q-104 0 -145.5 56t-41.5 169z" />
<glyph unicode="m" horiz-adv-x="1513" d="M92 0v1006h76l16 -140q59 45 108.5 75t90.5 47.5t75.5 23.5t69.5 6q57 0 99.5 -14.5t72 -38t49 -55t31.5 -64.5q68 57 121 91t96 52.5t77 23.5t61 5q145 0 217.5 -86t72.5 -248v-684h-92v655q0 129 -46 201t-165 72q-72 0 -151.5 -42t-173.5 -120q4 -29 6 -49.5t2 -42.5 v-674h-92v657q0 127 -44 200t-159 73q-59 0 -137 -34t-189 -120v-776h-92z" />
<glyph unicode="n" horiz-adv-x="983" d="M98 0v1006h76l16 -140q72 43 128.5 73t101.5 47.5t82.5 24.5t72.5 7q150 0 232 -85t82 -259v-674h-92v651q-1 151 -63 215q-61 63 -170 62h-7q-74 0 -170 -44t-197 -112v-772h-92z" />
<glyph unicode="o" horiz-adv-x="980" d="M94 352v307q0 82 32 148.5t86 113t126 72t154 25.5q84 0 156.5 -25.5t125.5 -72t83 -113t30 -148.5v-305q0 -172 -108.5 -269t-289.5 -97q-88 0 -160.5 25.5t-124.5 73.5t-81 114.5t-29 150.5zM186 375q0 -84 26 -141.5t68 -93.5t97 -52t117 -16q61 0 115.5 17t96.5 54 t66.5 94.5t24.5 137.5v256q0 82 -28 139t-71 93t-97 52.5t-107 16.5q-55 0 -110.5 -16.5t-98.5 -52.5t-71 -93t-28 -139v-256z" />
<glyph unicode="p" horiz-adv-x="983" d="M102 -416v1417h74l17 -131q74 45 131 75t103 45.5t82 21.5t64 6q147 0 232.5 -84t85.5 -258v-340q0 -170 -93 -260t-259 -90q-61 0 -142.5 16t-203.5 78v-496h-91zM193 174q113 -57 192.5 -79.5t144.5 -22.5q135 0 203 68.5t68 215.5v297q0 150 -61.5 213.5t-170.5 63.5 q-70 0 -172 -43t-204 -113v-600z" />
<glyph unicode="q" horiz-adv-x="978" d="M92 330v346q0 172 89 257t229 85q29 0 64.5 -4t80.5 -17.5t103.5 -39t132.5 -68.5l16 115h74v-1422h-90v551q-74 -49 -133.5 -77.5t-105.5 -44t-82 -19.5t-64 -4q-147 0 -230.5 84t-83.5 258zM182 354q0 -145 58 -212q57 -66 167 -66h7q72 0 171 39t206 116v562 q-104 70 -205 104.5t-168 34.5q-115 0 -175.5 -68.5t-60.5 -212.5v-297z" />
<glyph unicode="r" horiz-adv-x="606" d="M137 0v1006h80l14 -150h2q31 27 73 54.5t91 51t101.5 38t101.5 18.5v-107q-137 -14 -227 -59t-142 -80v-772h-94z" />
<glyph unicode="s" horiz-adv-x="899" d="M78 94l49 72q76 -53 158 -78t180 -25q45 0 94 10.5t88 35t64.5 64.5t25.5 99q0 86 -67.5 130t-227.5 71q-61 10 -122.5 25.5t-111.5 43t-82 74t-32 117.5q0 125 93.5 205t252.5 80q104 0 186.5 -19.5t151.5 -66.5l-47 -70q-127 76 -285 76q-119 0 -190.5 -55.5 t-71.5 -149.5q0 -43 21.5 -73.5t59.5 -51t90.5 -34t113.5 -23.5t125.5 -25.5t117 -45t85 -80t32.5 -132.5q0 -123 -96 -201.5t-272 -78.5q-98 0 -194.5 20.5t-188.5 85.5z" />
<glyph unicode="t" horiz-adv-x="684" d="M63 922v86h156l25 237h65v-237h299v-86h-299v-613q0 -129 42 -181t145 -52q27 0 63.5 3t77.5 11l14 -80q-47 -14 -95 -17t-73 -3q-150 0 -208 68.5t-58 224.5v639h-154z" />
<glyph unicode="u" horiz-adv-x="987" d="M94 332v674h92v-652q0 -150 63.5 -214t176.5 -64q74 0 170 44t197 116v770h94v-1006h-78l-16 139q-70 -43 -124.5 -71.5t-98.5 -47t-80.5 -25.5t-71.5 -7q-156 0 -240 85t-84 259z" />
<glyph unicode="v" horiz-adv-x="882" d="M25 1006h100l135 -381q45 -127 87 -251t89 -253q6 16 14.5 37.5t27 73t51 142.5t85.5 249q35 96 70 191t66 192h102q-92 -252 -183 -504t-184 -502h-98q-94 250 -182 502t-180 504z" />
<glyph unicode="w" horiz-adv-x="1374" d="M18 1006h97q29 -92 55.5 -186.5t52.5 -186.5l148 -504h2q47 137 93 274.5t93 276.5q23 59 41 117.5t39 117.5h98l133 -391l134 -395h2q37 123 73.5 247t71.5 249l109 381h94l-295 -1006h-98l-158 461l-115 334h-2l-117 -349l-151 -446h-99z" />
<glyph unicode="x" horiz-adv-x="821" d="M16 0l336 514l-319 492h112l261 -416l264 416h112l-323 -490l338 -516h-115l-276 438l-277 -438h-113z" />
<glyph unicode="y" horiz-adv-x="876" d="M14 1004h97q41 -117 77.5 -234t77.5 -235l154 -455h2l166 455q43 119 86 235.5t84 233.5h96q-129 -356 -259 -705.5t-259 -704.5h-98l147 410l-57 59z" />
<glyph unicode="z" horiz-adv-x="860" d="M61 0v76l609 850h-576v80h684v-76l-604 -848h604v-82h-717z" />
<glyph unicode="{" horiz-adv-x="479" d="M59 578v51q45 12 75 42.5t45.5 73.5t21.5 93.5t6 99.5v276q0 96 43 153.5t119 57.5h96v-59h-70q-37 0 -59.5 -18.5t-33.5 -47t-15 -62.5t-4 -64v-275q0 -63 -13.5 -113.5t-33 -87t-44 -60.5t-47.5 -32v-2q53 -16 95.5 -89t42.5 -191v-295q0 -31 4 -65t15 -62.5t33.5 -47 t59.5 -18.5h70v-59h-96q-76 0 -120 55t-44 154v286q0 133 -29 208t-117 98z" />
<glyph unicode="|" horiz-adv-x="356" d="M147 -332v1798h70v-1798h-70z" />
<glyph unicode="}" horiz-adv-x="479" d="M57 -164h70q37 0 59.5 18.5t33.5 47t15.5 62.5t4.5 65v295q0 119 42 191.5t95 88.5v2q-25 8 -48.5 32t-44 60.5t-32.5 87t-12 113.5v275q0 31 -3.5 64.5t-13.5 62t-33.5 47t-62.5 18.5h-70v57h95q82 0 122.5 -58t40.5 -151v-276q0 -49 6.5 -99.5t21.5 -93.5t44 -73.5 t76 -42.5v-51q-88 -23 -117 -97.5t-29 -208.5v-286q0 -94 -44 -151.5t-119 -57.5h-97v59z" />
<glyph unicode="~" d="M47 537q43 61 101.5 97t123.5 36q55 0 109.5 -19.5t108 -43t105.5 -43t105 -19.5q55 0 88 26.5t70 77.5l64 -45q-41 -63 -91.5 -102t-130.5 -39q-53 0 -110.5 19.5t-112.5 42t-108.5 42t-98.5 19.5q-53 0 -90 -28t-74 -69z" />
<glyph unicode="&#xa2;" horiz-adv-x="907" d="M100 354v303q0 78 27 142.5t74 111.5t112.5 75t145.5 32v227h55v-225q74 -4 148.5 -25.5t132.5 -70.5l-58 -74q-53 43 -113.5 61.5t-109.5 22.5v-858q49 4 113.5 21.5t109.5 52.5l56 -70q-59 -45 -132 -65.5t-147 -24.5v-223h-55v225q-84 4 -150.5 32.5t-112.5 75.5 t-71 111.5t-25 142.5zM195 377q0 -74 21.5 -128t58 -91t85 -56.5t99.5 -25.5v856q-51 -4 -99.5 -23.5t-85 -55.5t-58 -90t-21.5 -130v-256z" />
<glyph unicode="&#xa3;" d="M76 616v72h162q-6 39 -13.5 64.5t-15.5 48.5q-23 68 -47.5 138.5t-24.5 141.5q0 68 21.5 130.5t66.5 110.5t113 76.5t158 28.5q131 0 219 -44t149 -132l-69 -53q-57 78 -133 113t-170 35q-39 0 -84.5 -12.5t-84 -42t-65.5 -81t-27 -129.5q0 -35 9.5 -75.5t23.5 -81.5 q18 -55 35.5 -107.5t32.5 -128.5h307v-72h-301q-2 -143 -33 -276t-123 -258h711v-82h-815v74q80 106 127 236t47 296v10h-176z" />
<glyph unicode="&#xa5;" d="M49 1411h109l325 -766q88 190 165 382t163 384h104q-78 -184 -158.5 -366.5t-160.5 -366.5h301v-68h-330l-32 -75v-138h362v-65h-362v-332h-99v332h-348v65h348v133l-35 80h-315v68h287z" />
<glyph unicode="&#xa8;" horiz-adv-x="954" d="M231 1331q0 29 19.5 47.5t44.5 18.5q29 0 48 -18.5t19 -47.5q0 -27 -19 -46t-48 -19q-25 0 -44.5 19.5t-19.5 45.5zM575 1331q0 29 19.5 47.5t46.5 18.5q29 0 47.5 -18.5t18.5 -47.5q0 -27 -18.5 -46t-47.5 -19q-27 0 -46.5 19.5t-19.5 45.5z" />
<glyph unicode="&#xa9;" horiz-adv-x="1597" d="M106 698q0 154 53.5 286t147.5 229.5t222 151.5t276 54q150 0 277.5 -54t222 -151.5t148.5 -229.5t54 -286t-54 -284.5t-148.5 -228t-222 -151.5t-277.5 -54t-278 54t-221 151.5t-146.5 228.5t-53.5 284zM182 698q0 -135 48.5 -253.5t132 -206.5t197.5 -138.5t245 -50.5 q133 0 247.5 50.5t199.5 138.5t133.5 206.5t48.5 253.5q0 137 -48.5 256t-133.5 207t-199.5 138.5t-247.5 50.5q-131 0 -245 -50.5t-197.5 -138.5t-132 -206.5t-48.5 -256.5zM489 569v248q0 70 24 127t67 98t103 64.5t134 23.5q143 0 248 -71l-41 -62q-47 33 -99.5 48.5 t-107.5 15.5q-49 0 -94 -14.5t-81 -45t-57.5 -80t-21.5 -116.5v-223q0 -68 21.5 -117t57.5 -81t80 -47t91 -15q117 0 213 67l43 -59q-41 -29 -105.5 -52.5t-146.5 -23.5q-154 0 -241 88t-87 227z" />
<glyph unicode="&#xab;" horiz-adv-x="833" d="M127 449l242 352h90l-236 -352l236 -355h-94zM403 449l242 352h90l-235 -352l235 -355h-92z" />
<glyph unicode="&#xad;" horiz-adv-x="757" d="M109 502v88h540v-88h-540z" />
<glyph unicode="&#xae;" horiz-adv-x="1118" d="M145 1008q0 92 33 172t89.5 137t132 90t163.5 33t165 -33t133.5 -90t88 -137t31.5 -172t-31.5 -171t-88 -136.5t-133.5 -90t-165 -32.5t-163.5 32.5t-132 90t-89.5 136t-33 171.5zM199 1008q0 -82 27.5 -152t76.5 -121t115.5 -80.5t144.5 -29.5t144.5 29.5t115.5 80.5 t77 121t28 152t-28 151.5t-77 120.5t-115.5 81t-144.5 30t-144.5 -30t-115.5 -81t-76.5 -120.5t-27.5 -151.5zM408 758v499h198q66 0 108 -35.5t42 -97.5q0 -53 -31 -90t-84 -47l121 -229h-62l-114 223h-125v-223h-53zM461 1030h135q47 0 76.5 23.5t29.5 70.5 q0 45 -31.5 65.5t-72.5 20.5h-137v-180z" />
<glyph unicode="&#xb4;" horiz-adv-x="987" d="M422 1178l160 315l100 -39l-205 -301z" />
<glyph unicode="&#xb8;" horiz-adv-x="847" d="M326 -367l20 54q35 -10 67.5 -15.5t59.5 -5.5q43 0 85 18.5t42 71.5q0 27 -13.5 46.5t-35 30.5t-48 15.5t-52.5 -0.5l-41 21q14 41 26.5 82t24.5 80q16 0 30.5 -1t28.5 -1l-39 -119q55 0 92 -16.5t59.5 -40t32 -50t9.5 -49.5t-10.5 -48t-34 -48t-61.5 -37t-93 -14 q-23 0 -60.5 5t-88.5 21z" />
<glyph unicode="&#xbb;" horiz-adv-x="833" d="M129 94l233 355l-233 352h90l242 -352l-240 -355h-92zM406 94l235 355l-235 352h90l241 -352l-239 -355h-92z" />
<glyph unicode="&#x2c6;" horiz-adv-x="987" d="M193 1182l270 254h76l258 -252l-43 -43l-258 198l-260 -200z" />
<glyph unicode="&#x2da;" horiz-adv-x="970" d="M324 1317q0 39 15 72.5t41 59.5t59.5 40t72.5 14t74 -14t60.5 -40t39.5 -59.5t14 -72.5t-14 -73t-39.5 -59.5t-60.5 -40t-74 -14.5q-78 0 -133 54.5t-55 132.5zM383 1317q0 -53 38 -91t91 -38q55 0 92 38t37 91t-37 91t-92 38q-53 0 -91 -38t-38 -91z" />
<glyph unicode="&#x2dc;" horiz-adv-x="987" d="M193 1270q39 63 87 97t101 34q33 0 67.5 -13.5t68.5 -30t65.5 -29.5t56.5 -13q33 0 58.5 19.5t56.5 64.5l61 -35q-39 -72 -82 -102.5t-92 -30.5q-31 0 -63.5 12t-66.5 27.5t-66.5 29t-61.5 13.5q-39 0 -67.5 -19.5t-61.5 -60.5z" />
<glyph unicode="&#x401;" horiz-adv-x="1089" d="M117 0v1411h907v-90h-809v-561h696v-88h-696v-584h809v-88h-907zM336 1608q0 27 19.5 46t43.5 19q29 0 48.5 -19t19.5 -46q0 -29 -19.5 -47.5t-48.5 -18.5q-25 0 -44 18.5t-19 47.5zM680 1608q0 27 19.5 46t45.5 19q29 0 47.5 -19t18.5 -46q0 -29 -18.5 -47.5 t-47.5 -18.5q-27 0 -46 18.5t-19 47.5z" />
<glyph unicode="&#x402;" horiz-adv-x="1398" d="M18 1319v92h1061v-92h-575v-494q129 86 236.5 115t181.5 29q186 0 284.5 -95.5t98.5 -283.5v-264q0 -104 -36 -190.5t-100.5 -147t-155.5 -94t-204 -33.5v90q82 0 153.5 23.5t126 70.5t86 121t31.5 176v221q0 166 -76.5 238.5t-224.5 72.5q-94 0 -200.5 -41.5 t-200.5 -109.5v-723h-98v1319h-388z" />
<glyph unicode="&#x403;" horiz-adv-x="1028" d="M123 0v1411h907v-90h-811v-1321h-96zM463 1538l278 221l72 -76l-309 -190z" />
<glyph unicode="&#x404;" horiz-adv-x="1017" d="M104 459v499q0 102 36 188.5t101.5 148t156.5 96t202 34.5q106 0 195.5 -24.5t169.5 -79.5l-54 -80q-66 47 -145.5 70.5t-165.5 23.5q-74 0 -145.5 -22.5t-128 -70.5t-90 -123t-33.5 -179v-172h563v-88h-563v-205q0 -104 34.5 -180t90 -125t125 -72.5t141.5 -23.5 q180 0 321 100l52 -76q-55 -41 -149.5 -76.5t-217.5 -35.5q-117 0 -208 34.5t-155.5 98t-98.5 149.5t-34 191z" />
<glyph unicode="&#x405;" horiz-adv-x="1097" d="M61 127l56 76q94 -57 204.5 -92t227.5 -35q80 0 149.5 19.5t120.5 56t81 92t30 127.5q0 82 -34 134t-88 85t-124 51t-139 33q-82 14 -163 39.5t-144.5 68.5t-103.5 108.5t-40 162.5q0 84 31 153.5t88 118.5t140 77t186 28q113 0 219 -20.5t200 -72.5l-45 -86 q-88 47 -186 67.5t-197 20.5q-66 0 -126 -16t-106 -52t-74.5 -91.5t-28.5 -130.5q0 -74 33.5 -122t89 -80t124 -50.5t136.5 -32.5q96 -20 179 -47t144.5 -70t96 -109.5t34.5 -166.5q0 -90 -34.5 -161t-98 -120t-153 -75.5t-199.5 -26.5q-139 0 -258 35.5t-228 103.5z" />
<glyph unicode="&#x406;" horiz-adv-x="442" d="M172 0v1411h98v-1411h-98z" />
<glyph unicode="&#x407;" horiz-adv-x="442" d="M-14 1698q0 29 19.5 47t43.5 18q29 0 48.5 -18t19.5 -47q0 -27 -19.5 -46.5t-48.5 -19.5q-25 0 -44 19.5t-19 46.5zM172 0v1411h98v-1411h-98zM330 1698q0 29 19.5 47t45.5 18q29 0 47.5 -18t18.5 -47q0 -27 -18.5 -46.5t-47.5 -19.5q-27 0 -46 19.5t-19 46.5z" />
<glyph unicode="&#x408;" horiz-adv-x="1032" d="M53 74l47 80q66 -39 131.5 -59.5t137.5 -20.5q84 0 156.5 23.5t124.5 73.5t82 127t30 181v934h98v-952q0 -104 -31.5 -191.5t-93 -150t-152.5 -98t-208 -35.5q-96 0 -179 25.5t-143 62.5z" />
<glyph unicode="&#x409;" horiz-adv-x="1851" d="M37 33q63 45 111.5 103.5t81 145.5t50 213t17.5 304v612h657v-643h445q102 0 178 -34t127 -87t75.5 -122.5t24.5 -139.5q0 -188 -116.5 -286.5t-307.5 -98.5h-524v1321h-465v-569q0 -170 -20.5 -298t-59.5 -223.5t-95 -162t-128 -113.5zM954 90h424q68 0 127.5 17.5 t103.5 53.5t69.5 91t25.5 133q0 127 -86 210t-240 83h-424v-588z" />
<glyph unicode="&#x40a;" horiz-adv-x="1832" d="M113 0v1411h96v-647h627v647h98v-647h444q102 0 178 -33t127.5 -86t76 -121.5t24.5 -138.5q0 -188 -116 -286.5t-308 -98.5h-524v676h-627v-676h-96zM934 90h426q68 0 127 17.5t103 53.5t68.5 91t24.5 133q0 127 -86 209t-239 82h-424v-586z" />
<glyph unicode="&#x40b;" horiz-adv-x="1398" d="M18 1319v92h1061v-92h-575v-492q125 84 235.5 113t184.5 29q195 0 288 -100.5t93 -286.5v-582h-99v553q0 168 -69.5 244.5t-223.5 76.5q-92 0 -203.5 -41.5t-205.5 -109.5v-723h-98v1319h-388z" />
<glyph unicode="&#x40c;" horiz-adv-x="1093" d="M115 0v1411h96v-633h303q39 0 78 9.5t74.5 34t67.5 67.5t54 108l142 414h92l-131 -397q-35 -102 -83 -175t-126 -96q49 -12 85 -36.5t61.5 -60.5t44 -82t34.5 -97l144 -467h-103l-141 461q-23 70 -50.5 115t-61 71.5t-73.5 35.5t-83 9h-328v-692h-96zM408 1538l278 221 l72 -76l-309 -190z" />
<glyph unicode="&#x40e;" horiz-adv-x="997" d="M27 1411h102l367 -954h6l366 954h101l-441 -1126q-35 -88 -68.5 -145.5t-70.5 -92.5t-79 -49t-93 -14h-76v94h60q61 0 110 30.5t90 127.5l43 102zM248 1661h80q12 -68 64 -109t118 -41q68 0 116 36t64 114h80q-6 -39 -23.5 -79t-48 -72.5t-78 -53t-110.5 -20.5 q-66 0 -113 20.5t-79.5 53t-49 72.5t-20.5 79z" />
<glyph unicode="&#x40f;" horiz-adv-x="1208" d="M106 0v1411h99v-1323h799v1323h100v-1411h-455v-326h-104v326h-439z" />
<glyph unicode="&#x410;" horiz-adv-x="1163" d="M41 0l487 1411h111l491 -1411h-104q-29 86 -59.5 170t-61.5 170h-645q-29 -86 -57.5 -170t-57.5 -170h-104zM293 430h581q-8 25 -29.5 91.5t-51 153.5t-63.5 185t-63.5 186.5t-52 154t-30.5 89.5h-2q-8 -25 -30 -91t-51.5 -153.5t-62 -185.5t-62.5 -185t-52.5 -153.5 t-30.5 -91.5z" />
<glyph unicode="&#x411;" horiz-adv-x="1110" d="M113 0v1411h807v-92h-711v-551h446q104 0 181 -34t126.5 -87t74 -122.5t24.5 -139.5q0 -188 -117 -286.5t-307 -98.5h-524zM209 90h426q68 0 127 17.5t103 53.5t70 91t26 133q0 127 -86.5 210t-239.5 83h-426v-588z" />
<glyph unicode="&#x412;" horiz-adv-x="1175" d="M115 0v1411l557 -2q98 0 170.5 -28.5t122 -77t73 -113t23.5 -135.5q0 -43 -10.5 -88t-36 -87t-68.5 -78t-106 -59q70 -23 115.5 -62.5t74.5 -89.5t41 -103.5t12 -102.5q0 -76 -25.5 -145.5t-74.5 -123t-122 -85t-165 -31.5h-581zM213 88h461q66 0 122 18.5t98 55.5 t66.5 93t24.5 130q0 72 -25.5 129t-67.5 98t-97.5 63.5t-116.5 22.5h-465v-610zM213 788h459q53 0 105 16.5t92 49.5t64.5 82t24.5 117q0 74 -25.5 124t-68.5 82.5t-99 47t-118 14.5h-434v-533z" />
<glyph unicode="&#x413;" horiz-adv-x="1028" d="M123 0v1411h907v-90h-811v-1321h-96z" />
<glyph unicode="&#x414;" horiz-adv-x="1366" d="M20 94h103q51 55 89 114.5t64.5 140.5t41 193.5t20.5 272.5l22 596h840v-1319h105v-393h-97v301h-1093v-301h-95v395zM242 92h858v1229h-649l-21 -547q-6 -139 -20.5 -245.5t-38 -187.5t-56 -140.5t-73.5 -108.5z" />
<glyph unicode="&#x415;" horiz-adv-x="1089" d="M117 0v1411h907v-90h-809v-561h696v-88h-696v-584h809v-88h-907z" />
<glyph unicode="&#x416;" horiz-adv-x="1716" d="M45 0l137 465q31 104 78 180t146 98q-78 23 -127.5 93.5t-79.5 175.5l-125 399h94l133 -414q20 -68 52 -109.5t69 -66t76 -34t77 -9.5h234v633h98v-633h234q39 0 77.5 9.5t75.5 34t68 66.5t53 109l133 414h94l-124 -399q-33 -104 -82.5 -175t-126.5 -94q49 -12 85 -36.5 t62.5 -61.5t44 -83t33.5 -97l137 -465h-102l-135 461q-20 72 -48 117t-62 70.5t-74 34.5t-85 9h-258v-692h-98v692h-260q-43 0 -83 -9t-74 -34.5t-62.5 -71t-48.5 -116.5l-134 -461h-102z" />
<glyph unicode="&#x417;" horiz-adv-x="1030" d="M35 119l57 74q63 -51 155.5 -86t194.5 -35q76 0 144.5 21.5t121 62.5t82 99t29.5 130q0 74 -24.5 130t-64.5 96t-91 60.5t-104 20.5h-168v86h168q41 0 89 17.5t90 53.5t70.5 91t28.5 131q0 74 -29.5 125t-75.5 84t-104.5 48t-116.5 15q-96 0 -190 -31.5t-154 -80.5 l-57 74q96 66 191.5 95.5t222.5 29.5q78 0 152.5 -20.5t133 -65t93 -111t34.5 -158.5q0 -53 -14 -105t-44 -97.5t-74 -79t-103 -52.5q66 -20 112 -59t74.5 -87t41 -100.5t12.5 -99.5q0 -98 -38 -175t-102.5 -129t-149.5 -78.5t-182 -26.5q-141 0 -243.5 42t-167.5 91z" />
<glyph unicode="&#x418;" horiz-adv-x="1255" d="M115 0v1411h98v-1259l262 395l565 864h101v-1411h-99v1253l-268 -405l-555 -848h-104z" />
<glyph unicode="&#x419;" horiz-adv-x="1255" d="M115 0v1411h98v-1259l262 395l565 864h101v-1411h-99v1253l-268 -405l-555 -848h-104zM334 1690h80q12 -68 64 -109t118 -41q68 0 116 36t64 114h80q-6 -39 -23.5 -79t-48 -73t-78 -53.5t-110.5 -20.5q-66 0 -113 20.5t-79.5 53.5t-49 73t-20.5 79z" />
<glyph unicode="&#x41a;" horiz-adv-x="1093" d="M115 0v1411h96v-633h303q39 0 78 9.5t74.5 34t67.5 67.5t54 108l142 414h92l-131 -397q-35 -102 -83 -175t-126 -96q49 -12 85 -36.5t61.5 -60.5t44 -82t34.5 -97l144 -467h-103l-141 461q-23 70 -50.5 115t-61 71.5t-73.5 35.5t-83 9h-328v-692h-96z" />
<glyph unicode="&#x41b;" horiz-adv-x="1208" d="M2 37q61 45 108.5 102.5t81 144.5t51 212t17.5 303v612h836v-1411h-101v1321h-637v-569q0 -170 -20.5 -298t-60 -223.5t-96 -162t-130.5 -113.5z" />
<glyph unicode="&#x41c;" horiz-adv-x="1447" d="M113 0v1411h98q78 -162 156.5 -320.5t156.5 -318.5q51 -106 101.5 -211.5t103.5 -210.5l74 148l129 274q78 160 156.5 320.5t152.5 318.5h92v-1411h-98v1182h-2q-59 -127 -113.5 -242t-107.5 -225q-63 -127 -122 -247t-118 -243h-82l-250 502l-225 457h-4v-1184h-98z" />
<glyph unicode="&#x41d;" horiz-adv-x="1220" d="M113 0v1411h96v-649h799v649h102v-1411h-102v674h-799v-674h-96z" />
<glyph unicode="&#x41e;" horiz-adv-x="1202" d="M104 457v501q0 102 34 188.5t98.5 148t156.5 96t207 34.5q113 0 205 -34.5t156.5 -97t100.5 -148.5t36 -187v-507q0 -104 -36 -190.5t-100.5 -147t-156.5 -94t-205 -33.5q-115 0 -206 33.5t-155.5 96t-99.5 149.5t-35 192zM203 467q0 -104 34.5 -178t91 -122t128 -70.5 t143.5 -22.5q82 0 154.5 23.5t127 71.5t86 122t31.5 176v473q0 100 -32.5 175t-88 124t-127 72.5t-151.5 23.5q-82 0 -154.5 -23.5t-126 -72.5t-85 -124t-31.5 -175v-473z" />
<glyph unicode="&#x41f;" horiz-adv-x="1208" d="M106 0v1411h998v-1411h-100v1321h-799v-1321h-99z" />
<glyph unicode="&#x420;" horiz-adv-x="1103" d="M113 0v1411h553q98 0 171.5 -36t123 -93t73 -128.5t23.5 -145.5t-25.5 -145.5t-76 -129t-123 -92.5t-166.5 -35h-457v-606h-96zM209 698h438q63 0 119.5 20.5t98.5 60.5t66.5 97.5t24.5 131.5q0 72 -24.5 129t-66.5 98t-98 63.5t-120 22.5h-438v-623z" />
<glyph unicode="&#x421;" horiz-adv-x="1028" d="M104 459v499q0 102 36 188.5t101.5 148t156.5 96t202 34.5q106 0 195.5 -24.5t169.5 -79.5l-54 -80q-66 47 -145.5 70.5t-165.5 23.5q-74 0 -145.5 -22.5t-128 -70.5t-90 -123t-33.5 -179v-465q0 -104 34.5 -180t90 -125t125 -72.5t141.5 -23.5q180 0 321 100l52 -76 q-55 -41 -149.5 -76.5t-217.5 -35.5q-113 0 -205 34.5t-156.5 98t-99.5 149.5t-35 191z" />
<glyph unicode="&#x422;" horiz-adv-x="1050" d="M35 1319v92h979v-92h-439v-1319h-98v1319h-442z" />
<glyph unicode="&#x423;" horiz-adv-x="997" d="M27 1411h102l367 -954h6l366 954h101l-441 -1126q-35 -88 -68.5 -145.5t-70.5 -92.5t-79 -49t-93 -14h-76v94h60q61 0 110 30.5t90 127.5l43 102z" />
<glyph unicode="&#x424;" horiz-adv-x="1486" d="M109 643v203q0 100 36.5 193.5t109.5 164t182.5 113.5t256.5 47v61h97v-61q147 -2 256.5 -45t182.5 -114.5t109.5 -165t36.5 -193.5v-203q0 -104 -38 -197.5t-111.5 -165t-183 -115.5t-252.5 -46v-119h-97v119q-143 2 -252.5 46t-183.5 114.5t-111.5 165t-37.5 198.5z M207 647q0 -102 37 -183t101.5 -137.5t154.5 -87t194 -30.5v1063q-113 0 -203 -32t-153.5 -89t-97 -139t-33.5 -183v-182zM791 209q104 0 194 30.5t154.5 87t101.5 137.5t37 183v182q0 100 -34 182.5t-97.5 139.5t-153.5 89t-202 32v-1063z" />
<glyph unicode="&#x425;" horiz-adv-x="1026" d="M23 0l436 725l-406 686h115l344 -600l344 600h115l-406 -686l436 -725h-114l-375 637l-375 -637h-114z" />
<glyph unicode="&#x426;" horiz-adv-x="1251" d="M113 0v1411h96v-1323h799v1323h102v-1321h104v-391h-98v301h-1003z" />
<glyph unicode="&#x427;" horiz-adv-x="1116" d="M66 989v422h98v-397q0 -90 15.5 -159t52 -116t97 -71.5t152.5 -24.5q109 0 220.5 38t201.5 97v633h98v-1411h-98v678q-109 -68 -224.5 -96.5t-201.5 -28.5q-98 0 -174 23.5t-129 76t-80.5 135t-27.5 201.5z" />
<glyph unicode="&#x428;" horiz-adv-x="1841" d="M113 0v1411h98v-1323h659v1323h97v-1323h663v1323h99v-1411h-1616z" />
<glyph unicode="&#x429;" horiz-adv-x="1869" d="M113 0v1411h98v-1323h659v1323h97v-1323h661v1323h101v-1321h104v-391h-96v301h-1624z" />
<glyph unicode="&#x42a;" horiz-adv-x="1411" d="M12 1319v92h492v-643h444q102 0 179 -34t127.5 -87t75 -122.5t24.5 -139.5q0 -188 -116 -286.5t-306 -98.5h-526v1319h-394zM504 90h426q68 0 127 17.5t103 53.5t68.5 91t24.5 133q0 63 -22.5 116.5t-63.5 92.5t-102 61.5t-137 22.5h-424v-588z" />
<glyph unicode="&#x42b;" horiz-adv-x="1431" d="M117 0v1411h96v-643h446q102 0 178 -34t127.5 -87t76 -122.5t24.5 -139.5q0 -188 -117 -286.5t-307 -98.5h-524zM213 90h426q68 0 127 17.5t103 53.5t70 91t26 133q0 127 -86 210t-240 83h-426v-588zM1210 0v1411h99v-1411h-99z" />
<glyph unicode="&#x42c;" horiz-adv-x="1112" d="M117 0v1411h96v-643h446q102 0 178 -34t127.5 -87t76 -122.5t24.5 -139.5q0 -188 -117 -286.5t-307 -98.5h-524zM213 90h426q68 0 127 17.5t103 53.5t70 91t26 133q0 127 -86 210t-240 83h-426v-588z" />
<glyph unicode="&#x42d;" horiz-adv-x="1021" d="M35 98l51 78q143 -100 324 -100q80 0 152.5 24.5t127.5 75.5t88 127t33 180v205h-575v88h575v164q0 209 -101.5 302t-267.5 93q-86 0 -171 -24.5t-150 -71.5l-51 78q161 110 374 110q121 0 209 -32.5t144.5 -94t84 -148.5t27.5 -194v-491q0 -104 -34.5 -192.5t-100 -153 t-160 -100t-213.5 -35.5q-123 0 -216 35.5t-150 76.5z" />
<glyph unicode="&#x42e;" horiz-adv-x="1476" d="M117 0v1411h98v-649h217v196q0 102 30 188.5t89 148t147 96t203 34.5q113 0 200 -34.5t147.5 -97t92 -148.5t31.5 -187v-507q0 -104 -31.5 -190.5t-91 -147t-147.5 -94t-201 -33.5q-115 0 -202 33.5t-146 96t-90 149.5t-31 192v217h-217v-674h-98zM530 467 q0 -104 31 -178t82 -122t117.5 -70.5t140.5 -22.5q82 0 150.5 23.5t118 71.5t77 122t27.5 176v473q0 100 -28.5 175t-79 124t-118 72.5t-147.5 23.5q-82 0 -150.5 -23.5t-117.5 -72.5t-76 -124t-27 -175v-473z" />
<glyph unicode="&#x42f;" horiz-adv-x="1179" d="M78 0l123 422q27 88 63.5 148.5t114.5 88.5q-70 18 -119 53.5t-81 81.5t-46 100.5t-14 113.5q0 78 23.5 150.5t71.5 128.5t122 90t172 34h561v-1411h-98v635h-400q-43 0 -82.5 -10.5t-74.5 -36t-66 -69.5t-51 -113l-119 -406h-100zM215 1008q0 -74 25.5 -128.5t69.5 -89 t102.5 -52t124.5 -17.5h434v600h-451q-133 0 -219 -83t-86 -230z" />
<glyph unicode="&#x430;" horiz-adv-x="954" d="M66 272q0 80 32.5 135.5t81.5 89t108.5 49t114.5 15.5h365v101q0 270 -285 270q-72 0 -147.5 -20.5t-153.5 -73.5l-49 73q86 57 172 81t184 24q104 0 175 -23.5t114 -68.5t61.5 -107.5t18.5 -140.5v-676h-74l-16 125h-2q-74 -47 -132.5 -73.5t-104.5 -41t-82.5 -18.5 t-65.5 -4q-141 0 -228 71.5t-87 212.5zM162 272q0 -53 18.5 -91t50 -62.5t73.5 -36.5t89 -12q45 0 93.5 13t97.5 33.5t96 46t88 50.5v268h-330q-41 0 -89 -6t-90 -27.5t-69.5 -63.5t-27.5 -112z" />
<glyph unicode="&#x431;" horiz-adv-x="980" d="M92 354v258q0 80 4 156t16.5 146.5t37 135t65.5 124.5q43 61 111.5 104t145.5 77t156 61.5t142 58.5l35 -76q-78 -33 -126 -49.5t-99 -36.5q-109 -41 -179.5 -85t-113.5 -100.5t-63.5 -132t-33.5 -182.5q2 0 3.5 -1t3.5 -1q27 41 64.5 70.5t80.5 50t87 30t83 9.5 q180 0 277.5 -95.5t97.5 -263.5v-256q0 -86 -30 -153.5t-83 -115.5t-128 -73.5t-165 -25.5q-184 0 -286.5 100t-102.5 266zM186 373q0 -82 23.5 -139.5t64.5 -94.5t95.5 -53t115.5 -16q66 0 123.5 17t99.5 54t65.5 94.5t23.5 137.5v211q0 82 -22.5 139t-62.5 93t-95.5 52.5 t-118.5 16.5q-55 0 -110.5 -18.5t-99.5 -57.5t-73 -99.5t-29 -142.5v-194z" />
<glyph unicode="&#x432;" horiz-adv-x="950" d="M98 0v1006h453q80 0 136 -21.5t93 -56.5t54.5 -83t17.5 -100q0 -29 -7 -60.5t-24.5 -60t-47.5 -54t-75 -42.5q47 -18 80 -46.5t52.5 -62.5t28.5 -70.5t9 -67.5q0 -55 -19.5 -106.5t-57 -90.5t-94 -61.5t-130.5 -22.5h-469zM190 82h357q100 0 164.5 50.5t64.5 148.5 q0 45 -18.5 82.5t-49 65.5t-70.5 42t-85 14h-363v-403zM190 571h357q39 0 78 10.5t67.5 32t47 53t18.5 76.5q0 49 -18.5 83t-50.5 55.5t-71.5 31t-82.5 9.5h-345v-351z" />
<glyph unicode="&#x433;" horiz-adv-x="802" d="M100 0v1006h699v-86h-606v-920h-93z" />
<glyph unicode="&#x434;" horiz-adv-x="1097" d="M23 78h37.5t37.5 2q35 29 62.5 68.5t47 97t31 136.5t17.5 187q4 111 9 218.5t11 218.5h676v-926h78v-330h-86v250h-835v-250h-86v328zM221 80h641v844h-504l-18 -367q-10 -172 -35.5 -288.5t-83.5 -188.5z" />
<glyph unicode="&#x435;" horiz-adv-x="954" d="M100 354v285q0 86 29 155.5t81 120t125 77t159 26.5q84 0 153.5 -27.5t120.5 -77t78.5 -119t27.5 -151.5v-178h-681v-94q0 -84 26.5 -141.5t69.5 -93.5t98 -52t115 -16q84 0 151.5 28.5t120.5 79.5l57 -65q-63 -63 -147 -93t-186 -30q-86 0 -159 23.5t-126 69.5 t-83 114.5t-30 158.5zM193 545h589v86q0 82 -25.5 139t-66.5 94t-92 53.5t-104 16.5q-55 0 -109.5 -17.5t-96.5 -54.5t-68.5 -95t-26.5 -138v-84z" />
<glyph unicode="&#x436;" horiz-adv-x="1380" d="M45 0l98 330q23 76 54.5 129t103.5 69q-59 16 -91 67.5t-54 125.5l-93 287h93l96 -301q14 -47 36.5 -76t48 -45.5t54.5 -21.5t58 -5h196v449h90v-449h197q29 0 57.5 5t54 21.5t46 45t36.5 76.5l97 301h92l-90 -287q-23 -74 -54.5 -125t-91.5 -68q72 -16 103.5 -69 t54.5 -129l98 -330h-96l-92 317q-14 51 -33.5 82t-44.5 48.5t-55.5 23.5t-67.5 6h-211v-477h-90v477h-213q-37 0 -66.5 -6t-55 -23.5t-45 -48t-34.5 -82.5l-92 -317h-94z" />
<glyph unicode="&#x437;" horiz-adv-x="841" d="M27 92q12 16 26.5 33.5t28.5 34.5q53 -41 126 -65.5t152 -24.5q125 0 203 59t78 152q0 49 -18.5 85.5t-49 61.5t-69.5 38t-80 13h-139v78h139q33 0 69.5 12.5t67.5 36t50.5 59t19.5 83.5q0 49 -22.5 83.5t-57.5 57t-78 33t-86 10.5q-76 0 -145.5 -21.5t-118.5 -60.5 q-16 16 -29.5 32.5t-27.5 35.5q80 57 159.5 77.5t171.5 20.5q70 0 129.5 -18.5t103.5 -52.5t68.5 -82t24.5 -109q0 -66 -38 -133.5t-126 -98.5q51 -18 84 -47t52.5 -61.5t27.5 -67.5t8 -61q0 -66 -26.5 -120t-74.5 -93t-117 -59.5t-151 -20.5q-111 0 -192.5 27.5 t-142.5 72.5z" />
<glyph unicode="&#x438;" horiz-adv-x="995" d="M102 0v1004h91v-865h4l272 387l334 478h88v-1004h-90v860h-4q-68 -98 -135.5 -193.5t-137.5 -193.5q-84 -119 -166 -237.5t-165 -235.5h-91z" />
<glyph unicode="&#x439;" horiz-adv-x="995" d="M102 0v1004h91v-865h4l272 387l334 478h88v-1004h-90v860h-4q-68 -98 -135.5 -193.5t-137.5 -193.5q-84 -119 -166 -237.5t-165 -235.5h-91zM236 1380h79q12 -68 64.5 -108.5t118.5 -40.5q68 0 116 36t64 113h80q-6 -39 -23.5 -78.5t-48.5 -72.5t-78 -53.5t-110 -20.5 q-66 0 -113 20.5t-80 53.5t-49 72.5t-20 78.5z" />
<glyph unicode="&#x43a;" horiz-adv-x="966" d="M133 0v1008h92v-449h271q59 0 109 26.5t85 121.5l113 301h92l-107 -287q-27 -72 -56.5 -124t-88.5 -69q37 -8 60.5 -26.5t41 -44t30.5 -58t26 -69.5l114 -330h-96l-108 317q-16 49 -37 81t-45.5 49.5t-53 23.5t-65.5 6h-285v-477h-92z" />
<glyph unicode="&#x43b;" horiz-adv-x="972" d="M10 39q49 33 87 72t63.5 99t40 147t14.5 216v431h649v-1004h-92v922h-467v-381q0 -127 -17.5 -219.5t-50 -159t-78.5 -112.5t-104 -81z" />
<glyph unicode="&#x43c;" horiz-adv-x="1173" d="M102 0v1004h88l238 -439l162 -299l158 297l239 441h82v-1004h-92v807h-2l-166 -311l-184 -338h-72l-111 200l-243 449h-2v-807h-95z" />
<glyph unicode="&#x43d;" horiz-adv-x="997" d="M102 0v1004h93v-451h608v451h92v-1004h-92v469h-608v-469h-93z" />
<glyph unicode="&#x43e;" horiz-adv-x="980" d="M94 352v307q0 82 32 148.5t86 113t126 72t154 25.5q84 0 156.5 -25.5t125.5 -72t83 -113t30 -148.5v-305q0 -172 -108.5 -269t-289.5 -97q-88 0 -160.5 25.5t-124.5 73.5t-81 114.5t-29 150.5zM186 375q0 -84 26 -141.5t68 -93.5t97 -52t117 -16q61 0 115.5 17t96.5 54 t66.5 94.5t24.5 137.5v256q0 82 -28 139t-71 93t-97 52.5t-107 16.5q-55 0 -110.5 -16.5t-98.5 -52.5t-71 -93t-28 -139v-256z" />
<glyph unicode="&#x43f;" horiz-adv-x="989" d="M102 0v1006h787v-1006h-90v922h-606v-922h-91z" />
<glyph unicode="&#x440;" horiz-adv-x="983" d="M102 -416v1417h74l17 -131q74 45 131 75t103 45.5t82 21.5t64 6q147 0 232.5 -84t85.5 -258v-340q0 -170 -93 -260t-259 -90q-61 0 -142.5 16t-203.5 78v-496h-91zM193 174q113 -57 192.5 -79.5t144.5 -22.5q135 0 203 68.5t68 215.5v297q0 150 -61.5 213.5t-170.5 63.5 q-70 0 -172 -43t-204 -113v-600z" />
<glyph unicode="&#x441;" horiz-adv-x="839" d="M100 354v303q0 82 29 148.5t81 114t122.5 74t156.5 26.5q78 0 161 -21.5t145 -74.5l-58 -74q-59 47 -123.5 65.5t-115.5 18.5q-57 0 -111.5 -16.5t-97.5 -52.5t-68.5 -93t-25.5 -139v-256q0 -80 25.5 -137.5t68.5 -94t97 -53t110 -16.5q49 0 120.5 17.5t120.5 56.5 l56 -70q-63 -47 -143.5 -68.5t-157.5 -21.5q-90 0 -163 26.5t-124 75.5t-78 115.5t-27 146.5z" />
<glyph unicode="&#x442;" horiz-adv-x="831" d="M29 920v86h776v-86h-342v-920h-92v920h-342z" />
<glyph unicode="&#x443;" horiz-adv-x="876" d="M14 1004h97q41 -117 77.5 -234t77.5 -235l154 -455h2l166 455q43 119 86 235.5t84 233.5h96q-129 -356 -259 -705.5t-259 -704.5h-98l147 410l-57 59z" />
<glyph unicode="&#x444;" horiz-adv-x="1210" d="M94 393v236q0 84 32 158.5t92.5 130t147.5 87t195 31.5v373h90v-373q111 0 197 -31.5t146.5 -87t92 -130t31.5 -158.5v-232q0 -84 -33.5 -158.5t-95 -130t-147.5 -88t-191 -32.5v-406h-90v406q-106 0 -192 31.5t-147.5 87t-94.5 129t-33 157.5zM186 426 q0 -72 21.5 -135.5t66.5 -110.5t117 -74.5t170 -29.5v872q-102 -4 -174 -31.5t-117 -74.5t-64.5 -109.5t-19.5 -134.5v-172zM651 76q98 2 168 29.5t116 74.5t67.5 110.5t21.5 135.5v172q0 72 -21.5 135.5t-67.5 111.5t-115.5 75.5t-168.5 27.5v-872z" />
<glyph unicode="&#x445;" horiz-adv-x="821" d="M16 0l336 514l-319 492h112l261 -416l264 416h112l-323 -490l338 -516h-115l-276 438l-277 -438h-113z" />
<glyph unicode="&#x446;" horiz-adv-x="1019" d="M109 0v1006h88v-924h604v924h88v-926h78v-330h-88v250h-770z" />
<glyph unicode="&#x447;" horiz-adv-x="890" d="M55 698v308h90v-289q0 -250 242 -250q82 0 165 28.5t161 75.5v435h92v-1006h-92v477q-98 -59 -185.5 -78.5t-150.5 -19.5q-66 0 -123 17.5t-102.5 55t-71 98t-25.5 148.5z" />
<glyph unicode="&#x448;" horiz-adv-x="1488" d="M106 0v1004h91v-922h499v922h92v-922h502v922h90v-1004h-1274z" />
<glyph unicode="&#x449;" horiz-adv-x="1507" d="M119 0v1004h94v-922h496v922h92v-922h502v922h90v-924h80v-332h-89v252h-1265z" />
<glyph unicode="&#x44a;" horiz-adv-x="1110" d="M12 918v86h398v-445h340q84 0 144 -23.5t98 -62.5t55.5 -89t17.5 -103q0 -139 -89 -210t-245 -71h-412v918h-307zM410 84h329q109 0 171.5 48.5t62.5 148.5q0 84 -57.5 140t-174.5 56h-331v-393z" />
<glyph unicode="&#x44b;" horiz-adv-x="1148" d="M102 0v1006h91v-447h339q86 0 145.5 -23.5t98.5 -62.5t56.5 -89t17.5 -103q0 -139 -90 -210t-244 -71h-414zM193 84h329q111 0 172.5 48.5t61.5 148.5q0 84 -56.5 140t-175.5 56h-331v-393zM956 0v1004h91v-1004h-91z" />
<glyph unicode="&#x44c;" horiz-adv-x="886" d="M102 0v1006h91v-447h339q86 0 145.5 -23.5t98.5 -62.5t56.5 -89t17.5 -103q0 -139 -90 -210t-244 -71h-414zM193 84h329q111 0 172.5 48.5t61.5 148.5q0 84 -56.5 140t-175.5 56h-331v-393z" />
<glyph unicode="&#x44d;" horiz-adv-x="821" d="M35 80l51 74q57 -45 127 -61.5t119 -16.5q59 0 113.5 16.5t96.5 52t67.5 93t25.5 137.5v102h-438v84h438v80q0 164 -74 228.5t-201 64.5q-25 0 -57.5 -5t-66 -15.5t-66.5 -26t-59 -35.5l-58 68q68 53 154 76.5t164 23.5q184 0 271 -96.5t87 -253.5v-312 q0 -82 -27.5 -149.5t-78 -116.5t-123 -75.5t-162.5 -26.5q-78 0 -160 19.5t-143 70.5z" />
<glyph unicode="&#x44e;" horiz-adv-x="1198" d="M98 0v1004h92v-453h164v108q0 82 29 148.5t79 113t118.5 72t150.5 25.5q170 0 272.5 -96.5t102.5 -262.5v-305q0 -172 -98.5 -269t-278.5 -97q-178 0 -276.5 99t-98.5 265v117h-164v-469h-92zM446 375q0 -84 23 -141.5t60.5 -93.5t90 -52t113.5 -16t112.5 17t89.5 54 t59.5 94.5t21.5 137.5v256q0 82 -23.5 139t-63.5 93t-91.5 52.5t-104.5 16.5q-55 0 -107.5 -16.5t-92 -52.5t-63.5 -93t-24 -139v-256z" />
<glyph unicode="&#x44f;" horiz-adv-x="935" d="M55 0l84 299q16 59 44 104.5t85 67.5q-92 27 -138 95.5t-46 152.5q0 57 19.5 109.5t57.5 92.5t95 63.5t133 23.5h449v-1008h-90v444h-332q-66 -2 -114 -33.5t-73 -121.5l-79 -289h-95zM174 719q0 -49 17.5 -85t48 -60.5t70.5 -36t85 -11.5h353v396h-353q-45 0 -85 -12.5 t-70.5 -37t-48 -63.5t-17.5 -90z" />
<glyph unicode="&#x451;" horiz-adv-x="954" d="M100 354v285q0 86 29 155.5t81 120t125 77t159 26.5q84 0 153.5 -27.5t120.5 -77t78.5 -119t27.5 -151.5v-178h-681v-94q0 -84 26.5 -141.5t69.5 -93.5t98 -52t115 -16q84 0 151.5 28.5t120.5 79.5l57 -65q-63 -63 -147 -93t-186 -30q-86 0 -159 23.5t-126 69.5 t-83 114.5t-30 158.5zM193 545h589v86q0 82 -25.5 139t-66.5 94t-92 53.5t-104 16.5q-55 0 -109.5 -17.5t-96.5 -54.5t-68.5 -95t-26.5 -138v-84zM254 1335q0 29 19.5 47.5t43.5 18.5q29 0 48.5 -18.5t19.5 -47.5q0 -27 -19.5 -46t-48.5 -19q-25 0 -44 19.5t-19 45.5z M598 1335q0 29 19.5 47.5t46.5 18.5q29 0 47 -18.5t18 -47.5q0 -27 -18.5 -46t-46.5 -19q-27 0 -46.5 19.5t-19.5 45.5z" />
<glyph unicode="&#x452;" horiz-adv-x="1003" d="M8 1186v78h109v202h92v-202h479v-78h-479v-328q141 90 234.5 122t156.5 32q307 0 307 -344v-437q0 -176 -108.5 -271t-288.5 -95v86q68 0 124 16.5t97 52t63.5 93t22.5 137.5l-2 393q0 150 -57.5 214.5t-171.5 64.5q-37 0 -83 -12.5t-95.5 -34t-100.5 -49t-98 -58.5v-768 h-92v1186h-109z" />
<glyph unicode="&#x453;" horiz-adv-x="802" d="M100 0v1006h699v-86h-606v-920h-93zM362 1178l160 315l101 -39l-205 -301z" />
<glyph unicode="&#x454;" horiz-adv-x="827" d="M94 354v303q0 82 29 148.5t79 114t121.5 74t157.5 26.5q78 0 161 -21.5t144 -74.5l-57 -74q-59 47 -123.5 65.5t-116.5 18.5q-59 0 -113 -16.5t-96 -52.5t-68 -93t-26 -139v-78h412v-82h-412v-96q0 -80 26 -137.5t68 -94t96 -53t111 -16.5q25 0 58 4t65.5 13t64.5 23.5 t56 33.5l53 -70q-61 -47 -142 -68.5t-159 -21.5q-92 0 -164.5 26.5t-122 75.5t-76 115.5t-26.5 146.5z" />
<glyph unicode="&#x455;" horiz-adv-x="899" d="M78 94l49 72q76 -53 158 -78t180 -25q45 0 94 10.5t88 35t64.5 64.5t25.5 99q0 86 -67.5 130t-227.5 71q-61 10 -122.5 25.5t-111.5 43t-82 74t-32 117.5q0 125 93.5 205t252.5 80q104 0 186.5 -19.5t151.5 -66.5l-47 -70q-127 76 -285 76q-119 0 -190.5 -55.5 t-71.5 -149.5q0 -43 21.5 -73.5t59.5 -51t90.5 -34t113.5 -23.5t125.5 -25.5t117 -45t85 -80t32.5 -132.5q0 -123 -96 -201.5t-272 -78.5q-98 0 -194.5 20.5t-188.5 85.5z" />
<glyph unicode="&#x456;" horiz-adv-x="378" d="M123 1337q0 29 19.5 47.5t45.5 18.5q29 0 48.5 -18.5t19.5 -47.5t-19.5 -48t-48.5 -19q-27 0 -46 19.5t-19 47.5zM143 0v1006h90v-1006h-90z" />
<glyph unicode="&#x457;" horiz-adv-x="419" d="M-27 1331q0 29 19.5 47.5t44.5 18.5q29 0 48 -18.5t19 -47.5q0 -27 -19 -46t-48 -19q-25 0 -44.5 19.5t-19.5 45.5zM164 0v1006h90v-1006h-90zM317 1331q0 29 19.5 47.5t46.5 18.5q29 0 47.5 -18.5t18.5 -47.5q0 -27 -18.5 -46t-47.5 -19q-27 0 -46.5 19.5t-19.5 45.5z " />
<glyph unicode="&#x458;" horiz-adv-x="450" d="M-18 -344h63q82 0 115 39t33 143v1168h92v-1184q0 -131 -55.5 -190.5t-172.5 -59.5h-75v84zM174 1337q0 29 19.5 47.5t46.5 18.5q29 0 48 -18.5t19 -47.5t-19.5 -48t-47.5 -19q-27 0 -46.5 19.5t-19.5 47.5z" />
<glyph unicode="&#x459;" horiz-adv-x="1456" d="M14 39q49 33 88 74t66 100t41 145t14 207v441h525v-447h339q86 0 145.5 -23.5t98.5 -62.5t56.5 -89t17.5 -103q0 -139 -90 -210t-244 -71h-416v922h-346v-383q0 -121 -16.5 -211t-48 -158t-78.5 -116t-107 -83zM748 84h329q111 0 172.5 48.5t61.5 148.5q0 84 -56.5 140 t-175.5 56h-331v-393z" />
<glyph unicode="&#x45a;" horiz-adv-x="1468" d="M111 0v1006h90v-449h475v449h90v-447h342q84 0 144.5 -23.5t98.5 -62.5t55 -89t17 -103q0 -139 -89 -210t-242 -71h-416v477h-475v-477h-90zM766 84h332q109 0 171 48.5t62 148.5q0 84 -57 140t-174 56h-334v-393z" />
<glyph unicode="&#x45b;" horiz-adv-x="1003" d="M8 1186v78h109v202h92v-202h479v-78h-479v-328q141 90 234.5 122t156.5 32q307 0 307 -344v-668h-92v643q0 150 -57.5 214.5t-171.5 64.5q-37 0 -83 -12.5t-95.5 -34t-100.5 -49t-98 -58.5v-768h-92v1186h-109z" />
<glyph unicode="&#x45c;" horiz-adv-x="966" d="M133 0v1008h92v-449h271q59 0 109 26.5t85 121.5l113 301h92l-107 -287q-27 -72 -56.5 -124t-88.5 -69q37 -8 60.5 -26.5t41 -44t30.5 -58t26 -69.5l114 -330h-96l-108 317q-16 49 -37 81t-45.5 49.5t-53 23.5t-65.5 6h-285v-477h-92zM418 1178l160 315l100 -39 l-205 -301z" />
<glyph unicode="&#x45e;" horiz-adv-x="876" d="M14 1004h97q41 -117 77.5 -234t77.5 -235l154 -455h2l166 455q43 119 86 235.5t84 233.5h96q-129 -356 -259 -705.5t-259 -704.5h-98l147 410l-57 59zM176 1380h80q12 -68 64.5 -108.5t117.5 -40.5q68 0 116 36t64 113h80q-6 -39 -23.5 -78.5t-48 -72.5t-77.5 -53.5 t-111 -20.5q-66 0 -112.5 20.5t-79.5 53.5t-49.5 72.5t-20.5 78.5z" />
<glyph unicode="&#x45f;" horiz-adv-x="993" d="M102 0v1004h91v-922h608v922h92v-1004h-361v-256h-94v256h-336z" />
<glyph unicode="&#x490;" horiz-adv-x="1038" d="M123 0v1411h807v238h96v-328h-807v-1321h-96z" />
<glyph unicode="&#x491;" horiz-adv-x="794" d="M92 0v1006h608v206h97v-292h-611v-920h-94z" />
<glyph unicode="&#x4d9;" horiz-adv-x="954" d="M98 350v189h680v96q0 84 -23.5 141.5t-63.5 93t-92 51t-112 15.5q-86 0 -159.5 -27.5t-126.5 -79.5l-56 64q68 66 154 95.5t190 29.5q86 0 156 -23.5t121 -69.5t78.5 -116t27.5 -160v-284q0 -86 -29.5 -156t-81.5 -119t-124 -75.5t-158 -26.5q-84 0 -154.5 25.5 t-120.5 72.5t-78 113.5t-28 150.5zM190 375q0 -84 25 -141.5t66 -94.5t93 -53t105 -16q55 0 108.5 17t96.5 55t68.5 96.5t25.5 138.5v84h-588v-86z" />
<glyph unicode="&#x2000;" horiz-adv-x="881" />
<glyph unicode="&#x2001;" horiz-adv-x="1763" />
<glyph unicode="&#x2002;" horiz-adv-x="881" />
<glyph unicode="&#x2003;" horiz-adv-x="1763" />
<glyph unicode="&#x2004;" horiz-adv-x="587" />
<glyph unicode="&#x2005;" horiz-adv-x="440" />
<glyph unicode="&#x2006;" horiz-adv-x="293" />
<glyph unicode="&#x2007;" horiz-adv-x="293" />
<glyph unicode="&#x2008;" horiz-adv-x="220" />
<glyph unicode="&#x2009;" horiz-adv-x="352" />
<glyph unicode="&#x200a;" horiz-adv-x="97" />
<glyph unicode="&#x2010;" horiz-adv-x="757" d="M109 502v88h540v-88h-540z" />
<glyph unicode="&#x2011;" horiz-adv-x="757" d="M109 502v88h540v-88h-540z" />
<glyph unicode="&#x2012;" horiz-adv-x="757" d="M109 502v88h540v-88h-540z" />
<glyph unicode="&#x2013;" horiz-adv-x="1009" d="M41 498v88h928v-88h-928z" />
<glyph unicode="&#x2014;" horiz-adv-x="2033" d="M41 498v88h1952v-88h-1952z" />
<glyph unicode="&#x2018;" horiz-adv-x="454" d="M147 1227q0 70 43 133t103 94l33 -41q-82 -59 -84 -147h8q35 0 55.5 -20.5t20.5 -55.5t-25 -56.5t-59 -21.5q-43 0 -69 32t-26 83z" />
<glyph unicode="&#x2019;" horiz-adv-x="454" d="M156 1155q78 59 82 148q-35 -2 -58.5 18t-23.5 57q0 35 23.5 56.5t58.5 21.5q45 0 69.5 -31.5t24.5 -83.5q0 -70 -43 -133t-103 -94z" />
<glyph unicode="&#x201a;" horiz-adv-x="409" d="M123 68q0 33 24.5 54t59.5 21q43 0 67.5 -31.5t24.5 -80.5q0 -72 -42 -135.5t-101 -94.5l-33 41q80 59 84 148q-84 -4 -84 78z" />
<glyph unicode="&#x201c;" horiz-adv-x="684" d="M135 1227q0 70 42 133t104 94l30 -41q-80 -59 -82 -147h9q33 0 53 -20.5t20 -55.5t-23.5 -56.5t-58.5 -21.5q-45 0 -69.5 32t-24.5 83zM385 1227q0 70 42 133t103 94q8 -10 14.5 -20.5t16.5 -20.5q-78 -57 -82 -147h8q33 0 53.5 -20.5t20.5 -55.5t-23.5 -56.5 t-58.5 -21.5q-45 0 -69.5 32t-24.5 83z" />
<glyph unicode="&#x201d;" horiz-adv-x="684" d="M143 1155q78 59 82 148q-35 -2 -58.5 18t-23.5 57q0 35 23.5 56.5t58.5 21.5q45 0 69.5 -31.5t24.5 -83.5q0 -70 -41.5 -133t-103.5 -94zM393 1155q78 59 82 148q-35 -2 -58.5 18t-23.5 57q0 35 23.5 56.5t58.5 21.5q45 0 69.5 -31.5t24.5 -83.5q0 -70 -43 -133t-102 -94 z" />
<glyph unicode="&#x201e;" horiz-adv-x="698" d="M127 68q0 33 24.5 54t59.5 21q43 0 67.5 -31.5t24.5 -80.5q0 -72 -42 -135.5t-101 -94.5l-33 41q80 59 84 148q-84 -4 -84 78zM410 68q0 33 24.5 54t59.5 21q45 0 69.5 -31.5t24.5 -80.5q0 -72 -43 -135.5t-103 -94.5l-30 41q78 59 82 148q-39 -2 -61.5 17.5t-22.5 60.5z " />
<glyph unicode="&#x2026;" horiz-adv-x="1312" d="M119 74q0 29 21.5 52.5t58.5 23.5q35 0 59.5 -24t24.5 -52q0 -35 -23.5 -59.5t-58.5 -24.5q-39 0 -60.5 23.5t-21.5 60.5zM575 74q0 29 23 52.5t59 23.5q35 0 59.5 -24t24.5 -52q0 -35 -23.5 -59.5t-58.5 -24.5q-39 0 -61.5 23.5t-22.5 60.5zM1040 74q0 29 22.5 52.5 t59.5 23.5q35 0 59.5 -24t24.5 -52q0 -35 -22.5 -59.5t-59.5 -24.5t-60.5 23.5t-23.5 60.5z" />
<glyph unicode="&#x202f;" horiz-adv-x="352" />
<glyph unicode="&#x2039;" horiz-adv-x="565" d="M129 449l242 352h90l-234 -352l234 -355h-92z" />
<glyph unicode="&#x203a;" horiz-adv-x="565" d="M129 94l233 355l-233 352h90l242 -352l-240 -355h-92z" />
<glyph unicode="&#x205f;" horiz-adv-x="440" />
<glyph unicode="&#x20ac;" d="M33 578v71h809v-71h-600v-103q0 -104 33.5 -179t88 -124t125 -72.5t144.5 -23.5q76 0 146.5 17.5t131.5 51.5l43 -77q-57 -35 -136 -58.5t-181 -23.5q-117 0 -209 35.5t-155.5 99t-96.5 150.5t-33 192v115h-110zM33 782v74h110v100q0 102 35 188.5t99.5 149t155.5 97 t204 34.5q92 0 170 -17t149 -58l-45 -82q-61 33 -131.5 50t-142.5 17q-78 0 -148.5 -22.5t-126 -70.5t-88 -123t-32.5 -179v-84h600v-74h-809z" />
<glyph unicode="&#x2122;" horiz-adv-x="1654" d="M76 1354v71h590v-71h-258v-748h-72v748h-260zM776 606v817h80l295 -620l293 620h76v-817h-70v684l-276 -583h-48l-280 583v-684h-70z" />
<glyph unicode="&#xe000;" horiz-adv-x="1003" d="M0 0v1004h1004v-1004h-1004z" />
</font>
</defs>
</svg>
