<?xml version="1.0" standalone="no"?>
<!DOCTYPE svg PUBLIC "-//W3C//DTD SVG 1.1//EN" "http://www.w3.org/Graphics/SVG/1.1/DTD/svg11.dtd" >
<svg xmlns="http://www.w3.org/2000/svg">
<metadata></metadata>
<defs>
<font id="PFDinTextCompProMediumRegular" horiz-adv-x="829" >
<font-face units-per-em="2048" ascent="1536" descent="-512" />
<missing-glyph horiz-adv-x="419" />
<glyph horiz-adv-x="0" />
<glyph horiz-adv-x="2048" />
<glyph unicode=" "  horiz-adv-x="419" />
<glyph unicode="&#x09;" horiz-adv-x="419" />
<glyph unicode="&#xa0;" horiz-adv-x="419" />
<glyph unicode="!" horiz-adv-x="516" d="M147 1425h220l-17 -1036h-184zM152 0v223h213v-223h-213z" />
<glyph unicode="&#x22;" horiz-adv-x="573" d="M80 1004v421h156v-421h-156zM340 1004v421h158v-421h-158z" />
<glyph unicode="#" d="M10 442v152h144l47 256h-115v151h141l78 429h156l-80 -429h162l78 429h153l-80 -429h119v-151h-145l-45 -256h118v-152h-147l-80 -442h-154l80 442h-161l-78 -442h-156l82 442h-117zM307 594h162l47 256h-162z" />
<glyph unicode="$" d="M63 334l222 43q4 -155 96 -176v436q-79 34 -134.5 70t-89 71.5t-52.5 80t-25 87t-6 101.5q0 166 76 269t231 120v149h76v-147q86 -4 150 -36.5t97 -83.5t48.5 -104.5t15.5 -111.5l-217 -51q0 154 -94 172v-379q81 -37 135.5 -71.5t89.5 -70.5t53.5 -82t25.5 -94.5 t7 -119.5q0 -94 -16 -165.5t-51 -128t-96.5 -87.5t-147.5 -35v-170h-76v170q-159 7 -238.5 102t-79.5 242zM293 1049q0 -62 15.5 -97t72.5 -69v338q-88 -27 -88 -172zM457 201q31 6 51 24t28.5 48.5t11.5 59t3 70.5q0 82 -18.5 122t-75.5 75v-399z" />
<glyph unicode="%" horiz-adv-x="1290" d="M55 754v493q0 88 60.5 138.5t150.5 50.5q93 0 152 -50t59 -139v-493q0 -88 -60 -137.5t-151 -49.5t-151 49.5t-60 137.5zM213 762q0 -20 14 -34.5t39 -14.5q22 0 35.5 14.5t13.5 34.5v477q0 20 -13.5 34.5t-37.5 14.5t-37.5 -14.5t-13.5 -34.5v-477zM254 -35l643 1497 h135l-643 -1497h-135zM811 180v494q0 88 60.5 138t150.5 50q93 0 152 -50t59 -138v-494q0 -88 -59.5 -137t-151.5 -49t-151.5 49t-59.5 137zM969 188q0 -20 14 -34.5t39 -14.5q22 0 35.5 14.5t13.5 34.5v478q0 20 -13.5 34.5t-37.5 14.5t-37.5 -14.5t-13.5 -34.5v-478z" />
<glyph unicode="&#x26;" horiz-adv-x="983" d="M84 362q0 118 49 214t146 188l-37 65q-80 148 -80 287q0 137 80.5 228.5t210.5 91.5q116 0 194.5 -45.5t124.5 -147.5l-182 -92q-36 90 -123 90q-52 0 -76 -37.5t-24 -89.5q0 -80 86 -242l227 -403q24 73 27 176h192q-2 -94 -25.5 -195.5t-64.5 -179.5l156 -270h-244 l-53 92q-58 -61 -125 -82.5t-152 -21.5q-136 0 -221.5 103t-85.5 271zM291 371q0 -79 37 -133t100 -54q40 0 79 19t66 51l-192 332q-46 -58 -68 -108t-22 -107z" />
<glyph unicode="'" horiz-adv-x="380" d="M117 1004v421h157v-421h-157z" />
<glyph unicode="(" horiz-adv-x="518" d="M94 627q0 445 277 850l127 -62q-97 -170 -152 -378t-55 -402q0 -208 54.5 -418.5t148.5 -374.5l-111 -71q-289 416 -289 856z" />
<glyph unicode=")" horiz-adv-x="518" d="M94 1415l125 62q279 -409 279 -850q0 -437 -291 -856l-109 71q93 171 148 379t55 414q0 193 -55.5 399t-151.5 381z" />
<glyph unicode="*" horiz-adv-x="763" d="M49 1122l49 142l217 -90l-20 249h154l-21 -247l215 88l51 -142l-231 -61l160 -195l-125 -86l-125 209l-129 -211l-123 88l155 195z" />
<glyph unicode="+" d="M29 518v176h299v324h172v-324h299v-176h-299v-321h-172v321h-299z" />
<glyph unicode="," horiz-adv-x="438" d="M98 -281l60 269h-54v258h230v-252l-113 -275h-123z" />
<glyph unicode="-" horiz-adv-x="747" d="M100 479v193h570v-193h-570z" />
<glyph unicode="." horiz-adv-x="432" d="M100 0v248h230v-248h-230z" />
<glyph unicode="/" horiz-adv-x="559" d="M6 -86l381 1571h166l-381 -1571h-166z" />
<glyph unicode="0" d="M109 289v844q0 141 88.5 223t222.5 82q139 0 224 -80.5t85 -224.5v-844q0 -140 -88 -220.5t-221 -80.5q-134 0 -222.5 80.5t-88.5 220.5zM326 281q0 -41 26 -64.5t68 -23.5q39 0 64.5 24t25.5 64v860q0 40 -25.5 64t-64.5 24q-42 0 -68 -23.5t-26 -64.5v-860z" />
<glyph unicode="1" d="M209 1022v238l207 165h207v-1425h-220v1178z" />
<glyph unicode="2" d="M94 1055q0 181 87.5 282t236.5 101q317 0 317 -336q1 -89 -19 -162.5t-65 -163.5l-289 -567h359v-209h-615v193q70 131 194 371t167 323q27 49 35 98t8 117q0 127 -94 127q-105 -3 -105 -199z" />
<glyph unicode="3" d="M84 352l219 27q-19 -184 100 -184q43 0 72 28.5t29 91.5v193q0 70 -31.5 101.5t-93.5 31.5h-62v188h72q61 0 91 29.5t30 95.5v158q0 115 -90 115q-111 0 -111 -183l-217 29q5 167 95 266t243 99q80 0 140 -26.5t93.5 -71.5t49.5 -98.5t16 -115.5v-112q0 -49 -3.5 -82 t-14 -72t-35.5 -68t-64 -49v-10q67 -30 92 -88.5t25 -146.5l-2 -164q0 -167 -88 -256.5t-240 -89.5q-170 0 -248 93.5t-67 270.5z" />
<glyph unicode="4" d="M47 213v186l303 1026h215l-295 -1007h195v323h215v-323h90v-205h-90v-213h-215v213h-418z" />
<glyph unicode="5" d="M96 336l213 35v-29q0 -79 24.5 -113t78.5 -34q88 0 96 118v338q0 88 -88 88q-78 0 -109 -75h-184v761h594v-202h-393v-344l2 -1q2 -1 6 -1q25 27 66 41t83 14q125 0 184.5 -69.5t59.5 -186.5v-295q0 -202 -78 -297.5t-243 -95.5q-158 0 -235 90t-77 258z" />
<glyph unicode="6" d="M111 283v182q0 170 41 276l262 684h231l-231 -606l8 -8q39 25 90 25q103 0 162 -68t59 -205v-250q0 -146 -80.5 -235.5t-234.5 -89.5q-141 0 -224 80t-83 215zM328 279q0 -40 26 -62t66 -22q42 0 68 22t26 62v292q0 40 -26 62t-66 22q-45 0 -69.5 -29t-24.5 -73v-274z " />
<glyph unicode="7" d="M104 1069v356h629v-186l-360 -1239h-217l348 1223h-205v-154h-195z" />
<glyph unicode="8" d="M104 322v102q0 120 22 197t91 122q-32 14 -55.5 42t-34.5 61.5t-16 62t-5 54.5v163q0 141 85 226.5t225 85.5q149 0 229 -85.5t80 -246.5v-105q0 -190 -109 -251q0 -2 2 -2q70 -45 89.5 -112t19.5 -187v-123q0 -169 -85 -253.5t-224 -84.5q-158 0 -236 91t-78 243z M322 281q0 -38 27.5 -63t66.5 -25q41 0 66.5 24.5t25.5 63.5v270q0 113 -92 113q-50 0 -72 -32t-22 -81v-270zM322 920q0 -38 27.5 -62t66.5 -24q41 0 66.5 24t25.5 62v204q0 48 -22.5 77.5t-69.5 29.5q-38 0 -66 -24.5t-28 -61.5v-225z" />
<glyph unicode="9" d="M104 864v248q0 146 80.5 236t237.5 90q149 0 228 -78.5t79 -216.5v-182q0 -162 -41 -277l-262 -684h-233l231 606l-8 8q-38 -24 -90 -24q-106 0 -164 64t-58 210zM324 854q0 -40 26 -63t68 -23q45 0 68.5 30t23.5 74v275q0 40 -25 62t-67 22q-40 0 -67 -22t-27 -62v-293z " />
<glyph unicode=":" horiz-adv-x="432" d="M100 0v248h230v-248h-230zM100 571v248h230v-248h-230z" />
<glyph unicode=";" horiz-adv-x="438" d="M98 -281l60 269h-54v258h230v-252l-113 -275h-123zM104 571v248h230v-248h-230z" />
<glyph unicode="&#x3c;" d="M31 537v147l766 383v-203l-555 -254l553 -252v-204z" />
<glyph unicode="=" d="M29 352v178h770v-178h-770zM29 692v178h770v-178h-770z" />
<glyph unicode="&#x3e;" d="M33 864v203l766 -383v-147l-762 -383v204l551 252z" />
<glyph unicode="?" horiz-adv-x="806" d="M63 1073q4 178 98.5 271.5t252.5 93.5q177 0 259.5 -92t82.5 -273q0 -101 -15.5 -156t-60.5 -135l-98 -172q-35 -53 -35 -125v-108h-217v164q0 80 51 161q104 173 125.5 224.5t21.5 142.5q0 35 -9.5 68t-39 61.5t-73.5 28.5q-55 0 -90 -43t-35 -135zM332 0v223h211v-223 h-211z" />
<glyph unicode="@" horiz-adv-x="1601" d="M123 688q0 168 46.5 309t134 244t220.5 161t299 58q162 0 289.5 -52.5t207 -145t120.5 -214.5t41 -266q0 -134 -30.5 -234.5t-83.5 -158.5t-118 -85.5t-141 -27.5q-24 0 -59 11t-73.5 39t-53.5 67h-4q-31 -48 -88.5 -75t-120.5 -27q-56 0 -96 20t-61.5 55.5t-31.5 77 t-10 91.5q0 70 24 127t82 96t144 39h106v82q0 40 -19.5 61t-64.5 21q-29 0 -53.5 -19.5t-34.5 -60.5l-164 49q26 94 96.5 146t170.5 52q124 0 188 -56.5t64 -186.5v-350q0 -47 23.5 -74t55.5 -27q38 0 68.5 14.5t58 50.5t43 107.5t15.5 175.5q0 240 -129 381.5t-355 141.5 q-138 0 -244 -49t-170 -135t-96 -195.5t-32 -237.5q0 -298 140 -465.5t396 -167.5q101 0 178.5 19t167.5 71l66 -143q-212 -100 -401 -100q-333 0 -522 198.5t-189 587.5zM690 547q0 -43 23 -67.5t65 -24.5q41 0 64.5 28t23.5 76v103h-73q-103 0 -103 -115z" />
<glyph unicode="A" horiz-adv-x="864" d="M23 0l286 1425h246l289 -1425h-226l-55 297h-262q-41 -221 -53 -297h-225zM334 504h194l-92 592h-10q-39 -285 -92 -592z" />
<glyph unicode="B" horiz-adv-x="880" d="M106 0v1425h312q186 0 272 -97t86 -290q0 -217 -151 -282v-11q163 -53 163 -313q0 -222 -95 -327t-292 -105h-295zM328 207h88q51 0 84.5 18.5t49.5 54.5t22 75.5t6 95.5q0 102 -38 150t-128 48h-84v-442zM328 850h71q166 0 166 184q0 99 -39 142t-129 43h-69v-369z" />
<glyph unicode="C" horiz-adv-x="831" d="M94 338v711q0 83 18.5 151t57.5 123t107.5 85t162.5 30q170 0 254 -90t84 -240l-215 -55q0 82 -31 129t-94 47q-37 0 -63 -16t-39 -43t-18 -53.5t-5 -57.5v-723q0 -24 5 -46t17 -44.5t37 -36.5t60 -14q122 0 125 176q58 -11 221 -33q-5 -165 -91.5 -257.5t-248.5 -92.5 q-344 0 -344 350z" />
<glyph unicode="D" horiz-adv-x="890" d="M106 0v1425h355q130 0 202 -44.5t101 -147.5q9 -29 14.5 -64.5t7.5 -97.5t2 -95v-49v-81v-131v-95v-93t-0.5 -76.5t-2.5 -76.5t-5 -59.5t-8 -59t-12 -44.5q-66 -211 -318 -211h-336zM328 209h94q79 0 111 41t32 127v674q0 84 -31.5 125t-111.5 41h-94v-1008z" />
<glyph unicode="E" horiz-adv-x="778" d="M106 0v1425h633v-208h-411v-388h358v-211h-358v-409h411v-209h-633z" />
<glyph unicode="F" horiz-adv-x="778" d="M106 0v1425h633v-208h-411v-388h358v-211h-358v-618h-222z" />
<glyph unicode="G" horiz-adv-x="874" d="M104 338v711q0 83 19.5 151.5t59 122.5t108 84.5t160.5 30.5q168 0 252.5 -87t84.5 -239v-16l-215 -43q0 82 -30.5 129t-93.5 47q-37 0 -63 -16t-39 -43t-18 -53.5t-5 -57.5v-723q0 -22 6 -43q16 -98 112 -98q60 0 95.5 30t35.5 84v281h-131v192h351v-454 q0 -164 -93 -252t-251 -88q-345 0 -345 350z" />
<glyph unicode="H" horiz-adv-x="907" d="M106 0v1425h220v-596h256v596h219v-1425h-219v623h-256v-623h-220z" />
<glyph unicode="I" horiz-adv-x="444" d="M111 0v1425h223v-1425h-223z" />
<glyph unicode="J" horiz-adv-x="751" d="M-10 150l164 126q23 -35 60.5 -58t70.5 -23q64 0 95.5 43t31.5 108v1079h221v-1071q0 -178 -88 -272t-258 -94q-196 0 -297 162z" />
<glyph unicode="K" horiz-adv-x="880" d="M106 0v1425h220v-575h10l268 575h230l-287 -577l327 -848h-225l-229 614q-78 -165 -94 -198v-416h-220z" />
<glyph unicode="L" horiz-adv-x="735" d="M106 0v1425h222v-1216h395v-209h-617z" />
<glyph unicode="M" horiz-adv-x="1173" d="M100 0v1425h213l156 -405l113 -309h10l115 317l153 397h213v-1425h-221v821h-8l-90 -254l-101 -256h-133l-102 264l-88 250h-11v-825h-219z" />
<glyph unicode="N" horiz-adv-x="954" d="M100 0v1425h199l172 -424q37 -100 84 -208l72 -197q3 0 5 1t5 1v827h217v-1425h-195l-172 422q-127 320 -159 407h-9v-829h-219z" />
<glyph unicode="O" horiz-adv-x="880" d="M94 342v717q0 177 84 278t262 101q188 0 267 -95t79 -282v-696q0 -188 -85 -282.5t-263 -94.5q-177 0 -260.5 89.5t-83.5 264.5zM315 338q0 -62 30 -102.5t93 -40.5q64 0 94.5 43t30.5 114v725q0 154 -123 154q-37 0 -63 -16.5t-39 -44.5t-18 -56t-5 -59v-717z" />
<glyph unicode="P" horiz-adv-x="843" d="M106 0v1425h316q197 0 288 -103t91 -329q0 -104 -19 -182.5t-62 -139.5t-119 -92.5t-183 -31.5h-90v-547h-222zM328 758h78q100 0 141 56t41 177q0 111 -40 168.5t-138 57.5h-82v-459z" />
<glyph unicode="Q" horiz-adv-x="880" d="M96 342v717q0 177 84 278t262 101q188 0 267 -95t79 -282v-696q0 -113 -30 -189l121 -96l-105 -127l-115 92q-68 -57 -217 -57q-346 0 -346 354zM317 338q0 -62 30 -103.5t93 -41.5q23 0 35 6l-72 59l99 123l63 -51v712q0 47 -2 72q-10 117 -121 117q-59 0 -88.5 -38.5 t-34.5 -100.5q-2 -39 -2 -105v-649z" />
<glyph unicode="R" horiz-adv-x="880" d="M106 0v1425h326q371 0 371 -413q0 -141 -39.5 -232t-132.5 -143l211 -637h-226l-184 590h-104v-590h-222zM328 799h90q87 0 127.5 50.5t40.5 160.5q0 207 -172 207h-86v-418z" />
<glyph unicode="S" horiz-adv-x="841" d="M72 334l219 43q5 -89 33.5 -134.5t101.5 -45.5q36 0 61 12t38.5 29.5t21 47t9 54.5t1.5 63q0 105 -29 145t-133 85q-81 34 -138 70.5t-91 73t-53 82t-25 88t-6 100.5q0 180 87.5 285.5t264.5 105.5q77 0 137.5 -21t98 -54.5t62.5 -79t34.5 -90t9.5 -91.5l-219 -51 q0 85 -29 130.5t-102 45.5q-125 0 -125 -178q0 -33 2.5 -52.5t13 -43.5t31 -42t56.5 -38.5t90 -41.5q75 -29 126 -62.5t82 -68t47.5 -83t21.5 -95t5 -116.5q0 -99 -17.5 -173t-57.5 -130.5t-110 -85.5t-169 -29q-177 0 -263.5 95.5t-86.5 250.5z" />
<glyph unicode="T" horiz-adv-x="696" d="M6 1219v206h682v-206h-229v-1219h-223v1219h-230z" />
<glyph unicode="U" horiz-adv-x="886" d="M98 342v1081h221v-1085q0 -62 30 -102.5t93 -40.5q64 0 94.5 43t30.5 114v1071h224v-1058q0 -188 -84.5 -282.5t-262.5 -94.5q-346 0 -346 354z" />
<glyph unicode="V" horiz-adv-x="862" d="M29 1425h235l96 -585l66 -449h10l66 449l98 585h234l-273 -1425h-264z" />
<glyph unicode="W" horiz-adv-x="1251" d="M31 1425h241q31 -245 60 -532l39 -375h8q27 159 51 318l105 589h188l102 -591q5 -36 54 -322h8l33 324l57 589h244l-207 -1425h-230l-112 618l-41 240h-8l-43 -244l-115 -614h-227z" />
<glyph unicode="X" horiz-adv-x="847" d="M12 0l289 745l-268 680h248l139 -428l8 2l135 426h250l-276 -680q55 -141 157.5 -395.5t139.5 -349.5h-248l-162 489h-4l-162 -489h-246z" />
<glyph unicode="Y" horiz-adv-x="808" d="M16 1425h234l88 -309l65 -246h9l67 252l80 303h234l-277 -835v-590h-221v590z" />
<glyph unicode="Z" horiz-adv-x="698" d="M45 0v201l379 1018h-363v206h596v-196l-378 -1020h376v-209h-610z" />
<glyph unicode="[" horiz-adv-x="481" d="M127 -209v1636h324v-149h-129v-1335h129v-152h-324z" />
<glyph unicode="\" horiz-adv-x="512" d="M10 1462h166l320 -1513h-164z" />
<glyph unicode="]" horiz-adv-x="481" d="M31 -59h129v1337h-129v149h321v-1638h-321v152z" />
<glyph unicode="^" d="M14 659q228 535 328 762h147l332 -766h-200l-117 293l-90 230l-101 -265q-51 -128 -98 -254h-201z" />
<glyph unicode="_" horiz-adv-x="1024" d="M0 -143h1024v-156h-1024v156z" />
<glyph unicode="`" horiz-adv-x="759" d="M205 1456l182 82l172 -362l-117 -64z" />
<glyph unicode="a" horiz-adv-x="788" d="M57 295q0 50 9.5 94t31.5 85.5t55.5 71.5t86 48t118.5 18h129v111q0 48 -22.5 72t-79.5 24q-35 0 -63.5 -22t-38.5 -72l-201 61q27 114 108.5 177t208.5 63q158 0 235 -71t77 -232v-723h-224v78l-6 2q-63 -92 -186 -92q-238 0 -238 307zM274 307q0 -53 27.5 -81.5 t75.5 -28.5q53 0 81.5 33.5t28.5 91.5v124h-88q-53 0 -89 -33.5t-36 -105.5z" />
<glyph unicode="b" horiz-adv-x="788" d="M76 0v1487h221v-553h8q27 43 79.5 67.5t96.5 24.5q98 0 142 -37t73 -112q29 -79 29 -271v-92q0 -146 -10 -266q-28 -260 -242 -260q-61 0 -102 21t-70 69q-1 0 -3 -1t-3 -1v-76h-219zM295 469q0 -100 2 -147q0 -54 24.5 -87.5t73.5 -33.5q55 0 80 49q23 45 23 246 q0 179 -9 225q-4 25 -12 41q-11 26 -29.5 38.5t-52.5 12.5q-60 0 -84 -53q-14 -22 -14 -60q-1 -31 -1 -107t-1 -124z" />
<glyph unicode="c" horiz-adv-x="733" d="M68 498q0 271 34 354q32 82 104.5 129t186.5 47q150 0 224.5 -82t74.5 -233q-123 -14 -219 -27q0 137 -86 137q-63 0 -84 -61q-16 -54 -16 -225v-74q0 -168 12 -201q23 -72 88 -72q86 0 86 132q37 -7 110.5 -16.5t110.5 -16.5q-2 -144 -81 -222.5t-230 -78.5 q-129 0 -201.5 56.5t-95.5 145.5q-18 74 -18 308z" />
<glyph unicode="d" horiz-adv-x="798" d="M66 500q0 227 24 334q10 41 25 72t41 60t68 44.5t98 15.5q101 0 161 -72h9v533h221v-1487h-219v76q-1 0 -3.5 1t-3.5 1q-53 -90 -174 -90q-213 0 -241 260q-6 59 -6 252zM293 496q0 -202 20 -246q22 -49 80 -49q49 0 74 33.5t25 87.5q2 43 2 143v53q-1 34 -1 95t-1 85 q0 115 -99 115q-55 0 -76 -49q-16 -29 -20 -89.5t-4 -178.5z" />
<glyph unicode="e" horiz-adv-x="770" d="M68 500q0 257 34 348q30 85 103 132.5t188 47.5q151 0 229 -83t78 -238v-252h-413q0 -154 10 -193q21 -69 90 -69q83 0 92 116l221 -35q-8 -137 -88.5 -211.5t-226.5 -74.5q-238 0 -297 202q-20 82 -20 310zM289 606h188v86q0 127 -90 127q-61 0 -82 -59 q-13 -32 -16 -154z" />
<glyph unicode="f" horiz-adv-x="524" d="M25 834v178h96v215q0 128 70 194t184 66h117v-203h-66q-38 0 -60 -24.5t-22 -63.5v-184h152v-178h-152v-834h-223v834h-96z" />
<glyph unicode="g" horiz-adv-x="802" d="M66 420v88q0 136 10 256q16 135 80.5 197.5t162.5 62.5q62 0 103 -21t70 -69q1 0 3 1t3 1v76h219v-1069q0 -349 -320 -349q-143 0 -223 72t-86 207q129 18 217 35q3 -109 96 -109q47 0 71 33t24 84v170h-7q-27 -43 -80 -66.5t-98 -23.5q-110 0 -160 51.5t-67 147.5 q-14 55 -18 225zM295 516q0 -206 20 -258q20 -51 82 -51q51 0 77 39q24 35 24 84v8v205q0 100 -2 147q0 54 -25 87.5t-74 33.5h-6q-52 0 -74 -49q-22 -43 -22 -246z" />
<glyph unicode="h" horiz-adv-x="800" d="M82 0v1487h221v-565h8q32 44 85.5 73t109.5 29q215 0 215 -266v-758h-223v700q0 109 -97 109q-45 0 -72.5 -30.5t-27.5 -84.5v-694h-219z" />
<glyph unicode="i" horiz-adv-x="417" d="M96 0v1012h223v-1012h-223zM96 1210v215h223v-215h-223z" />
<glyph unicode="j" horiz-adv-x="411" d="M-33 -195h33q58 0 77 31.5t19 112.5v1065h223v-1120q0 -297 -311 -297h-41v208zM96 1210v215h223v-215h-223z" />
<glyph unicode="k" horiz-adv-x="819" d="M84 0v1485h219v-836h10l213 363h258l-254 -394l279 -618h-254l-176 416q-19 -36 -76 -135v-281h-219z" />
<glyph unicode="l" horiz-adv-x="454" d="M86 268v1219h223v-1186q0 -61 18 -86t64 -25h25v-202h-41q-153 0 -221 61.5t-68 218.5z" />
<glyph unicode="m" horiz-adv-x="1222" d="M92 0v1014h221v-92l9 -2q75 104 180 104q144 0 194 -117q93 117 217 117q220 0 220 -258v-766h-224v700q0 53 -23 81t-65 28t-69.5 -29t-28.5 -78v-702h-223v700q0 53 -23 81t-65 28t-70.5 -32.5t-28.5 -86.5v-690h-221z" />
<glyph unicode="n" horiz-adv-x="798" d="M78 0v1012h221v-90h8q32 44 84 73t107 29q219 0 219 -260v-764h-221v700q0 109 -93 109q-48 0 -76 -32t-28 -87v-690h-221z" />
<glyph unicode="o" horiz-adv-x="782" d="M68 498q0 271 34 354q30 81 105.5 128.5t189.5 47.5q153 0 226.5 -74t81.5 -198q10 -80 10 -262v-54q0 -88 -10 -186q-32 -268 -328 -268q-135 0 -206.5 66t-88.5 169q-14 101 -14 277zM287 463q0 -148 10 -189q24 -81 98 -81q32 0 56 18.5t32 48.5q5 19 10 93t5 147 q0 180 -13 241q-3 18 -14 37q-20 45 -76 45q-49 0 -73 -37q-6 -10 -10.5 -21t-8 -20.5t-6 -24.5t-4.5 -24.5t-3 -29t-2 -29.5t-1 -35v-36v-42.5v-44.5v-16z" />
<glyph unicode="p" horiz-adv-x="784" d="M70 -391v1405h217v-76l6 -4q53 92 174 92q214 0 242 -262q8 -79 8 -250q0 -225 -25 -336q-40 -190 -231 -190q-106 0 -164 69h-6v-448h-221zM289 369q0 -88 10 -111q20 -57 88 -57q57 0 78 47q24 57 24 270q0 203 -22 246q-15 47 -80 47q-48 0 -73 -32.5t-25 -88.5v-321z " />
<glyph unicode="q" horiz-adv-x="800" d="M68 463v43q0 136 10 256q8 76 32.5 129.5t60 81t72 39.5t79.5 12q62 0 102.5 -21t69.5 -71l6 4v76h219v-1405h-221v471h-9q-27 -43 -79.5 -67.5t-96.5 -24.5q-96 0 -144 40t-71 113q-30 91 -30 324zM297 516q0 -216 20 -268q21 -49 82 -49q43 0 71 31.5t28 76.5 q1 32 1 107t1 116v13q0 102 -2 145q0 56 -25 88.5t-74 32.5q-65 0 -80 -47q-22 -43 -22 -246z" />
<glyph unicode="r" horiz-adv-x="587" d="M102 0v1014h224v-113h4q36 73 87 99t132 26h20v-235q-46 4 -59 4q-91 0 -137.5 -44.5t-46.5 -146.5v-604h-224z" />
<glyph unicode="s" horiz-adv-x="743" d="M57 276l219 33v-8q0 -51 24 -81q26 -32 73 -32q98 0 98 105q0 61 -21 87t-85 50q-61 22 -101.5 40t-80.5 44.5t-62.5 56t-36.5 71.5t-14 95q0 128 81 209.5t230 81.5q155 0 230 -77.5t75 -217.5l-217 -28v8q0 50 -22 80q-24 32 -68 32q-49 0 -69.5 -27t-20.5 -65 q0 -44 21 -69t89 -48q108 -35 166.5 -71.5t89.5 -96.5t31 -153q0 -139 -75.5 -223t-237.5 -84q-149 0 -230.5 73.5t-85.5 214.5z" />
<glyph unicode="t" horiz-adv-x="520" d="M27 840v174h100v256h213v-256h123v-174h-123v-527q0 -59 19.5 -83.5t74.5 -24.5h27v-205h-99q-66 0 -114 21t-74 57.5t-37.5 77t-11.5 86.5v598h-98z" />
<glyph unicode="u" horiz-adv-x="800" d="M80 250v764h223v-703q0 -58 23 -84t69 -26q43 0 74 32.5t31 85.5v695h219v-1014h-221v90l-3 1q-3 1 -6 1q-32 -45 -83 -73.5t-107 -28.5q-120 0 -169.5 68.5t-49.5 191.5z" />
<glyph unicode="v" horiz-adv-x="751" d="M10 1012h242q48 -263 72 -406l51 -307h10l49 305l68 408h239l-239 -1012h-254z" />
<glyph unicode="w" horiz-adv-x="1159" d="M20 1012h234l53 -363l49 -325h9l49 327l57 361h217l57 -359l58 -331h8l45 331l51 359h230l-209 -1012h-240l-51 262l-55 313h-9l-53 -307l-53 -268h-238z" />
<glyph unicode="x" horiz-adv-x="755" d="M10 0q40 86 122 258t122 258l-234 496h248l111 -299h4q19 48 54 148t55 151h243l-233 -496q41 -86 241 -516h-243l-119 317h-6l-123 -317h-242z" />
<glyph unicode="y" horiz-adv-x="735" d="M8 1012h236l63 -375l55 -295h9l55 295l74 375h227l-293 -1168q-31 -119 -94.5 -179t-177.5 -60h-78v194h45q46 0 75 31.5t48 114.5l14 63z" />
<glyph unicode="z" horiz-adv-x="671" d="M53 0v201l318 614h-293v197h543v-187l-324 -618h324v-207h-568z" />
<glyph unicode="{" horiz-adv-x="501" d="M31 547v135q125 14 125 221v289q0 107 57 171t145 64h115v-153h-43q-35 0 -56.5 -37.5t-21.5 -97.5v-267q0 -100 -37 -164t-88 -87v-11q49 -20 87 -85.5t38 -166.5v-286q0 -61 21 -95t57 -34h43v-154h-115q-88 0 -145 64.5t-57 171.5v301q0 207 -125 221z" />
<glyph unicode="|" horiz-adv-x="481" d="M156 -332v1813h174v-1813h-174z" />
<glyph unicode="}" horiz-adv-x="501" d="M33 -57h43q36 0 57 34t21 95v286q0 101 38 166.5t87 85.5v11q-51 23 -88 87t-37 164v267q0 60 -21.5 97.5t-56.5 37.5h-43v153h117q88 0 144 -64t56 -171v-289q0 -207 125 -221v-135q-125 -14 -125 -221v-301q0 -107 -56 -171.5t-144 -64.5h-117v154z" />
<glyph unicode="~" d="M16 508q45 98 104.5 149.5t141.5 51.5q50 0 105.5 -25.5t104 -50.5t83.5 -25t63 21t68 73l121 -71q-98 -203 -234 -203q-56 0 -156 50t-145 50q-39 0 -69 -19.5t-72 -74.5z" />
<glyph unicode="&#xa2;" d="M100 498q0 268 35 354q60 150 227 172v209h109v-207q126 -12 190 -93.5t64 -219.5q-123 -14 -219 -27q0 137 -86 137q-63 0 -84 -61q-17 -57 -17 -225v-74q0 -165 13 -201q23 -72 88 -72q86 0 86 132q37 -7 110.5 -16.5t110.5 -16.5q-2 -129 -67.5 -206.5t-188.5 -90.5 v-232h-109v232q-196 18 -243 198q-19 78 -19 308z" />
<glyph unicode="&#xa3;" d="M61 0v186q58 98 82.5 180t36.5 218h-117v172h105q-7 37 -43.5 152.5t-36.5 195.5q0 151 92.5 242.5t241.5 91.5q162 0 254 -89t92 -247l-215 -49q0 81 -32.5 126.5t-96.5 45.5q-49 0 -82 -33.5t-33 -87.5q0 -52 35 -164t47 -184h199v-172h-193q0 -116 -21.5 -202.5 t-66.5 -180.5h428v-201h-676z" />
<glyph unicode="&#xa5;" d="M35 1425h227l80 -284q47 -198 70 -281h10l70 283q54 207 75 282h226l-234 -723h170v-118h-203q-4 -28 -4 -45v-60h207v-121h-207v-358h-215v358h-201v121h201v60q0 17 -4 45h-197v118h162z" />
<glyph unicode="&#xa8;" horiz-adv-x="724" d="M100 1163v215h193v-215h-193zM436 1163v215h193v-215h-193z" />
<glyph unicode="&#xa9;" horiz-adv-x="1439" d="M88 698q0 209 70 370t212.5 255t340.5 94q147 0 265 -54t196 -150t119.5 -227.5t41.5 -287.5q0 -153 -41.5 -283.5t-119.5 -226.5t-196.5 -150t-264.5 -54q-150 0 -269 54t-196 150t-117.5 226t-40.5 284zM233 698q0 -162 55 -292t165 -209.5t258 -79.5q94 0 172 30 t134 83t95 126t57.5 159t18.5 183q0 123 -31.5 229t-90 186.5t-150 126.5t-205.5 46q-118 0 -210.5 -46t-150.5 -127t-87.5 -186t-29.5 -229zM481 483v404q0 108 64.5 169.5t169.5 61.5q100 0 166.5 -62t66.5 -159l-137 -35q-2 54 -27 85.5t-69 31.5q-45 0 -68.5 -25 t-23.5 -63v-418q0 -35 26 -59.5t64 -24.5q88 0 94 117l141 -29q-4 -109 -66 -168t-167 -59q-103 0 -168.5 60t-65.5 173z" />
<glyph unicode="&#xab;" horiz-adv-x="997" d="M92 492l230 395h210l-225 -395l225 -398h-210zM467 492l229 395h211l-225 -395l225 -398h-211z" />
<glyph unicode="&#xad;" horiz-adv-x="747" d="M100 479v193h570v-193h-570z" />
<glyph unicode="&#xae;" horiz-adv-x="995" d="M84 1004q0 211 108.5 343t305.5 132q190 0 299.5 -133t109.5 -342q0 -207 -109.5 -339.5t-299.5 -132.5q-196 0 -305 132t-109 340zM188 1008q0 -168 81.5 -270.5t228.5 -102.5q152 0 227.5 103t75.5 270q0 106 -33.5 189.5t-103.5 135t-166 51.5q-151 0 -230.5 -105.5 t-79.5 -270.5zM350 719v559h152q155 0 155 -174q0 -108 -67 -148l88 -237h-117l-74 217h-30v-217h-107zM457 1032h39q55 0 55 72q0 78 -62 78h-32v-150z" />
<glyph unicode="&#xb4;" horiz-adv-x="759" d="M270 1176l174 362l183 -82l-238 -344z" />
<glyph unicode="&#xb8;" horiz-adv-x="882" d="M205 -385l35 92q64 -29 120 -29q30 0 51 18.5t21 47.5q0 71 -92 68l-51 38l61 205l101 -2l-45 -145q92 -11 130.5 -60t38.5 -108q0 -24 -9.5 -50.5t-29.5 -53t-58 -43.5t-87 -17q-110 0 -186 39z" />
<glyph unicode="&#xbb;" horiz-adv-x="997" d="M94 94l225 398l-225 395h213l228 -395l-228 -398h-213zM469 94l227 398l-227 395h213l227 -395l-227 -398h-213z" />
<glyph unicode="&#x2c6;" horiz-adv-x="765" d="M72 1169l270 306h129l258 -304l-88 -79l-240 192l-241 -192z" />
<glyph unicode="&#x2da;" horiz-adv-x="788" d="M227 1282q0 82 56.5 139.5t140.5 57.5t139 -57t55 -140t-55 -140t-139 -57t-140.5 57.5t-56.5 139.5zM342 1280q0 -35 23.5 -57.5t58.5 -22.5q33 0 56.5 22.5t23.5 57.5q0 32 -24 56t-56 24q-35 0 -58.5 -23.5t-23.5 -56.5z" />
<glyph unicode="&#x2dc;" horiz-adv-x="741" d="M47 1227q36 80 93.5 127t115.5 47q43 0 115.5 -37t103.5 -37q29 0 53.5 17t59.5 61q22 -14 106 -64q-84 -178 -200 -178q-49 0 -122.5 37t-103.5 37q-54 0 -112 -78z" />
<glyph unicode="&#x401;" horiz-adv-x="778" d="M106 0v1425h633v-208h-411v-388h358v-211h-358v-409h411v-209h-633zM162 1516v217h192v-217h-192zM498 1516v217h192v-217h-192z" />
<glyph unicode="&#x402;" horiz-adv-x="1011" d="M20 1219v206h746v-206h-315v-332h6q96 71 215 71q70 0 120.5 -23.5t77 -65t38.5 -87t12 -98.5v-383q0 -187 -69 -279t-233 -92h-45v185q123 0 123 159v349q0 62 -24.5 96.5t-85.5 34.5q-65 0 -135 -64v-690h-222v1219h-209z" />
<glyph unicode="&#x403;" horiz-adv-x="770" d="M106 0v1425h617v-208h-395v-1217h-222zM236 1577l315 248l131 -154l-367 -201z" />
<glyph unicode="&#x404;" horiz-adv-x="823" d="M94 340v709q0 83 19 151.5t59 123t108 84.5t160 30q165 0 251.5 -86.5t86.5 -231.5l-215 -43q-2 69 -34 110.5t-91 41.5q-47 0 -76.5 -28.5t-39 -63.5t-9.5 -76v-227h285v-216h-285v-282q0 -25 5 -47.5t17 -45t36.5 -35.5t60.5 -13q119 0 125 157l221 -35 q-8 -156 -94 -242.5t-244 -86.5q-176 0 -261 88.5t-85 263.5z" />
<glyph unicode="&#x405;" horiz-adv-x="841" d="M72 334l219 43q5 -89 33.5 -134.5t101.5 -45.5q36 0 61 12t38.5 29.5t21 47t9 54.5t1.5 63q0 105 -29 145t-133 85q-81 34 -138 70.5t-91 73t-53 82t-25 88t-6 100.5q0 180 87.5 285.5t264.5 105.5q77 0 137.5 -21t98 -54.5t62.5 -79t34.5 -90t9.5 -91.5l-219 -51 q0 85 -29 130.5t-102 45.5q-125 0 -125 -178q0 -33 2.5 -52.5t13 -43.5t31 -42t56.5 -38.5t90 -41.5q75 -29 126 -62.5t82 -68t47.5 -83t21.5 -95t5 -116.5q0 -99 -17.5 -173t-57.5 -130.5t-110 -85.5t-169 -29q-177 0 -263.5 95.5t-86.5 250.5z" />
<glyph unicode="&#x406;" horiz-adv-x="444" d="M111 0v1425h223v-1425h-223z" />
<glyph unicode="&#x407;" horiz-adv-x="444" d="M-43 1530v215h193v-215h-193zM111 0v1425h223v-1425h-223zM293 1530v215h192v-215h-192z" />
<glyph unicode="&#x408;" horiz-adv-x="720" d="M-41 150l164 126q23 -35 60.5 -58t70.5 -23q64 0 95.5 43t31.5 108v1079h221v-1071q0 -178 -88 -272t-258 -94q-196 0 -297 162z" />
<glyph unicode="&#x409;" horiz-adv-x="1300" d="M2 127q73 42 109.5 95.5t51.5 140.5t15 243v819h604v-546h95q108 0 183 -29.5t117.5 -87.5t61 -134t18.5 -179q0 -224 -92.5 -336.5t-283.5 -112.5h-320v1217h-186v-549q0 -143 -8 -241t-26.5 -175.5t-52.5 -129.5t-82 -89.5t-120 -69.5zM782 209h84q97 0 136.5 60.5 t39.5 174.5q0 119 -41 171.5t-139 52.5h-80v-459z" />
<glyph unicode="&#x40a;" horiz-adv-x="1312" d="M106 0v1425h220v-569h247v569h222v-569h94q211 0 296 -103t85 -315q0 -223 -92.5 -330.5t-286.5 -107.5h-318v645h-247v-645h-220zM795 209h82q8 0 28 4q86 7 118 62t32 159q0 117 -40.5 164t-142.5 47h-77v-436z" />
<glyph unicode="&#x40b;" horiz-adv-x="1009" d="M18 1219v206h742v-206h-309v-332h6q99 71 215 71q125 0 186.5 -72.5t61.5 -201.5v-684h-224v625q0 63 -25.5 96t-84.5 33q-30 0 -67.5 -17t-67.5 -47v-690h-222v1219h-211z" />
<glyph unicode="&#x40c;" horiz-adv-x="899" d="M106 0v1425h220v-602h45q76 0 122 45t70 152l86 403h207l-90 -426q-46 -205 -174 -258v-4q76 -29 119 -91t67 -169q14 -65 48 -226t53 -249h-222q-62 320 -84 418q-23 112 -67.5 158.5t-120.5 46.5h-59v-623h-220zM313 1577l316 248l131 -154l-367 -201z" />
<glyph unicode="&#x40e;" horiz-adv-x="796" d="M12 1423h215l176 -737h11l170 739h207l-287 -1101q-22 -90 -51 -154t-57 -99.5t-66.5 -56t-69 -26.5t-76.5 -8h-80v178h52q50 0 81.5 33t55.5 106q2 2 6 17t8 32t6 21zM113 1733h161q5 -47 44.5 -92.5t89.5 -45.5q56 0 92.5 45t36.5 93h161q-4 -47 -23 -94t-52 -90.5 t-89.5 -71t-125.5 -27.5q-61 0 -111.5 18.5t-83 47.5t-55 67t-33 75.5t-12.5 74.5z" />
<glyph unicode="&#x40f;" horiz-adv-x="888" d="M106 0v1425h222v-1210h235v1210h221v-1425h-245v-272h-185v272h-248z" />
<glyph unicode="&#x410;" horiz-adv-x="864" d="M23 0l286 1425h246l289 -1425h-226l-55 297h-262q-41 -221 -53 -297h-225zM334 504h194l-92 592h-10q-39 -285 -92 -592z" />
<glyph unicode="&#x411;" horiz-adv-x="843" d="M104 0v1425h623v-208h-403v-340h94q108 0 183 -29t118 -87t61.5 -134t18.5 -181q0 -224 -93 -335t-284 -111h-318zM324 209h84q16 0 28 6q85 7 117.5 65t32.5 162q0 120 -41 173t-142 53h-79v-459z" />
<glyph unicode="&#x412;" horiz-adv-x="880" d="M106 0v1425h312q186 0 272 -97t86 -290q0 -217 -151 -282v-11q163 -53 163 -313q0 -222 -95 -327t-292 -105h-295zM328 207h88q51 0 84.5 18.5t49.5 54.5t22 75.5t6 95.5q0 102 -38 150t-128 48h-84v-442zM328 850h71q166 0 166 184q0 99 -39 142t-129 43h-69v-369z" />
<glyph unicode="&#x413;" horiz-adv-x="770" d="M106 0v1425h617v-208h-395v-1217h-222z" />
<glyph unicode="&#x414;" horiz-adv-x="993" d="M16 184l84 19q55 59 76.5 138t26.5 218l24 866h637v-1224h90v-471h-186v270h-565v-270h-187v454zM338 201h307v1020h-227l-17 -660q-5 -140 -17.5 -222t-45.5 -138z" />
<glyph unicode="&#x415;" horiz-adv-x="778" d="M106 0v1425h633v-208h-411v-388h358v-211h-358v-409h411v-209h-633z" />
<glyph unicode="&#x416;" horiz-adv-x="1392" d="M41 0l98 475q24 107 67.5 169t119.5 91v4q-62 26 -107 91.5t-65 166.5l-91 426h205l88 -403q23 -106 73 -151.5t112 -45.5h45v602h221v-602h37q74 0 121.5 43.5t70.5 153.5q5 26 44 201.5t44 201.5h205q-20 -109 -90 -426q-46 -206 -172 -258l-2 -2q76 -29 120 -92 t68 -170l99 -475h-219l-84 418q-22 112 -68 158.5t-121 46.5h-53v-623h-221v623h-54q-81 0 -123 -46t-65 -159q-62 -321 -84 -418h-219z" />
<glyph unicode="&#x417;" horiz-adv-x="827" d="M55 1100q10 159 102.5 248.5t245.5 89.5q342 0 342 -381q0 -41 -4.5 -81t-16 -88.5t-37 -88t-62.5 -58.5v-6q127 -63 127 -317q0 -220 -88.5 -325t-264.5 -105q-160 0 -251 88.5t-91 251.5l217 43q1 -91 33 -130.5t94 -39.5q123 0 123 223q0 219 -125 219h-86v188h90 q61 0 92 57.5t31 160.5q0 84 -34.5 130t-96.5 46q-63 0 -94 -47t-33 -125z" />
<glyph unicode="&#x418;" horiz-adv-x="931" d="M98 0v1425h215v-903h9l296 903h216v-1425h-218v893h-6l-299 -893h-213z" />
<glyph unicode="&#x419;" horiz-adv-x="931" d="M98 0v1425h215v-903h9l296 903h216v-1425h-218v893h-6l-299 -893h-213zM182 1749h162q5 -47 44 -92t89 -45q56 0 92.5 44.5t36.5 92.5h162q-4 -47 -23 -94t-52.5 -90.5t-90 -71t-125.5 -27.5q-61 0 -111.5 18.5t-83 47.5t-55 67t-33 75.5t-12.5 74.5z" />
<glyph unicode="&#x41a;" horiz-adv-x="899" d="M106 0v1425h220v-602h45q76 0 122 45t70 152l86 403h207l-90 -426q-46 -205 -174 -258v-4q76 -29 119 -91t67 -169q14 -65 48 -226t53 -249h-222q-62 320 -84 418q-23 112 -67.5 158.5t-120.5 46.5h-59v-623h-220z" />
<glyph unicode="&#x41b;" horiz-adv-x="927" d="M10 127q73 42 109.5 95.5t51.5 140.5t15 243v819h631v-1425h-219v1217h-215v-549q0 -143 -8 -241t-26.5 -175.5t-52.5 -129.5t-82 -89.5t-120 -69.5z" />
<glyph unicode="&#x41c;" horiz-adv-x="1173" d="M100 0v1425h213l156 -405l113 -309h10l115 317l153 397h213v-1425h-221v821h-8l-90 -254l-101 -256h-133l-102 264l-88 250h-11v-825h-219z" />
<glyph unicode="&#x41d;" horiz-adv-x="907" d="M106 0v1425h220v-596h256v596h219v-1425h-219v623h-256v-623h-220z" />
<glyph unicode="&#x41e;" horiz-adv-x="880" d="M94 342v717q0 177 84 278t262 101q188 0 267 -95t79 -282v-696q0 -188 -85 -282.5t-263 -94.5q-177 0 -260.5 89.5t-83.5 264.5zM315 338q0 -62 30 -102.5t93 -40.5q64 0 94.5 43t30.5 114v725q0 154 -123 154q-37 0 -63 -16.5t-39 -44.5t-18 -56t-5 -59v-717z" />
<glyph unicode="&#x41f;" horiz-adv-x="880" d="M106 0v1425h668v-1425h-221v1212h-225v-1212h-222z" />
<glyph unicode="&#x420;" horiz-adv-x="843" d="M106 0v1425h316q197 0 288 -103t91 -329q0 -104 -19 -182.5t-62 -139.5t-119 -92.5t-183 -31.5h-90v-547h-222zM328 758h78q100 0 141 56t41 177q0 111 -40 168.5t-138 57.5h-82v-459z" />
<glyph unicode="&#x421;" horiz-adv-x="831" d="M94 338v711q0 83 18.5 151t57.5 123t107.5 85t162.5 30q170 0 254 -90t84 -240l-215 -55q0 82 -31 129t-94 47q-37 0 -63 -16t-39 -43t-18 -53.5t-5 -57.5v-723q0 -24 5 -46t17 -44.5t37 -36.5t60 -14q122 0 125 176q58 -11 221 -33q-5 -165 -91.5 -257.5t-248.5 -92.5 q-344 0 -344 350z" />
<glyph unicode="&#x422;" horiz-adv-x="696" d="M6 1219v206h682v-206h-229v-1219h-223v1219h-230z" />
<glyph unicode="&#x423;" horiz-adv-x="796" d="M12 1423h215l176 -737h11l170 739h207l-287 -1101q-22 -90 -51 -154t-57 -99.5t-66.5 -56t-69 -26.5t-76.5 -8h-80v178h52q50 0 81.5 33t55.5 106q2 2 6 17t8 32t6 21z" />
<glyph unicode="&#x424;" horiz-adv-x="1134" d="M90 526v461q0 112 55 197.5t138 127.5t176 42v71h219l2 -71q69 -4 133.5 -29t117.5 -69.5t84.5 -114.5t31.5 -156v-506q0 -69 -21.5 -127.5t-57 -99.5t-83.5 -71.5t-100 -46.5t-107 -21v-113h-219v113h-2q-367 37 -367 413zM299 459q0 -73 48.5 -116t111.5 -48v879 q-160 -23 -160 -170v-545zM678 1174l2 -879q62 8 111 52t49 112v545q0 75 -45 119.5t-117 50.5z" />
<glyph unicode="&#x425;" horiz-adv-x="847" d="M12 0l289 745l-268 680h248l139 -428l8 2l135 426h250l-276 -680q55 -141 157.5 -395.5t139.5 -349.5h-248l-162 489h-4l-162 -489h-246z" />
<glyph unicode="&#x426;" horiz-adv-x="913" d="M104 0v1425h222v-1218h247v1218h222v-1218h92v-477h-185v270h-598z" />
<glyph unicode="&#x427;" horiz-adv-x="878" d="M82 877v548h219v-520q0 -87 32.5 -119t102.5 -32q56 0 115 24v647h221v-1425h-221v582q-79 -23 -162 -23q-149 0 -228 74t-79 244z" />
<glyph unicode="&#x428;" horiz-adv-x="1298" d="M106 0v1425h222v-1218h211v1218h221v-1218h213v1218h219v-1425h-1086z" />
<glyph unicode="&#x429;" horiz-adv-x="1325" d="M104 0v1425h222v-1218h211v1218h221v-1218h213v1218h221v-1218h94v-477h-186v270h-996z" />
<glyph unicode="&#x42a;" horiz-adv-x="1054" d="M27 1217v208h510v-546h94q108 0 183 -29.5t118 -87.5t61.5 -134t18.5 -179q0 -449 -377 -449h-320v1217h-288zM537 211h84q97 0 136.5 59.5t39.5 173.5q0 119 -41.5 171.5t-139.5 52.5h-79v-457z" />
<glyph unicode="&#x42b;" horiz-adv-x="1243" d="M104 0v1425h220v-548h94q108 0 183 -29t118 -87t61.5 -134t18.5 -181q0 -224 -93 -335t-284 -111h-318zM324 209h84q97 0 137.5 61t40.5 172q0 120 -41 173t-142 53h-79v-459zM909 0v1425h221v-1425h-221z" />
<glyph unicode="&#x42c;" horiz-adv-x="843" d="M104 0v1425h220v-548h94q108 0 183 -29t118 -87t61.5 -134t18.5 -181q0 -224 -93 -335t-284 -111h-318zM324 209h84q97 0 137.5 61t40.5 172q0 120 -41 173t-142 53h-79v-459z" />
<glyph unicode="&#x42d;" horiz-adv-x="817" d="M49 317l219 35q6 -159 125 -159q35 0 60 15t37 40t17 49.5t5 50.5v270h-285v216h285v237q0 158 -123 158q-116 0 -125 -164l-215 37q6 157 95.5 246.5t250.5 89.5q79 0 138.5 -20t96.5 -54t60 -84.5t32 -105t9 -121.5v-701q0 -364 -340 -364q-158 0 -246 86.5t-96 242.5z " />
<glyph unicode="&#x42e;" horiz-adv-x="1202" d="M106 0v1425h222v-596h121v228q0 177 79 278t248 101q181 0 256.5 -95t75.5 -282v-694q0 -188 -81 -282.5t-251 -94.5q-327 0 -327 354v281h-121v-623h-222zM659 338q0 -62 28 -102.5t89 -40.5q119 0 119 157v723q0 66 -28 110t-91 44q-35 0 -59.5 -16.5t-36 -44.5 t-16.5 -55.5t-5 -59.5v-715z" />
<glyph unicode="&#x42f;" horiz-adv-x="897" d="M53 0l80 453q30 163 131 221q-94 39 -133 119t-39 204q0 208 100 318t279 110h326v-1425h-222v608h-57q-63 0 -109 -48.5t-65 -156.5l-68 -403h-223zM309 997q0 -184 178 -184h88v404h-86q-180 0 -180 -220z" />
<glyph unicode="&#x430;" horiz-adv-x="788" d="M57 295q0 50 9.5 94t31.5 85.5t55.5 71.5t86 48t118.5 18h129v111q0 48 -22.5 72t-79.5 24q-35 0 -63.5 -22t-38.5 -72l-201 61q27 114 108.5 177t208.5 63q158 0 235 -71t77 -232v-723h-224v78l-6 2q-63 -92 -186 -92q-238 0 -238 307zM274 307q0 -53 27.5 -81.5 t75.5 -28.5q53 0 81.5 33.5t28.5 91.5v124h-88q-53 0 -89 -33.5t-36 -105.5z" />
<glyph unicode="&#x431;" horiz-adv-x="778" d="M68 479v174q0 328 52.5 479.5t190.5 215.5q59 28 142.5 60.5t154.5 64.5l74 -158q-62 -36 -147 -72t-129 -59q-64 -34 -93 -101.5t-34 -175.5h2q32 33 73.5 48.5t73.5 15.5q192 0 254 -172q29 -75 29 -328v-18q0 -112 -9 -195q-33 -272 -331 -272q-120 0 -191 57.5 t-94 144.5q-18 77 -18 291zM287 453q0 -162 12 -195q18 -68 94 -68q31 0 56.5 22.5t33.5 55.5q13 53 13 197v47q0 131 -13 182q-22 74 -90 74q-44 0 -74 -41q-17 -20 -22 -57.5t-10 -157.5v-59z" />
<glyph unicode="&#x432;" horiz-adv-x="804" d="M88 0v1012h291q340 0 340 -283q0 -131 -105 -194l2 -3q113 -50 113 -219q0 -160 -87.5 -236.5t-268.5 -76.5h-285zM311 199h76q78 0 103.5 34t25.5 99q0 57 -30 85.5t-99 28.5h-76v-247zM311 612h60q131 0 131 105q0 50 -26.5 74t-88.5 28h-76v-207z" />
<glyph unicode="&#x433;" horiz-adv-x="694" d="M88 0v1014h571v-199h-348v-815h-223z" />
<glyph unicode="&#x434;" horiz-adv-x="915" d="M35 184l84 19q41 53 56 114.5t20 180.5l16 516h577v-815h86v-435h-184v236h-469v-236h-186v420zM342 199h225v616h-161l-11 -305q-4 -124 -16 -194t-37 -117z" />
<glyph unicode="&#x435;" horiz-adv-x="770" d="M68 500q0 257 34 348q30 85 103 132.5t188 47.5q151 0 229 -83t78 -238v-252h-413q0 -154 10 -193q21 -69 90 -69q83 0 92 116l221 -35q-8 -137 -88.5 -211.5t-226.5 -74.5q-238 0 -297 202q-20 82 -20 310zM289 606h188v86q0 127 -90 127q-61 0 -82 -59 q-13 -32 -16 -154z" />
<glyph unicode="&#x436;" horiz-adv-x="1220" d="M31 0q44 176 78 326q21 81 54.5 130.5t92.5 67.5v4q-100 34 -137 189q-10 38 -70 295h207l61 -267q12 -48 28 -79t37.5 -45t40.5 -18.5t46 -4.5h31v412h221v-412h31q73 0 104 38t57 146l52 230h206q-8 -34 -21.5 -93t-25 -109t-22.5 -93q-38 -157 -139 -189v-4 q59 -19 93.5 -69t55.5 -129q13 -54 39.5 -163t38.5 -163h-217q-7 39 -16 82t-20 94.5t-17 81.5q-19 95 -54 126.5t-100 31.5h-45v-416h-221v416h-45q-68 0 -101.5 -31.5t-52.5 -126.5q-8 -44 -26.5 -129t-26.5 -129h-217z" />
<glyph unicode="&#x437;" horiz-adv-x="745" d="M37 258l215 33q6 -109 100 -109q43 0 70 31.5t27 89.5q0 68 -23.5 102.5t-75.5 34.5h-76v166h80q95 0 95 121q0 48 -25.5 76t-71.5 28q-45 0 -71 -30t-31 -80l-203 39q12 124 93.5 193t219.5 69q154 0 234 -73.5t80 -215.5q0 -164 -109 -207v-4q60 -25 83.5 -77.5 t23.5 -143.5q0 -155 -86.5 -233t-239.5 -78q-140 0 -219 69t-90 199z" />
<glyph unicode="&#x438;" horiz-adv-x="860" d="M84 0v1012h217v-609h4l248 609h221v-1012h-221v586h-4l-250 -586h-215z" />
<glyph unicode="&#x439;" horiz-adv-x="860" d="M84 0v1012h217v-609h4l248 609h221v-1012h-221v586h-4l-250 -586h-215zM139 1407h162q5 -47 44 -92t89 -45q56 0 92.5 44.5t36.5 92.5h162q-4 -47 -23 -94t-52.5 -90.5t-90 -71t-125.5 -27.5q-61 0 -111.5 18.5t-83 47.5t-55 67t-33 75.5t-12.5 74.5z" />
<glyph unicode="&#x43a;" horiz-adv-x="806" d="M78 0v1010h221v-412h45q56 0 94 28.5t58 118.5l61 267h209q-10 -37 -70 -295q-37 -156 -141 -189v-4q62 -16 95.5 -65t54.5 -133l79 -326h-217l-55 258q-19 96 -52.5 127t-99.5 31h-61v-416h-221z" />
<glyph unicode="&#x43b;" horiz-adv-x="823" d="M6 137q60 31 90.5 61.5t46 80.5t15.5 133v602h583v-1014h-221v815h-162v-407q0 -105 -18 -181t-55.5 -126.5t-86.5 -81t-120 -52.5z" />
<glyph unicode="&#x43c;" horiz-adv-x="1056" d="M86 0v1014h211l139 -297l90 -193h4l91 195l141 295h209v-1014h-226v541h-4l-61 -144l-86 -182h-131l-86 180l-62 135h-6v-530h-223z" />
<glyph unicode="&#x43d;" horiz-adv-x="817" d="M88 0v1012h223v-408h195v408h223v-1012h-223v428h-195v-428h-223z" />
<glyph unicode="&#x43e;" horiz-adv-x="782" d="M68 498q0 271 34 354q30 81 105.5 128.5t189.5 47.5q153 0 226.5 -74t81.5 -198q10 -80 10 -262v-54q0 -88 -10 -186q-32 -268 -328 -268q-135 0 -206.5 66t-88.5 169q-14 101 -14 277zM287 463q0 -148 10 -189q24 -81 98 -81q32 0 56 18.5t32 48.5q5 19 10 93t5 147 q0 180 -13 241q-3 18 -14 37q-20 45 -76 45q-49 0 -73 -37q-6 -10 -10.5 -21t-8 -20.5t-6 -24.5t-4.5 -24.5t-3 -29t-2 -29.5t-1 -35v-36v-42.5v-44.5v-16z" />
<glyph unicode="&#x43f;" d="M96 0v1014h639v-1014h-223v817h-195v-817h-221z" />
<glyph unicode="&#x440;" horiz-adv-x="784" d="M70 -391v1405h217v-76l6 -4q53 92 174 92q214 0 242 -262q8 -79 8 -250q0 -225 -25 -336q-40 -190 -231 -190q-106 0 -164 69h-6v-448h-221zM289 369q0 -88 10 -111q20 -57 88 -57q57 0 78 47q24 57 24 270q0 203 -22 246q-15 47 -80 47q-48 0 -73 -32.5t-25 -88.5v-321z " />
<glyph unicode="&#x441;" horiz-adv-x="733" d="M68 498q0 271 34 354q32 82 104.5 129t186.5 47q150 0 224.5 -82t74.5 -233q-123 -14 -219 -27q0 137 -86 137q-63 0 -84 -61q-16 -54 -16 -225v-74q0 -168 12 -201q23 -72 88 -72q86 0 86 132q37 -7 110.5 -16.5t110.5 -16.5q-2 -144 -81 -222.5t-230 -78.5 q-129 0 -201.5 56.5t-95.5 145.5q-18 74 -18 308z" />
<glyph unicode="&#x442;" horiz-adv-x="626" d="M-2 815v199h631v-199h-205v-815h-223v815h-203z" />
<glyph unicode="&#x443;" horiz-adv-x="735" d="M8 1012h236l63 -375l55 -295h9l55 295l74 375h227l-293 -1168q-31 -119 -94.5 -179t-177.5 -60h-78v194h45q46 0 75 31.5t48 114.5l14 63z" />
<glyph unicode="&#x444;" horiz-adv-x="1054" d="M70 498q0 214 34 317q30 90 114 143.5t204 65.5v391h209v-391q135 -7 216 -66.5t109 -150.5q27 -80 27 -305v-17q0 -126 -8 -194q-15 -118 -78 -187q-81 -94 -262 -116v-379h-213v377q-151 17 -228.5 75t-107.5 172q-16 82 -16 265zM289 412q2 -21 3.5 -52t2.5 -48 t4 -35.5t8 -30.5q22 -56 113 -66q0 106 1 325t1 324q-87 -15 -115 -81q-18 -42 -18 -193v-143zM631 180q98 12 119 86q16 49 16 215q0 238 -12 271q-22 69 -123 77v-649z" />
<glyph unicode="&#x445;" horiz-adv-x="755" d="M10 0q40 86 122 258t122 258l-234 496h248l111 -299h4q19 48 54 148t55 151h243l-233 -496q41 -86 241 -516h-243l-119 317h-6l-123 -317h-242z" />
<glyph unicode="&#x446;" horiz-adv-x="843" d="M90 0v1014h223v-811h193v811h223v-811h90v-439h-186v236h-543z" />
<glyph unicode="&#x447;" horiz-adv-x="772" d="M53 598v414h223v-344q0 -103 89 -103q52 0 108 33v414h219v-1012h-221v412q-45 -23 -105 -36.5t-94 -13.5q-106 0 -162.5 59.5t-56.5 176.5z" />
<glyph unicode="&#x448;" horiz-adv-x="1198" d="M92 0v1014h221v-811h174v811h224v-811h178v811h219v-1014h-1016z" />
<glyph unicode="&#x449;" horiz-adv-x="1241" d="M92 0v1014h221v-811h174v811h224v-811h176v811h221v-811h92v-420h-184v217h-924z" />
<glyph unicode="&#x44a;" horiz-adv-x="954" d="M23 815v199h481v-373h65q192 0 271.5 -81.5t79.5 -233.5q0 -163 -85.5 -244.5t-263.5 -81.5h-292v815h-256zM504 199h59q137 0 137 125q0 57 -32 87.5t-107 30.5h-57v-243z" />
<glyph unicode="&#x44b;" horiz-adv-x="1132" d="M88 0v1014h225v-373h66q192 0 271 -81.5t79 -233.5q0 -326 -348 -326h-293zM313 199h60q137 0 137 125q0 57 -32 87.5t-107 30.5h-58v-243zM811 0v1014h225v-1014h-225z" />
<glyph unicode="&#x44c;" horiz-adv-x="757" d="M86 0v1014h225v-373h68q192 0 271 -81.5t79 -233.5q0 -326 -348 -326h-295zM311 199h62q135 0 135 125q0 57 -32 87.5t-107 30.5h-58v-243z" />
<glyph unicode="&#x44d;" horiz-adv-x="735" d="M43 274l221 27q6 -111 86 -111q75 0 92 93q9 37 9 139h-238v180h236q0 91 -13 141q-21 82 -84 82q-40 0 -63.5 -30t-24.5 -88q-77 9 -217 28q8 138 90.5 215.5t229.5 77.5q112 0 176 -46t96 -130q31 -73 31 -354q0 -230 -19 -308q-23 -89 -95.5 -145.5t-201.5 -56.5 q-146 0 -226 75t-85 211z" />
<glyph unicode="&#x44e;" horiz-adv-x="1087" d="M78 0v1012h223v-408h98q3 158 31 244q65 176 283 176q229 0 282 -188q25 -93 25 -342v-17q0 -133 -10 -223q-32 -268 -316 -268q-120 0 -187.5 57.5t-90.5 146.5q-17 62 -17 238h-98v-428h-223zM610 463q0 -72 1 -104.5t6 -67.5t16 -55q21 -43 78 -43q31 0 54.5 19 t29.5 48q12 46 12 238t-10 239q-20 84 -86 84q-31 0 -53 -20t-33 -51q-12 -41 -15 -234v-53z" />
<glyph unicode="&#x44f;" horiz-adv-x="792" d="M43 0l76 311q25 111 96 154q-143 56 -143 235q0 150 86 232t245 82h316v-1014h-223v408h-54q-52 0 -83 -35t-50 -129l-51 -244h-215zM289 694q0 -53 36 -79.5t99 -26.5h72v233h-68q-67 0 -103 -32.5t-36 -94.5z" />
<glyph unicode="&#x451;" horiz-adv-x="770" d="M68 500q0 257 34 348q30 85 103 132.5t188 47.5q151 0 229 -83t78 -238v-252h-413q0 -154 10 -193q21 -69 90 -69q83 0 92 116l221 -35q-8 -137 -88.5 -211.5t-226.5 -74.5q-238 0 -297 202q-20 82 -20 310zM131 1178v215h193v-215h-193zM289 606h188v86q0 127 -90 127 q-61 0 -82 -59q-13 -32 -16 -154zM467 1178v215h192v-215h-192z" />
<glyph unicode="&#x452;" horiz-adv-x="821" d="M0 1159v141h90v187h221v-187h262v-141h-262v-252q3 0 5 -1t3 -1q27 43 84 74t115 31q164 0 203 -152q20 -88 20 -377v-80q0 -224 -24 -290q-53 -174 -260 -183h-43l-6 176q100 7 100 80q8 108 8 199q0 260 -8 336q-8 67 -68 67q-63 0 -96 -38.5t-33 -110.5v-637h-221 v1159h-90z" />
<glyph unicode="&#x453;" horiz-adv-x="694" d="M88 0v1014h571v-199h-348v-815h-223zM217 1176l174 362l182 -82l-237 -344z" />
<glyph unicode="&#x454;" horiz-adv-x="757" d="M84 500q0 266 35 352q31 82 105 129t188 47q146 0 224 -73.5t83 -209.5l-221 -22q-4 49 -27.5 74.5t-60.5 25.5q-67 0 -88 -61q-14 -26 -17 -162h240v-178h-242q0 -120 12 -160q22 -69 91 -69q83 0 92 104l223 -31q-6 -130 -90.5 -204t-231.5 -74q-129 0 -201.5 57 t-95.5 145q-18 74 -18 310z" />
<glyph unicode="&#x455;" horiz-adv-x="743" d="M57 276l219 33q-2 -56 24 -88.5t73 -32.5q98 0 98 105q0 61 -21 87t-85 50q-61 22 -101.5 40t-80.5 44.5t-62.5 56t-36.5 71.5t-14 95q0 128 81 209.5t230 81.5q155 0 230 -77.5t75 -217.5l-217 -28q2 56 -22 88t-68 32q-49 0 -69.5 -27t-20.5 -65q0 -44 21 -69t89 -48 q108 -35 166.5 -71.5t89.5 -96.5t31 -153q0 -139 -75.5 -223t-237.5 -84q-149 0 -230.5 73.5t-85.5 214.5z" />
<glyph unicode="&#x456;" horiz-adv-x="417" d="M96 0v1012h223v-1012h-223zM96 1210v215h223v-215h-223z" />
<glyph unicode="&#x457;" horiz-adv-x="417" d="M-53 1163v215h192v-215h-192zM96 0v1012h223v-1012h-223zM283 1163v215h192v-215h-192z" />
<glyph unicode="&#x458;" horiz-adv-x="411" d="M-33 -195h33q58 0 77 31.5t19 112.5v1065h223v-1120q0 -297 -311 -297h-41v208zM96 1210v215h223v-215h-223z" />
<glyph unicode="&#x459;" horiz-adv-x="1175" d="M10 137q60 31 90.5 61.5t46 80.5t15.5 133v600h559v-371h67q191 0 271 -82t80 -233q0 -326 -348 -326h-295v815h-134v-407q0 -105 -18.5 -181t-57 -126.5t-87 -81t-117.5 -52.5zM721 199h61q73 0 105.5 34.5t32.5 90.5q0 118 -142 118h-57v-243z" />
<glyph unicode="&#x45a;" horiz-adv-x="1181" d="M92 0v1014h225v-383h183v383h227v-381h66q192 0 271 -79t79 -228q0 -326 -348 -326h-295v442h-183v-442h-225zM727 199h59q138 0 138 125q0 56 -32 82t-108 26h-57v-233z" />
<glyph unicode="&#x45b;" horiz-adv-x="819" d="M0 1159v141h92v187h221v-187h260v-141h-260v-250l9 -2q32 44 85.5 73.5t108.5 29.5q61 0 104 -20t66.5 -57.5t34 -83.5t10.5 -106v-743h-223v686q0 109 -94 109q-48 0 -74.5 -30t-26.5 -85v-680h-221v1159h-92z" />
<glyph unicode="&#x45c;" horiz-adv-x="806" d="M78 0v1010h221v-412h45q56 0 94 28.5t58 118.5l61 267h209q-10 -37 -70 -295q-37 -156 -141 -189v-4q62 -16 95.5 -65t54.5 -133l79 -326h-217l-55 258q-19 96 -52.5 127t-99.5 31h-61v-416h-221zM315 1176l174 362l183 -82l-238 -344z" />
<glyph unicode="&#x45e;" horiz-adv-x="735" d="M8 1012h236l63 -375l55 -295h9l55 295l74 375h227l-293 -1168q-31 -119 -94.5 -179t-177.5 -60h-78v194h45q46 0 75 31.5t48 114.5l14 63zM78 1407h162q5 -47 44 -92t89 -45q56 0 92.5 44.5t36.5 92.5h162q-4 -47 -23 -94t-52.5 -90.5t-90 -71t-125.5 -27.5 q-61 0 -111.5 18.5t-83 47.5t-55 67t-33 75.5t-12.5 74.5z" />
<glyph unicode="&#x45f;" horiz-adv-x="823" d="M96 0v1012h223v-809h191v809h221v-1012h-225v-256h-189v256h-221z" />
<glyph unicode="&#x490;" horiz-adv-x="770" d="M106 0v1425h435v234h182v-442h-395v-1217h-222z" />
<glyph unicode="&#x491;" horiz-adv-x="694" d="M88 0v1012h391v235h180v-432h-350v-815h-221z" />
<glyph unicode="&#x4d9;" horiz-adv-x="770" d="M70 309v252h413q0 154 -14 193q-21 69 -88 69q-81 0 -90 -116l-221 34q8 137 89 213t228 76q130 0 202 -58t95 -147q21 -87 21 -307q0 -262 -35 -350q-68 -180 -291 -180q-152 0 -230.5 83t-78.5 238zM293 324q0 -127 90 -127q61 0 82 59q13 32 16 154h-188v-86z" />
<glyph unicode="&#x2000;" horiz-adv-x="912" />
<glyph unicode="&#x2001;" horiz-adv-x="1825" />
<glyph unicode="&#x2002;" horiz-adv-x="912" />
<glyph unicode="&#x2003;" horiz-adv-x="1825" />
<glyph unicode="&#x2004;" horiz-adv-x="608" />
<glyph unicode="&#x2005;" horiz-adv-x="456" />
<glyph unicode="&#x2006;" horiz-adv-x="304" />
<glyph unicode="&#x2007;" horiz-adv-x="304" />
<glyph unicode="&#x2008;" horiz-adv-x="228" />
<glyph unicode="&#x2009;" horiz-adv-x="365" />
<glyph unicode="&#x200a;" horiz-adv-x="101" />
<glyph unicode="&#x2010;" horiz-adv-x="747" d="M100 479v193h570v-193h-570z" />
<glyph unicode="&#x2011;" horiz-adv-x="747" d="M100 479v193h570v-193h-570z" />
<glyph unicode="&#x2012;" horiz-adv-x="747" d="M100 479v193h570v-193h-570z" />
<glyph unicode="&#x2013;" horiz-adv-x="1024" d="M41 461v188h942v-188h-942z" />
<glyph unicode="&#x2014;" horiz-adv-x="2048" d="M41 461v188h1966v-188h-1966z" />
<glyph unicode="&#x2018;" horiz-adv-x="536" d="M145 924v252l113 272h123l-59 -268h51v-256h-228z" />
<glyph unicode="&#x2019;" horiz-adv-x="487" d="M135 926l58 266h-52v258h230v-252l-113 -272h-123z" />
<glyph unicode="&#x201a;" horiz-adv-x="438" d="M98 -281l60 269h-54v258h230v-252l-113 -275h-123z" />
<glyph unicode="&#x201c;" horiz-adv-x="706" d="M92 924v252l115 272h123l-60 -268h52v-256h-230zM387 924v252l113 272h123l-58 -268h51v-256h-229z" />
<glyph unicode="&#x201d;" horiz-adv-x="706" d="M94 926l60 266h-54v258h230v-252l-113 -272h-123zM389 926l57 266h-51v258h230v-252l-113 -272h-123z" />
<glyph unicode="&#x201e;" horiz-adv-x="720" d="M94 -279l60 269h-54v256h230v-252l-113 -273h-123zM389 -279l57 269h-51v256h230v-252l-113 -273h-123z" />
<glyph unicode="&#x2026;" horiz-adv-x="1439" d="M100 0v248h230v-248h-230zM608 0v248h228v-248h-228zM1116 0v248h227v-248h-227z" />
<glyph unicode="&#x202f;" horiz-adv-x="365" />
<glyph unicode="&#x2039;" horiz-adv-x="630" d="M96 492l230 395h211l-226 -395l226 -398h-211z" />
<glyph unicode="&#x203a;" horiz-adv-x="630" d="M94 94l225 398l-225 395h213l228 -395l-228 -398h-213z" />
<glyph unicode="&#x205f;" horiz-adv-x="456" />
<glyph unicode="&#x20ac;" d="M39 545v121h76v102h-76v123h76v158q0 83 19 151.5t59 123t108 84.5t160 30q168 0 254 -89t84 -237l-215 -37q-10 154 -125 154q-47 0 -76.5 -28.5t-39 -63.5t-9.5 -76v-170h276v-123h-276v-102h276v-121h-276v-209q0 -25 5 -47.5t17 -45t36.5 -35.5t60.5 -13 q116 0 125 157l221 -30q-6 -156 -93.5 -245t-244.5 -89q-176 0 -261 88.5t-85 263.5v205h-76z" />
<glyph unicode="&#x2122;" horiz-adv-x="1433" d="M84 1282v143h498v-143h-172v-668h-154v668h-172zM662 612v811h141q14 -29 106 -245l80 -177q5 12 32.5 76.5t43.5 98.5l104 247h144v-811h-152v445h-6q-8 -20 -31 -83t-37 -97q-8 -22 -27 -64t-24 -55h-100q-45 102 -53 123q-12 27 -34.5 86.5t-35.5 89.5h-6v-445h-145z " />
<glyph unicode="&#xe000;" horiz-adv-x="1013" d="M0 0v1014h1014v-1014h-1014z" />
</font>
</defs>
</svg>
